Today is a free download without charge Download

Search found 500 matches

Author Message

Clavik

Post Yesterday 21:57

[Quote]

Ускорение / Acceleration (2019) WEB-DLRip- Производство: США / 7Heaven Productions, Cinetel Films
Жанр: Боевик
Режиссер: Майкл Мерино, Дэниэл Дзирилли
Актеры: Шон Патрик Флэнери, Дольф Лундгрен, Чак Лиделл, Наталия Берн, Куинтон Джексон, Дэнни Трехо, Ал Сапиенза, Нг Мэйлин, Джейсон Лондон, Салли Кёркленд
Описание:
Владик Зорич преступный гений, чьи щупальца дотянулись до каждого аспекта преступной жизни Лос-Анджелеса, будь то оружие, азартные игры, наркотики или торговля людьми, выясняет, что его пути пересеклись с самой ловкой оперативницей Роной Зёкки. Похитив сына Роны, Владик заставляет Рону устранить своих конкурентов и вернуть важную информацию и всё это в одну ночь.

Рейтинг MPAA: R (лицам до 17 лет обязательно присутствие взрослого)
Дата мировой премьеры: 8 ноября 2019
Продолжительность: 01:24:45
Качество видео: WEB-DLRip
Перевод: Многоголосый закадровый, любительский (MUZOBOZ)
Субтитры: Отсутствуют
Реклама: Присутствует баннер.
Видео: XviD, 720x400, ~11866 Kbps
Аудио: AC-3, 2 ch, 384 Kbps

MediaInfo:

]
Общее
Полное имя : D:\NNM\Ускорение\Acceleration.2019.WEB-DLRip.avi
Формат : AVI
Формат/Информация : Audio Video Interleave
Профиль формата : OpenDML
Размер файла : 1,34 Гбайт
Продолжительность : 1 ч. 24 м.
Общий поток : 2262 Кбит/сек
Видео
Идентификатор : 0
Формат : MPEG-4 Visual
Профиль формата : Advanced [email protected]
Настройки формата : BVOP2
Параметр BVOP формата : 2
Параметр QPel формата : Нет
Параметр GMC формата : Без точки перехода
Параметр матрицы формата : Default (H.263)
Идентификатор кодека : XVID
Идентификатор кодека/Подсказка : XviD
Продолжительность : 1 ч. 24 м.
Битрейт : 1866 Кбит/сек
Ширина : 720 пикселей
Высота : 400 пикселей
Соотношение сторон : 16:9
Частота кадров : 23,976 (24000/1001) кадра/сек
Цветовое пространство : YUV
Субдискретизация насыщенности : 4:2:0
Битовая глубина : 4 бит
Тип развёртки : Прогрессивная
Метод сжатия : С потерями
Бит/(Пиксели*Кадры) : 0.270
Размер потока : 1,10 Гбайт (82%)
Библиотека кодирования : XviD 1.2.1 (UTC 2008-12-04)
Аудио
Идентификатор : 1
Формат : AC-3
Формат/Информация : Audio Coding 3
Коммерческое название : Dolby Digital
Идентификатор кодека : 2000
Продолжительность : 1 ч. 24 м.
Вид битрейта : Постоянный
Битрейт : 384 Кбит/сек
Каналы : 2 канала
ChannelLayout : L R
Частота : 48,0 КГц
Частота кадров : 31,250 кадров/сек (1536 SPF)
Битовая глубина : 16 бит
Метод сжатия : С потерями
Размер потока : 233 Мбайт (17%)
Выравнивание : Соединение по промежуткам
Продолжительность промежутка : 32 мс. (0,77 видеокадр)
ServiceKind/String : Complete Main
Скриншоты:        

Орлов Владимир

Post Yesterday 16:53

[Quote]

--Маленькие чудовища / Little Monsters-- Информация о фильме
Название: Маленькие чудовища
Оригинальное название: Little Monsters
Год выхода: 2019
Жанр: Ужасы, комедия
Режиссер: Абе Форсайт--В ролях: Лупита Нионго, Джош Гэд, Стивен Пикок, Кэт Стюарт, Александр Инглэнд, Надя Таунсенд, Феликс Уильямсон, Маршалл Напье, Генри Никсон, Джейсон Чонг, Дизель Ла Торрак, Саския Бурмайстер, Рахель Абдулрахман--О фильме: Учительница начальных классов везёт группу детей за город на экскурсию, когда на местности происходит вспышка зомби-вируса. Чтобы спастись и не травмировать детскую психику, женщина убеждает малышей в том, что все эти зомби, кровь, кишки - ненастоящие, а всё происходящее - просто игра. Странная, но весёлая. И вот тот дядя корчится не от боли, а от радости. И не корчится, а смеётся.-- --Страна: Австралия, Великобритания, США
Студия: Made Up Stories, Protagonist Pictures, Snoot Entertainment
Продолжительность: 01:33:43
Перевод: Дублированный iTunes--Файл
Кодек: AVC
Качество: WEB-DL 1080p | Little.Monsters.2019.1080p.HULU.WEB-DL.DD5.1.x264-FGT
Видео: MPEG-4 AVC, 4318 Kбит/с, 1920x1080, 24.000 кадр/с
Звук:Без Рекламы!
Аудио #1: Русский (АС3, 6ch, 384 Кбит/с, 48.0 KHz) Профессиональный (дублированный) iTunes
Аудио #2: Английский (АС3, 6 ch, 640 Кбит/с, 48.0 KHz)
Субтитры: Русские (Переведено студией FOCS, присутствует ненормативная лексика!), английские, испанские--Трейлер--

Тех.данные видеофайла

Источник: Little.Monsters.2019.1080p.HULU.WEB-DL.DD5.1.x264-FGT
General
Unique ID : 229039302561472743844645473653054636570 (0xAC4F5D78CC1D43CB89648E39DA42021A)
Complete name : Little.Monsters.2019.WEB-DL.1080p.mkv
Format : Matroska
Format version : Version 4
File size : 3.50 GiB
Duration : 1 h 33 min
Overall bit rate : 5 344 kb/s
Movie name : Little.Monsters.2019.1080p.HULU.WEB-DL.DD5.1.x264-FGT
Encoded date : UTC 2019-11-10 22:45:00
Writing application : mkvmerge v7.1.0 ('Good Love') 64bit built on Jul 27 2014 13:06:55
Writing library : libebml v1.3.0 + libmatroska v1.4.1
Video
ID : 1
Format : AVC
Format/Info : Advanced Video Codec
Format profile : [email protected]
Format settings : CABAC / 4 Ref Frames
Format settings, CABAC : Yes
Format settings, Reference fra: 4 frames
Codec ID : V_MPEG4/ISO/AVC
Duration : 1 h 33 min
Bit rate : 4 318 kb/s
Width : 1 920 pixels
Height : 1 080 pixels
Display aspect ratio : 16:9
Frame rate mode : Constant
Frame rate : 24.000 FPS
Color space : YUV
Chroma subsampling : 4:2:0
Bit depth : 8 bits
Scan type : Progressive
Bits/(Pixel*Frame) : 0.087
Stream size : 2.83 GiB (81%)
Language : English
Default : Yes
Forced : No
Audio #1
ID : 2
Format : AC-3
Format/Info : Audio Coding 3
Commercial name : Dolby Digital
Codec ID : A_AC3
Duration : 1 h 33 min
Bit rate mode : Constant
Bit rate : 384 kb/s
Channel(s) : 6 channels
Channel layout : L R C LFE Ls Rs
Sampling rate : 48.0 kHz
Frame rate : 31.250 FPS (1536 SPF)
Compression mode : Lossy
Stream size : 257 MiB (7%)
Title : DUB | iTunes
Language : Russian
Service kind : Complete Main
Default : Yes
Forced : No
Audio #2
ID : 3
Format : AC-3
Format/Info : Audio Coding 3
Commercial name : Dolby Digital
Codec ID : A_AC3
Duration : 1 h 33 min
Bit rate mode : Constant
Bit rate : 640 kb/s
Channel(s) : 6 channels
Channel layout : L R C LFE Ls Rs
Sampling rate : 48.0 kHz
Frame rate : 31.250 FPS (1536 SPF)
Compression mode : Lossy
Stream size : 429 MiB (12%)
Language : English
Service kind : Complete Main
Default : No
Forced : No
Text #1
ID : 4
Format : UTF-8
Codec ID : S_TEXT/UTF8
Codec ID/Info : UTF-8 Plain Text
Duration : 1 h 33 min
Bit rate : 115 b/s
Count of elements : 1513
Stream size : 78.9 KiB (0%)
Title : Focs
Language : Russian
Default : No
Forced : No
Text #2
ID : 5
Format : UTF-8
Codec ID : S_TEXT/UTF8
Codec ID/Info : UTF-8 Plain Text
Duration : 1 h 33 min
Bit rate : 90 b/s
Count of elements : 1820
Stream size : 61.8 KiB (0%)
Language : English
Default : No
Forced : No
Text #3
ID : 6
Format : UTF-8
Codec ID : S_TEXT/UTF8
Codec ID/Info : UTF-8 Plain Text
Duration : 1 h 33 min
Bit rate : 96 b/s
Count of elements : 1879
Stream size : 66.2 KiB (0%)
Language : Spanish
Default : No
Forced : No

Скриншоты

           

Орлов Владимир

Post Yesterday 00:07

[Quote]

--Куда ты пропала, Бернадетт? / Where'd You Go, Bernadette--
Информация о фильме
Название: Куда ты пропала, Бернадетт?
Оригинальное название: Where'd You Go, Bernadette
Год выхода: 2019
Жанр: Драма, комедия, детектив
Режиссер: Ричард Линклейтер--В ролях: Кейт Бланшетт, Джуди Грир, Кристен Уиг, Тройэн Эвери Беллисарио, Билли Крудап, Лоренс Фишбёрн, Стив Зан, Меган Маллалли, Клаудия Дурмит, Йоуханнес Хёйкьюр Йоуханнессон--О фильме: У Бернадетт, очаровательной женщины и талантливого архитектора, есть всё: прекрасный дом, замечательная дочь, успешный и любящий муж. Хоть она и выбивается из «безупречной» компании соседских мамаш, никто не мог представить, что в один прекрасный день Бернадетт просто исчезнет без следа. Она отправляется на поиски себя, пытаясь обрести счастье на краю света.-- --Страна: США
Студия: Annapurna Pictures, Color Force
Продолжительность: 01:44:29
Перевод: Дублированный iTunes--Качество: WEB-DL 1080p
Видео: MPEG-4 AVC, 1920x1038, 5206 Кbit/s, 25 fps
Аудио #01: 48 kHz, AC3, 5.1, 384 Kbps | iTunes | RUS |
Аудио #02: 48 kHz, AAC, 2.0, 126 Kbps | iTunes | UKR |
Аудио #02: 48 kHz, AC3, 5.1, 384 Kbps | Оригинал | ENG |
Субтитры: Русские--

Скриншоты

         

Тех.данные видеофайла

General
Unique ID : 181428194726409040957069901138088613388 (0x887DCC9ECAB50407FC8F86272BFED60C)
Complete name : D:Video111Where.d.You.Go.Bernadette.2019.WEB.DL.1080p.seleZen.mkv
Format : Matroska
Format version : Version 4
File size : 4.46 GiB
Duration : 1 h 44 min
Overall bit rate : 6 103 kb/s
Movie name : Where'd You Go, Bernadette 2019 from селезень
Encoded date : UTC 2019-11-18 19:59:11
Writing application : mkvmerge v40.0.0 ('Old Town Road + Pony') 64-bit
Writing library : libebml v1.3.9 + libmatroska v1.5.2
Cover : Yes
Attachments : cover.jpg
Video
ID : 1
Format : AVC
Format/Info : Advanced Video Codec
Format profile : [email protected]
Format settings : CABAC / 4 Ref Frames
Format settings, CABAC : Yes
Format settings, Reference : 4 frames
Codec ID : V_MPEG4/ISO/AVC
Duration : 1 h 44 min
Bit rate : 5 206 kb/s
Width : 1 920 pixels
Height : 1 038 pixels
Display aspect ratio : 1.85:1
Frame rate mode : Constant
Frame rate : 25.000 FPS
Color space : YUV
Chroma subsampling : 4:2:0
Bit depth : 8 bits
Scan type : Progressive
Bits/(Pixel*Frame) : 0.104
Stream size : 3.80 GiB (85%)
Language : English
Default : Yes
Forced : No
Color range : Limited
Color primaries : BT.709
Transfer characteristics : BT.709
Matrix coefficients : BT.709
Audio #1
ID : 2
Format : AC-3
Format/Info : Audio Coding 3
Commercial name : Dolby Digital
Codec ID : A_AC3
Duration : 1 h 44 min
Bit rate mode : Constant
Bit rate : 384 kb/s
Channel(s) : 6 channels
Channel layout : L R C LFE Ls Rs
Sampling rate : 48.0 kHz
Frame rate : 31.250 FPS (1536 SPF)
Bit depth : 16 bits
Compression mode : Lossy
Stream size : 287 MiB (6%)
Title : iTunes
Language : Russian
Service kind : Complete Main
Default : Yes
Forced : Yes
Audio #2
ID : 3
Format : AAC LC
Format/Info : Advanced Audio Codec Low Complexity
Codec ID : A_AAC-2
Duration : 1 h 44 min
Bit rate : 126 kb/s
Channel(s) : 2 channels
Channel layout : L R
Sampling rate : 48.0 kHz
Frame rate : 46.875 FPS (1024 SPF)
Compression mode : Lossy
Stream size : 93.9 MiB (2%)
Title : iTunes
Language : Ukrainian
Default : No
Forced : No
Audio #3
ID : 4
Format : AC-3
Format/Info : Audio Coding 3
Commercial name : Dolby Digital
Codec ID : A_AC3
Duration : 1 h 44 min
Bit rate mode : Constant
Bit rate : 384 kb/s
Channel(s) : 6 channels
Channel layout : L R C LFE Ls Rs
Sampling rate : 48.0 kHz
Frame rate : 31.250 FPS (1536 SPF)
Bit depth : 16 bits
Compression mode : Lossy
Stream size : 287 MiB (6%)
Title : Original
Language : English
Service kind : Complete Main
Default : No
Forced : No
Text
ID : 5
Format : UTF-8
Codec ID : S_TEXT/UTF8
Codec ID/Info : UTF-8 Plain Text
Duration : 1 h 43 min
Bit rate : 129 b/s
Count of elements : 1509
Stream size : 98.4 KiB (0%)
Title : Full
Language : Russian
Default : No
Forced : No
Menu
00:00:00.000 : en:Глава 1
00:01:59.040 : en:Глава 2
00:08:41.040 : en:Глава 3
00:15:01.400 : en:Глава 4
00:24:18.000 : en:Глава 5
00:29:22.760 : en:Глава 6
00:41:22.000 : en:Глава 7
00:50:23.600 : en:Глава 8
01:05:17.200 : en:Глава 9
01:11:28.280 : en:Глава 10
01:17:06.200 : en:Глава 11
01:26:51.080 : en:Глава 12
01:35:48.960 : en:Глава 13

Орлов Владимир

Post Yesterday 00:01

[Quote]

--Куда ты пропала, Бернадетт? / Where'd You Go, Bernadette--
Информация о фильме
Название: Куда ты пропала, Бернадетт?
Оригинальное название: Where'd You Go, Bernadette
Год выхода: 2019
Жанр: Драма, комедия, детектив
Режиссер: Ричард Линклейтер--В ролях: Кейт Бланшетт, Джуди Грир, Кристен Уиг, Тройэн Эвери Беллисарио, Билли Крудап, Лоренс Фишбёрн, Стив Зан, Меган Маллалли, Клаудия Дурмит, Йоуханнес Хёйкьюр Йоуханнессон--О фильме:
У Бернадетт, очаровательной женщины и талантливого архитектора, есть всё: прекрасный дом, замечательная дочь, успешный и любящий муж. Хоть она и выбивается из «безупречной» компании соседских мамаш, никто не мог представить, что в один прекрасный день Бернадетт просто исчезнет без следа. Она отправляется на поиски себя, пытаясь обрести счастье на краю света.-- --Страна: США
Студия: Annapurna Pictures, Color Force
Продолжительность: 01:44:29
Перевод: Дублированный iTunes--Файл
Формат: AVI
Качество: WEB-DLRip
Видео: 704x384 (1.83:1), 25 fps, XviD build 73 ~1607 kbps avg, 0.24 bit/pixel
Звук: 48 kHz, AC3 Dolby Digital, 3/2 (L,C,R,l,r) + LFE ch, ~384 kbps
Субтитры: Нет--

Скриншоты

       

Clavik

Post 18-Nov-2019 21:21

[Quote]

Они / Haunt (2019) WEB-DLRip [H.265/720p-LQ] [10-bit] - Производство: США / Broken Road Productions, Nickel City Pictures
Жанр: Ужасы, Триллер
Режиссер: Скотт Бек, Брайан Вудс
Актеры: Кэти Стивенс, Уилл Бриттейн, Лорин Алиса МакКлейн, Эндрю Колдуэлл, Шази Раджа, Шулер Хелфорд, Филлип Джонсон Ричардсон, Чейни Морроу, Джастин Марксен, Терри Партыка
Описание:
На Хэллоуин в поисках острых ощущений группа студентов отправляется за город на аттракцион «Комнаты страха», который обещает воплотить кошмары из самых жутких фильмов ужасов. Вскоре друзья понимают, что попали вовсе не в место для игр, под масками клоунов скрываются не люди, а существа из другого мира, а сами они теперь — герои настоящего хоррора и должны очень сильно постараться, чтобы выбраться из адского аттракциона живыми.

Возраст: 18+ (зрителям, достигшим 18 лет. запрещено для детей)
Рейтинг MPAA: R (лицам до 17 лет обязательно присутствие взрослого)
Дата мировой премьеры: 23 августа 2019
Дата российской премьеры: 17 октября 2019, «Экспонента»
Продолжительность: 01:32:35
Качество видео: WEB-DLRip (720p)
Перевод: Дублированный (iTunes)
Субтитры: Английские
Видео: HEVC/H.265, 1280x534, 2917 Kbps
Аудио 1: AC3, 6 ch, 384 Kbps | Русский
Аудио 2: AC3, 6 ch, 448 Kbps | Английский

MediaInfo:

Общее
Уникальный идентификатор : 97672495135786266088420680699783527079 (0x497B09CED9224CB07DD705316115BAA7)
Полное имя : Haunt.2019.WEB-DLRip.720p.10bit.HEVC.mkv
Формат : Matroska
Версия формата : Version 4 / Version 2
Размер файла : 2,47 Гбайт
Продолжительность : 1 ч. 32 м.
Общий поток : 3825 Кбит/сек
Название фильма : Haunt 2019
Программа кодирования : XviD4PSP 8.0.91
Библиотека кодирования : Lavf58.20.100
ErrorDetectionType : Per level 1
ENCODING_INFO : MATROSKA,WEBM > MKV
Видео
Идентификатор : 1
Формат : HEVC
Формат/Информация : High Efficiency Video Coding
Профиль формата : Main [url=mailto:[email protected]][email protected][/url]@High
Идентификатор кодека : V_MPEGH/ISO/HEVC
Продолжительность : 1 ч. 32 м.
Битрейт : 2917 Кбит/сек
Ширина : 1280 пикселей
Высота : 534 пикселя
Соотношение сторон : 2,40:1
Режим частоты кадров : Постоянный
Частота кадров : 23,976 (24000/1001) кадра/сек
Цветовое пространство : YUV
Субдискретизация насыщенности : 4:2:0
Битовая глубина : 10 бит
Бит/(Пиксели*Кадры) : 0.178
Размер потока : 1,89 Гбайт (76%)
Язык : English
Default : Да
Forced : Нет
Цветовой диапазон : Limited
Основные цвета : BT.709
Характеристики трансфера : BT.709
Коэффициенты матрицы : BT.709
ENCODING_INFO : H264 > HEVC NVENC CQ 16 HQ
Аудио #1
Идентификатор : 2
Формат : AC-3
Формат/Информация : Audio Coding 3
Параметр Endianness формата : Big
Идентификатор кодека : A_AC3
Продолжительность : 1 ч. 32 м.
Вид битрейта : Постоянный
Битрейт : 384 Кбит/сек
Каналы : 6 каналов
Расположение каналов : Front: L C R, Side: L R, LFE
Частота : 48,0 КГц
Частота кадров : 31,250 кадров/сек (1536 SPF)
Битовая глубина : 16 бит
Метод сжатия : С потерями
Размер потока : 254 Мбайт (10%)
Заголовок : iTunes
Язык : Russian
ServiceKind/String : Complete Main
Default : Да
Forced : Нет
ENCODING_INFO : AC3 > COPY Безопасное
Аудио #2
Идентификатор : 3
Формат : AC-3
Формат/Информация : Audio Coding 3
Параметр Endianness формата : Big
Идентификатор кодека : A_AC3
Продолжительность : 1 ч. 32 м.
Вид битрейта : Постоянный
Битрейт : 448 Кбит/сек
Каналы : 6 каналов
Расположение каналов : Front: L C R, Side: L R, LFE
Частота : 48,0 КГц
Частота кадров : 31,250 кадров/сек (1536 SPF)
Битовая глубина : 16 бит
Метод сжатия : С потерями
Размер потока : 297 Мбайт (12%)
Заголовок : Original
Язык : English
ServiceKind/String : Complete Main
Default : Нет
Forced : Нет
ENCODING_INFO : EAC3 > AC3 CBR 448kbps
Текст #1
Идентификатор : 4
Формат : UTF-8
Идентификатор кодека : S_TEXT/UTF8
Идентификатор кодека/Информация : UTF-8 Plain Text
Заголовок : Full
Язык : English
Default : Да
Forced : Нет
ENCODING_INFO : SUBRIP > COPY Быстрое
Текст #2
Идентификатор : 5
Формат : UTF-8
Идентификатор кодека : S_TEXT/UTF8
Идентификатор кодека/Информация : UTF-8 Plain Text
Заголовок : SDH
Язык : English
Default : Нет
Forced : Нет
ENCODING_INFO : SUBRIP > COPY Быстрое
Скриншоты:
       

Орлов Владимир

Post 18-Nov-2019 20:34

[Quote]

--Дикая Лига --
Информация о фильме
Название: Дикая Лига
Год выпуска: 2019
Жанр: Приключения, боевик
Режиссёр: Андрей Богатырев, Арт Камачо--В ролях: Владимир Яглыч, Аделина Голубенко-Гизатуллина, Иван Охлобыстин, Дмитрий Назаров, Евгений Коряковский, Олеся Судзиловская, Эдриан Пол, Уильям Шокли, Станислав Тикунов, Анатолий Гущин, Иван Михайловский, Вячеслав Шихалеев, Павел Абраменков, Денис Кузнецов, Антон Колесников, Мария Дубина, Михаил Мелин, Вилен Бабичев--Описание: Основанная на реальных событиях начала XX века история парня Варлама из низших социальных слоев, которому ради того, чтобы быть с любимой, пришлось покинуть родные края и начать жить в Москве. Проявившего себя в бою стенка на стенку парня замечает англичанин, владелец футбольного клуба, который предлагает ему попробовать силы в команде. Однако команда не принимает неотесанного бурлака с Волги. Тогда собравшись с силами, Варлам вместе с настоящим патриотом и увлеченным футболом купцом Балашовым создает первую народную команду и становится лидером, изменив при этом свою жизнь и жизнь окружающих. Благодаря Варламу и его команде футбол в России становится поистине народной игрой.-- --Страна: Россия
Студия: Кинокомпания «Союз Маринс Групп», Modern Age Productions
Продолжительность: 01:50:54
Перевод: Не требуется iTunes
Язык: Русский--Файл
Кодек: h.264
Качество: WEB-DLRip-AVC
Видео: MPEG-4 AVC, ~ 1495 Кбит/с, 1024x432, 24 кадр/с
Аудио: AC3, 6 ch, 384 Кбит/с
Cубтитры: нет--

Тех.данные видеофайла

General
Unique ID : 249253291196218879561586117020538900246 (0xBB84700EC2028351BD5A2A21D98C0F16)
Complete name : F:\Dikaya.liga.(2019).WEB-DLRip.(AVC).by.Серый1779.Files-x.mkv
Format : Matroska
Format version : Version 2
File size : 1.46 GiB
Duration : 1 h 50 min
Overall bit rate : 1 879 kb/s
Encoded date : UTC 2019-11-18 16:35:48
Writing application : mkvmerge v7.8.0 ('River Man') 32bit built on Apr 3 2015 12:11:22
Writing library : libebml v1.3.1 + libmatroska v1.4.2
Video
ID : 1
Format : AVC
Format/Info : Advanced Video Codec
Format profile : [email protected]
Format settings : CABAC / 10 Ref Frames
Format settings, CABAC : Yes
Format settings, RefFrames : 10 frames
Codec ID : V_MPEG4/ISO/AVC
Duration : 1 h 50 min
Bit rate : 1 495 kb/s
Width : 1 024 pixels
Height : 432 pixels
Display aspect ratio : 2.40:1
Frame rate mode : Constant
Frame rate : 24.000 FPS
Color space : YUV
Chroma subsampling : 4:2:0
Bit depth : 8 bits
Scan type : Progressive
Bits/(Pixel*Frame) : 0.141
Stream size : 1.13 GiB (78%)
Writing library : x264 core 146 r2538 121396c
Encoding settings : cabac=1 / ref=10 / deblock=1:-2:-1 / analyse=0x3:0x133 / me=umh / subme=11 / psy=1 / psy_rd=1.00:0.08 / mixed_ref=1 / me_range=32 / chroma_me=1 / trellis=2 / 8x8dct=1 / cqm=0 / deadzone=21,11 / fast_pskip=0 / chroma_qp_offset=-3 / threads=18 / lookahead_threads=3 / sliced_threads=0 / nr=0 / decimate=1 / interlaced=0 / bluray_compat=0 / constrained_intra=0 / bframes=11 / b_pyramid=2 / b_adapt=2 / b_bias=0 / direct=1 / weightb=1 / open_gop=0 / weightp=2 / keyint=250 / keyint_min=23 / scenecut=40 / intra_refresh=0 / rc=2pass / mbtree=0 / bitrate=1495 / ratetol=1.0 / qcomp=0.60 / qpmin=0 / qpmax=69 / qpstep=4 / cplxblur=20.0 / qblur=0.5 / ip_ratio=1.40 / pb_ratio=1.30 / aq=2:1.00
Default : Yes
Forced : No
Color range : Limited
Color primaries : BT.709
Transfer characteristics : BT.709
Matrix coefficients : BT.709
Audio
ID : 2
Format : AC-3
Format/Info : Audio Coding 3
Format settings, Endianness : Big
Codec ID : A_AC3
Duration : 1 h 50 min
Bit rate mode : Constant
Bit rate : 384 kb/s
Channel(s) : 6 channels
Channel positions : Front: L C R, Side: L R, LFE
Sampling rate : 48.0 kHz
Frame rate : 31.250 FPS (1536 SPF)
Bit depth : 16 bits
Compression mode : Lossy
Stream size : 305 MiB (20%)
Service kind : Complete Main
Default : Yes
Forced : No

Скриншоты

       

Орлов Владимир

Post 18-Nov-2019 17:44

[Quote]

--Леонардо да Винчи. Неизведанные миры / Io, Leonardo --
Название: Леонардо да Винчи. Неизведанные миры
Оригинальное название: Io, Leonardo
Страна: Италия
Производство: Sky Arte HD, Progetto Immagine, Comune di Milano, Comune di Firenze
Год выпуска: 2019
Жанр: биография, драма
Продолжительность: 01:29:46--Режиссер: Хесус Гарсес Ламберт / Jesus Garces Lambert
Авторы сценария: Оливьеро Дель Папа, Мириам Мосетти, Сара Мосетти--В ролях: Лука Арджентеро, Массимо Де Лоренцо, Мэтт ДеЛуис, Анджела Фонтана, Франческо Паннофино--Описание: Путешествие в сознание Леонардо да Винчи, легенды мировой культуры, одного из самых удивительных гениев, каких знает история человечества, создателя «главной в мире картины» — «Моны Лизы». С помощью самых современных технологий в фильме воссоздаются великие произведения мастера...-- --Перевод: Профессиональный (многоголосый, закадровый) iTunes
Субтитры: нет--Качество: WEB-DL (720p)
Видео: MPEG-4 AVC, 4070 Кбит/с, 1280x536
Аудио: Русский (AC3, 6 ch, 384 Кбит/с)--Дата премьеры (мир): 2 октября 2019
Дата премьеры (РФ): 3 октября 2019, «ПилотКино»-- --

Скриншоты

       

Орлов Владимир

Post 18-Nov-2019 17:35

[Quote]

--Они / Haunt--
Информация о фильме
Название: Они
Оригинальное название: Haunt
Страна: США
Производство: Broken Road Productions, Sierra Pictures (III), Nickel City Pictures
Год выпуска: 2019
Жанр: ужасы, триллер
Продолжительность: 01:32:35--Режиссеры: Брайан Вудс / Bryan Woods, Скотт Бек / Scott Beck
В ролях: Кэти Стивенс, Уилл Бриттейн, Лорин Алиса МакКлейн, Эндрю Колдуэлл, Шази Раджа, Шулер Хелфорд, Филлип Джонсон Ричардсон, Чейни Морроу, Джастин Марксен, Терри Партыка, Джастин Роуз, Дэмиэн Маффей, Шулер Уайт, Сэмюэл К. Хант--Описание: На Хэллоуин в поисках острых ощущений группа студентов отправляется за город на аттракцион «Комнаты страха», который обещает воплотить кошмары из самых жутких фильмов ужасов. Вскоре друзья понимают, что попали вовсе не в место для игр, под масками клоунов скрываются не люди, а существа из другого мира, а сами они теперь — герои настоящего хоррора и должны очень сильно постараться, чтобы выбраться из адского аттракциона живыми...-- --Перевод: Профессиональный (полное дублирование) | iTunes
Субтитры: нет--Качество: WEB-DLRip-AVC
Формат: МКV
Видео кодек: AVC
Аудио кодек: AC3
Видео: 776x320 (2.40:1), 23.976 fps, MPEG-4 AVC ~920 kbps avg
Аудио: 48.0 kHz, AC3 Dolby Digital, 2/0 (L,R) ch, ~192 kbps avg--Дата премьеры (мир): 23 августа 2019
Дата премьеры (РФ): 17 октября 2019, «Экспонента»-- --

Тех.данные видеофайла

General
Complete name: Они (2019) WEB-DLRip-AVC_ivanes.mkv
Format: Matroska
Format version: Version 2
File size: 746 MiB
Duration: 1 h 32 min
Overall bit rate: 1 127 kb/s
Movie name: Они (2019) WEB-DLRip-AVC_ivanes
Encoded date: UTC 2019-11-18 03:57:29
Writing application: mkvmerge v4.4.0 ('Die Wiederkehr') сборка от Jan 3 2011 21:40:45
Writing library: libebml v1.0.0 + libmatroska v1.0.0
Cover: Yes
Attachments: cover.jpg
Video
ID: 1
Format: AVC
Format/Info: Advanced Video Codec
Format profile: [email protected]
Format settings: CABAC / 11 Ref Frames
Format settings, CABAC: Yes
Format settings, Reference: 11 frames
Codec ID: V_MPEG4/ISO/AVC
Duration: 1 h 32 min
Bit rate: 934 kb/s
Width: 776 pixels
Height: 320 pixels
Display aspect ratio: 2.40:1
Frame rate mode: Constant
Frame rate: 23.976 (24000/1001) FPS
Color space: YUV
Chroma subsampling: 4:2:0
Bit depth: 8 bits
Scan type: Progressive
Bits/(Pixel*Frame): 0.157
Stream size: 604 MiB (81%)
Title: Rip by ivanes
Writing library: x264 core 158 r2984+49 6932f4a t_mod_New [[email protected] X86]
Encoding settings: cabac=1 / ref=11 / deblock=1:-3:-3 / analyse=0x3:0x113 / me=umh / subme=10 / psy=1 / fade_compensate=0.00 / psy_rd=1.00:0.00 / mixed_ref=1 / me_range=32 / chroma_me=1 / trellis=2 / 8x8dct=1 / cqm=0 / deadzone=21,11 / fast_pskip=0 / chroma_qp_offset=-2 / threads=12 / lookahead_threads=2 / sliced_threads=0 / nr=0 / decimate=1 / interlaced=0 / bluray_compat=0 / constrained_intra=0 / fgo=0 / bframes=12 / b_pyramid=2 / b_adapt=2 / b_bias=0 / direct=1 / weightb=1 / open_gop=0 / weightp=2 / keyint=240 / keyint_min=23 / scenecut=40 / intra_refresh=0 / rc_lookahead=60 / rc=2pass / mbtree=0 / bitrate=934 / ratetol=1.0 / qcomp=0.60 / qpmin=0:0:0 / qpmax=69:69:69 / qpstep=4 / cplxblur=20.0 / qblur=0.5 / vbv_maxrate=50000 / vbv_bufsize=62500 / nal_hrd=none / filler=0 / ip_ratio=1.40 / pb_ratio=1.30 / aq=1:1.00 / aq-sensitivity=10.00 / aq-factor=1.00:1.00:1.00 / aq2=0 / aq3=0
Default: Yes
Forced: No
Statistics Tags Issue: mkvmerge v29.0.0 ('Like It Or Not') 64-bit 2019-11-18 03:56:03 / mkvmerge v4.4.0 ('Die Wiederkehr') сборка от Jan 3 2011 21:40:45 2019-11-18 03:57:29
FromStats_BitRate: 933485
FromStats_Duration: 01:32:35.592000000
FromStats_FrameCount: 133201
FromStats_StreamSize: 648258042
Audio
ID: 2
Format: AC-3
Format/Info: Audio Coding 3
Commercial name: Dolby Digital
Codec ID: A_AC3
Duration: 1 h 32 min
Bit rate mode: Constant
Bit rate: 192 kb/s
Channel(s): 2 channels
Channel layout: L R
Sampling rate: 48.0 kHz
Frame rate: 31.250 FPS (1536 SPF)
Compression mode: Lossy
Stream size: 127 MiB (17%)
Title: iTunes
Language: Russian
Service kind: Complete Main
Default: Yes
Forced: No

Скриншоты

     

Орлов Владимир

Post 18-Nov-2019 17:29

[Quote]

--Дикая Лига--
Информация о фильме
Название: Дикая Лига
Год выпуска: 2019
Жанр: Приключения, боевик
Режиссёр: Андрей Богатырев, Арт Камачо--В ролях: Владимир Яглыч, Аделина Голубенко-Гизатуллина, Иван Охлобыстин, Дмитрий Назаров, Евгений Коряковский, Олеся Судзиловская, Эдриан Пол, Уильям Шокли, Станислав Тикунов, Анатолий Гущин, Иван Михайловский, Вячеслав Шихалеев, Павел Абраменков, Денис Кузнецов, Антон Колесников, Мария Дубина, Михаил Мелин, Вилен Бабичев--Описание: Основанная на реальных событиях начала XX века история парня Варлама из низших социальных слоев, которому ради того, чтобы быть с любимой, пришлось покинуть родные края и начать жить в Москве. Проявившего себя в бою стенка на стенку парня замечает англичанин, владелец футбольного клуба, который предлагает ему попробовать силы в команде. Однако команда не принимает неотесанного бурлака с Волги. Тогда собравшись с силами, Варлам вместе с настоящим патриотом и увлеченным футболом купцом Балашовым создает первую народную команду и становится лидером, изменив при этом свою жизнь и жизнь окружающих. Благодаря Варламу и его команде футбол в России становится поистине народной игрой.-- --Страна: Россия
Студия: Кинокомпания «Союз Маринс Групп», Modern Age Productions
Продолжительность: 01:51:00
Язык: Русский iTunes--Тех. данные
Качество: WEB-DL 1080p
Видео: MPEG-4 AVC, 4500 Кбит/с, 1920x804
Аудио: AC3, 6 ch, 384 Кбит/с--

Скриншоты

   
       

Орлов Владимир

Post 18-Nov-2019 17:26

[Quote]

--Дикая Лига--
Информация о фильме
Название: Дикая Лига
Год выпуска: 2019
Жанр: Приключения, боевик
Режиссёр: Андрей Богатырев, Арт Камачо--В ролях: Владимир Яглыч, Аделина Голубенко-Гизатуллина, Иван Охлобыстин, Дмитрий Назаров, Евгений Коряковский, Олеся Судзиловская, Эдриан Пол, Уильям Шокли, Станислав Тикунов, Анатолий Гущин, Иван Михайловский, Вячеслав Шихалеев, Павел Абраменков, Денис Кузнецов, Антон Колесников, Мария Дубина, Михаил Мелин, Вилен Бабичев--Описание: Основанная на реальных событиях начала XX века история парня Варлама из низших социальных слоев, которому ради того, чтобы быть с любимой, пришлось покинуть родные края и начать жить в Москве. Проявившего себя в бою стенка на стенку парня замечает англичанин, владелец футбольного клуба, который предлагает ему попробовать силы в команде. Однако команда не принимает неотесанного бурлака с Волги. Тогда собравшись с силами, Варлам вместе с настоящим патриотом и увлеченным футболом купцом Балашовым создает первую народную команду и становится лидером, изменив при этом свою жизнь и жизнь окружающих. Благодаря Варламу и его команде футбол в России становится поистине народной игрой.-- --Страна: Россия
Студия: Кинокомпания «Союз Маринс Групп», Modern Age Productions
Продолжительность: 01:51:00
Язык: Русский iTunes--Тех. данные
Качество: WEB-DL 720p
Видео: MPEG-4 AVC, 4000 Кбит/с, 1280x536
Аудио: AC3, 6 ch, 384 Кбит/с--

Скриншоты

           

Орлов Владимир

Post 18-Nov-2019 16:20

[Quote]

--Они / Haunt --
Информация о фильме
Название: Они
Оригинальное название: Haunt
Год выпуска: 2019
Жанр: Ужасы, триллер
Режиссер: Скотт Бек, Брайан Вудс--В ролях: Кэти Стивенс, Уилл Бриттейн, Лорин Алиса МакКлейн, Эндрю Колдуэлл, Шази Раджа, Шулер Хелфорд, Филлип Джонсон Ричардсон, Чейни Морроу, Джастин Марксен, Терри Партыка--О фильме:
На Хэллоуин в поисках острых ощущений группа студентов отправляется за город на аттракцион «Комнаты страха», который обещает воплотить кошмары из самых жутких фильмов ужасов. Вскоре друзья понимают, что это вовсе не место для игр, что под масками клоунов - не люди, а существа из другого мира, а сами они теперь - настоящие герои хоррора и должны разгадать природу зла, чтобы выжить.-- --Страна: США
Студия: Broken Road Productions, Nickel City Pictures, Sierra / Affinity
Продолжительность: 01:28:42
Перевод: Дублированный iTunes-Файл
Формат: AVI
Качество: WEB-DLRip
Источник: |Haunt.2019.720p.WEB-DL.Rus.TeamHD|
Видео: 688x288 (2.39:1), 25 fps, XviD build 73 ~1037 kbps avg, 0.21 bit/pixel
Звук: 48 kHz, MPEG Layer 3, 2 ch, ~128.00 kbps avg
Субтитры: Нет--*** За дубляж спасибо Teamhd--

Скриншоты

       

Орлов Владимир

Post 18-Nov-2019 15:46

[Quote]

--Дикая Лига--
Информация о фильме
Название: Дикая Лига
Год выпуска: 2019
Жанр: Приключения, боевик
Режиссёр: Андрей Богатырев, Арт Камачо--В ролях: Владимир Яглыч, Аделина Голубенко-Гизатуллина, Иван Охлобыстин, Дмитрий Назаров, Евгений Коряковский, Олеся Судзиловская, Эдриан Пол, Уильям Шокли, Станислав Тикунов, Анатолий Гущин, Иван Михайловский, Вячеслав Шихалеев, Павел Абраменков, Денис Кузнецов, Антон Колесников, Мария Дубина, Михаил Мелин, Вилен Бабичев--Описание: Основанная на реальных событиях начала XX века история парня Варлама из низших социальных слоев, которому ради того, чтобы быть с любимой, пришлось покинуть родные края и начать жить в Москве. Проявившего себя в бою стенка на стенку парня замечает англичанин, владелец футбольного клуба, который предлагает ему попробовать силы в команде. Однако команда не принимает неотесанного бурлака с Волги. Тогда собравшись с силами, Варлам вместе с настоящим патриотом и увлеченным футболом купцом Балашовым создает первую народную команду и становится лидером, изменив при этом свою жизнь и жизнь окружающих. Благодаря Варламу и его команде футбол в России становится поистине народной игрой.-- --Страна: Россия
Студия: Кинокомпания «Союз Маринс Групп», Modern Age Productions
Продолжительность: 01:51:00
Язык: Русский iTunes--Тех. данные
Качество: WEB-DLRip
Видео: XviD, 1500 Кбит/с, 720x304
Аудио: AC3, 6 ch, 384 Кбит/с--

Скриншоты

           

kilmister777

Post 18-Nov-2019 10:26

[Quote]

Остров монстров / Legend of Hallowaiian- Год выпуска: 2018
Страна: США
Жанр: мультфильм, фэнтези, приключения, семейный
Продолжительность: 01:18:13
Перевод: Профессиональный (многоголосый закадровый) iTunes- -Режиссер: Шон Патрик О’Рейли-В ролях: Ванесса Уильямс, Марк Хэмилл, Тиа Каррере, Ноа Шнапп, Марк Дакаскос, Тейлор Груббс, Кифер О’Рейли-Описание: В старом городе Хэллоуиан трое молодых друзей, Кай, Эдди и Лейлани, ловя волны на закате находят загадочную скульптуру в тайной пещере. Вскоре они понимают, что нанесли на остров древнее зло в виде гигантского монстра из ананасового дерева. Для того, чтобы победить зло, им предстоит раскрыть свое наследие и поверить в древние истории своих предков.-Качество: WEB-DLRip
Формат: AVI
Видео кодек: XviD
Аудио кодек: AC3
Видео: 720x400 (2.37:1), 24.000 fps, XviD build 73 ~2115 kbps avg, 0.30 bit/pixel
Аудио: 48 kHz, AC3 Dolby Digital, 3/2 (L,C,R,l,r) + LFE ch, ~384 kbps avg-

Скриншоты

       

kilmister777

Post 18-Nov-2019 07:57

[Quote]

Леонардо да Винчи. Неизведанные миры / Io, Leonardo- Год выпуска: 2019
Страна: Италия
Жанр: биография, драма
Продолжительность: 01:29:46
Перевод: Профессиональный (многоголосый закадровый) iTunes- -Режиссер: Хесус Гарсес Ламберт-В ролях: Лука Арджентеро, Массимо Де Лоренцо, Мэтт ДеЛуис, Анджела Фонтана, Франческо Паннофино-Описание: Путешествие в сознание Леонардо да Винчи, легенды мировой культуры, одного из самых удивительных гениев, каких знает история человечества, создателя «главной в мире картины» — «Моны Лизы». С помощью самых современных технологий в фильме воссоздаются великие произведения мастера...-Качество: WEB-DLRip
Формат: AVI
Видео кодек: XviD
Аудио кодек: AC3
Видео: 720x304 (2.37:1), 24.000 fps, XviD build 73 ~1928 kbps avg, 0.30 bit/pixel
Аудио: 48 kHz, AC3 Dolby Digital, 3/2 (L,C,R,l,r) + LFE ch, ~384 kbps avg-

Скриншоты

       

Орлов Владимир

Post 18-Nov-2019 04:37

[Quote]

--Гемини / Gemini Man--
Информация о фильме
Название: Гемини
Оригинальное название: Gemini Man
Год выхода: 2019
Жанр: фантастика, боевик, триллер, драма
Режиссер: Энг Ли--В ролях: Уилл Смит, Мэри Элизабет Уинстэд, Клайв Оуэн, Бенедикт Вонг, Дуглас Ходж, Теодора Вулли, Ральф Браун, Линда Эмонд, Андреа Суч, Илья Волох, Дэвид Моретти, Илона МакКри, Э.Дж. Бонилья, Виктор Хьюго--О фильме: Первоклассный киллер Генри Броган становится мишенью таинственного оперативника, который, кажется, знает наперёд каждый его шаг.-- --Выпущено: Китай, США / Skydance Media, Jerry Bruckheimer Films, Fosun Group Forever Pictures
Продолжительность: 01:46:43
Озвучивание: Дублированное Line
Примечание: Без рекламы!--Файл
Формат: AVI (XviD)
Качество: WEBRip
Видео: 1759 Kb/s, 720x384
Аудио: MP3, 2 ch, 224 Kb/s
Субтитры: Korean - вшитые

Скриншоты

       
 

The time now is: Today 02:05

All times are GMT + 3 Hours