Today is a free download without charge Download

Search found 125 matches

Author Message

K15

Post Yesterday 13:44

[Quote]

- Вечные / Eternals - Информация о фильме:
Название: Вечные
Оригинальное название: Eternals
Год выхода: 2021
Жанр: Фантастика, фэнтези, боевик, драма, приключения
Режиссер: Хлоя Чжао
В ролях: Джемма Чан, Ричард Мэдден, Анджелина Джоли, Сальма Хайек, Кит Харингтон, Кумэйл Нанджиани, Лия МакХью, Брайан Тайри Генри, Лорен Ридлофф, Барри Кеоган, Ма Дон Сок, Хариш Патель, Билл Скарсгард, Хааз Сулейман, Эсай Дэниэл Кросс, Гарри Стайлз, Алан Скотт, Ханна Додд, Адриа Эскудеро, Себастьян Капитан Виверос-Описание: Вечные — представители расы генетически улучшенных суперлюдей, тайно живущих на Земле. Они появились на свет 5 миллионов лет назад в результате экспериментов могущественных целестиалов. Наделённые невероятными суперспособностями, на протяжении тысячелетий они скрывались от человеческой цивилизации, втайне защищая людей от монструозных девиантов. Однако, последние события и действия Таноса заставили их выйти на свет.- -Страна: Великобритания, США
Студия: Marvel Studios, TSG Entertainment
Продолжительность: 02:35:50
Перевод: Профессиональный (многоголосый, закадровый) - HDRezka Studio
-Информация о файле:
Кодек: AVC
Формат: MKV
Качество: WEB-DLRip-AVC
Видео: MPEG-4 AVC, 1024x576, 23.976 fps, 1950 kbps
Аудио RU: AC3, 6 ch, 48 kHz, 448 kbps
Аудио EN: AC3, 6 ch, 48 kHz, 448 kbps
Субтитры: Русские (Forced, full (FOCS), английские-

Скриншоты

     

MediaInfo

x264 info: frame I:2051 Avg QP:11.44 size: 72002
x264 info: frame P:57444 Avg QP:14.97 size: 21040
x264 info: frame B:164687 Avg QP:16.20 size: 5600
x264 info: consecutive B-frames: 2.7% 5.4% 9.1% 50.2% 11.1% 15.6% 2.6% 2.4% 0.3% 0.2% 0.3%
General
Unique ID : 278478749519900399121708843395576593598 (0xD1810E66E5B85FA90261C0EDC05D7CBE)
Complete name : D:uTorrentРипы wolf1245Eternals.2021.MVO.HDRezka.WEB-DLRip-AVC.[wolf1245.ExKinoRay].mkv
Format : Matroska
Format version : Version 4
File size : 3.10 GiB
Duration : 2 h 35 min
Overall bit rate : 2 848 kb/s
Movie name : Eternals.2021.MVO.HDRezka.WEB-DLRip-AVC.[wolf1245.ExKinoRay]
Encoded date : UTC 2022-01-16 13:13:03
Writing application : mkvmerge v64.0.0 ('Willows') 64-bit
Writing library : libebml v1.4.2 + libmatroska v1.6.4
Video
ID : 1
Format : AVC
Format/Info : Advanced Video Codec
Format profile : [email protected]
Format settings : CABAC / 10 Ref Frames
Format settings, CABAC : Yes
Format settings, Reference frames : 10 frames
Codec ID : V_MPEG4/ISO/AVC
Duration : 2 h 35 min
Bit rate : 1 950 kb/s
Width : 1 024 pixels
Height : 576 pixels
Display aspect ratio : 16:9
Frame rate mode : Constant
Frame rate : 23.976 (24000/1001) FPS
Color space : YUV
Chroma subsampling : 4:2:0
Bit depth : 8 bits
Scan type : Progressive
Bits/(Pixel*Frame) : 0.138
Stream size : 2.12 GiB (68%)
Title : -=[wolf1245.ExKinoRay]=-
Writing library : x264 core 163 r3060 5db6aa6
Encoding settings : cabac=1 / ref=10 / deblock=1:-3:-2 / analyse=0x3:0x133 / me=umh / subme=10 / psy=1 / psy_rd=1.05:0.20 / mixed_ref=1 / me_range=32 / chroma_me=1 / trellis=2 / 8x8dct=1 / cqm=0 / deadzone=21,11 / fast_pskip=1 / chroma_qp_offset=-3 / threads=10 / lookahead_threads=2 / sliced_threads=0 / nr=0 / decimate=0 / interlaced=0 / bluray_compat=0 / constrained_intra=0 / bframes=10 / b_pyramid=2 / b_adapt=2 / b_bias=0 / direct=3 / weightb=1 / open_gop=0 / weightp=2 / keyint=240 / keyint_min=24 / scenecut=40 / intra_refresh=0 / rc_lookahead=60 / rc=2pass / mbtree=0 / bitrate=1950 / ratetol=1.0 / qcomp=0.60 / qpmin=0 / qpmax=69 / qpstep=4 / cplxblur=20.0 / qblur=0.5 / vbv_maxrate=50000 / vbv_bufsize=62500 / nal_hrd=none / filler=0 / ip_ratio=1.40 / pb_ratio=1.30 / aq=3:0.80
Language : English
Default : Yes
Forced : No
Color range : Limited
Color primaries : BT.709
Transfer characteristics : BT.709
Matrix coefficients : BT.709
Audio #1
ID : 2
Format : AC-3
Format/Info : Audio Coding 3
Commercial name : Dolby Digital
Codec ID : A_AC3
Duration : 2 h 35 min
Bit rate mode : Constant
Bit rate : 448 kb/s
Channel(s) : 6 channels
Channel layout : L R C LFE Ls Rs
Sampling rate : 48.0 kHz
Frame rate : 31.250 FPS (1536 SPF)
Compression mode : Lossy
Stream size : 499 MiB (16%)
Title : [MVO] HDRezka Studio
Language : Russian
Service kind : Complete Main
Default : Yes
Forced : No
Audio #2
ID : 3
Format : AC-3
Format/Info : Audio Coding 3
Commercial name : Dolby Digital
Codec ID : A_AC3
Duration : 2 h 35 min
Bit rate mode : Constant
Bit rate : 448 kb/s
Channel(s) : 6 channels
Channel layout : L R C LFE Ls Rs
Sampling rate : 48.0 kHz
Frame rate : 31.250 FPS (1536 SPF)
Compression mode : Lossy
Stream size : 499 MiB (16%)
Title : Original | ENG
Language : English
Service kind : Complete Main
Default : Yes
Forced : No
Text #1
ID : 4
Format : UTF-8
Codec ID : S_TEXT/UTF8
Codec ID/Info : UTF-8 Plain Text
Duration : 2 h 35 min
Bit rate : 4 b/s
Count of elements : 115
Stream size : 5.11 KiB (0%)
Title : forced
Language : Russian
Default : Yes
Forced : No
Text #2
ID : 5
Format : UTF-8
Codec ID : S_TEXT/UTF8
Codec ID/Info : UTF-8 Plain Text
Duration : 2 h 35 min
Bit rate : 71 b/s
Count of elements : 1786
Stream size : 81.8 KiB (0%)
Title : full
Language : Russian
Default : No
Forced : No
Text #3
ID : 6
Format : UTF-8
Codec ID : S_TEXT/UTF8
Codec ID/Info : UTF-8 Plain Text
Duration : 2 h 33 min
Bit rate : 40 b/s
Count of elements : 1713
Stream size : 45.5 KiB (0%)
Language : English
Default : No
Forced : No

Theseus

Post 18-Jan-2022 20:50

[Quote]

Вечные / Eternals-Год выхода: 2021
Страна: США
Жанр: фантастика, фэнтези, боевик, приключения
Продолжительность: 02:35:50
Перевод: Профессиональный (многоголосый, закадровый) | HDRezka Studio
Субтитры: Русские (форсированные - вшитые), русские (полные - внешние)-Режиссер: Хлоя Чжао-В ролях: Джемма Чан, Ричард Мэдден, Анджелина Джоли, Сальма Хайек, Кит Харингтон, Кумэйл Нанджиани, Лия МакХью, Брайан Тайри Генри, Лорен Ридлофф, Барри Кеоган-О фильме: Вечные — представители расы генетически улучшенных суперлюдей, тайно живущих на Земле. Они появились на свет 5 миллионов лет назад в результате экспериментов могущественных целестиалов. Наделённые невероятными суперспособностями, на протяжении тысячелетий они скрывались от человеческой цивилизации, втайне защищая людей от монструозных девиантов. Однако, последние события и действия Таноса заставили их выйти на свет.- -Качество: WEB-DLRip
Формат: AVI
Видео кодек: XviD
Аудио кодек: AC3
Видео: 720x304 (2,35:1), 23,976 fps, XviD build 67 ~ 1540 kbps
Аудио: AC3, 48.0 kHz, 6 ch, 448 kb/s | RUS- -

Трейлер

Скриншоты

     
- -

K15

Post 16-Jan-2022 19:43

[Quote]

Вечные / Eternals-Год выхода: 2021
Страна: США
Жанр: фантастика, фэнтези, боевик, приключения
Продолжительность: 02:36:16
Перевод: Профессиональный дублированный | TS
Субтитры: Русские (forced, full / FOCS), английские | Внешние-Режиссер: Хлоя Чжао-В ролях: Джемма Чан, Ричард Мэдден, Анджелина Джоли, Сальма Хайек, Кит Харингтон, Кумэйл Нанджиани, Лия МакХью, Брайан Тайри Генри, Лорен Ридлофф, Барри Кеоган-О фильме: Вечные — представители расы генетически улучшенных суперлюдей, тайно живущих на Земле. Они появились на свет 5 миллионов лет назад в результате экспериментов могущественных целестиалов. Наделённые невероятными суперспособностями, на протяжении тысячелетий они скрывались от человеческой цивилизации, втайне защищая людей от монструозных девиантов. Однако, последние события и действия Таноса заставили их выйти на свет.-Качество: WEB-DLRip
Формат: AVI
Видео кодек: XviD
Аудио кодек: AC3
Видео: MPEG4, XviD, 720x304, 23.976 fps, 1 598 kb/s
Аудио 1: AC3, 48.0 kHz, 2 ch, 192 kb/s | RUS [DUB, TS] (Ред. Sound Master)
Аудио 2: AC3, 48.0 kHz, 2 ch, 192 kb/s | ENG [Оригинал]- -

Скриншоты

         

Theseus

Post 04-Jan-2022 22:03

[Quote]

Охотники за привидениями: Наследники / Ghostbusters: Afterlife-Год выхода: 2021
Страна: США, Канада
Жанр: фантастика, комедия, боевик
Продолжительность: 02:04:22
Перевод: Дублированный
Субтитры: Русские (Forced, full) | Внешние-Режиссер: Джейсон Райтман-В ролях: Кэрри Кун, Пол Радд, Финн Вулфхард, Маккенна Грейс, Логан Ким, Селеста О’Коннор, Билл Мюррей, Дэн Эйкройд, Эрни Хадсон, Энни Поттс-О фильме: Мать-одиночка с двумя детьми-подростками селится на старой ферме в Оклахоме, полученной в наследство от отца, которого она не знала. Дети пытаются больше узнать о своем деде и находят автомобиль Ecto-1, принадлежавший знаменитым охотникам за привидениями.- -Качество: WEB-DLRip
Формат: AVI
Видео кодек: XviD
Аудио кодек: AC3
Видео: MPEG4, XviD, 720x304 (2.35:1), 23.976 fps, 1 289 kb/s
Аудио: AC3, 48.0 kHz, 6 ch, 384 kb/s- -

Трейлер

Скриншоты

     
- -

Theseus

Post 02-Jan-2022 17:31

[Quote]

Охотники за привидениями: Наследники / Ghostbusters: Afterlife-Год выхода: 2021
Страна: США, Канада
Жанр: фантастика, комедия, боевик
Продолжительность: 02:03:49
Перевод: Дублированный (Line)
Субтитры: Отсутствуют-Режиссер: Джейсон Райтман-В ролях: Кэрри Кун, Пол Радд, Финн Вулфхард, Маккенна Грейс, Логан Ким, Селеста О’Коннор, Билл Мюррей, Дэн Эйкройд, Эрни Хадсон, Энни Поттс-О фильме: Мать-одиночка с двумя детьми-подростками селится на старой ферме в Оклахоме, полученной в наследство от отца, которого она не знала. Дети пытаются больше узнать о своем деде и находят автомобиль Ecto-1, принадлежавший знаменитым охотникам за привидениями.- -Качество: WEB-DLRip 1080p
Формат: MKV
Видео кодек: x.264
Аудио кодек: AC3
Видео: AVC, 1920x800 (2.40:1), 23.976 fps, 9 765 kb/s
Аудио: AC3, 48.0 kHz, 2 ch, 256 kb/s-Сэмпл-Присутствует баннер, звуковая реклама-

MI

Код:
Общее
Уникальный идентификатор                 : 180580581923311829605240702352468739397 (0x87DA8E15244B468F891604AA79F40545)
Полное имя                               : Ghostbusters.Afterlifei.2021.WEB-DL.1080p.Line.mkv
Формат                                   : Matroska
Версия формата                           : Version 4 / Version 2
Размер файла                             : 8,67 Гбайт
Продолжительность                        : 2 ч. 3 м.
Режим общего битрейта                    : Постоянный
Общий поток                              : 10,0 Мбит/сек
Дата кодирования                         : UTC 2021-12-29 22:40:37
Программа кодирования                    : mkvmerge v8.3.0 ('Over the Horizon') 64bit
Библиотека кодирования                   : libebml v1.3.1 + libmatroska v1.4.2
Видео
Идентификатор                            : 1
Формат                                   : AVC
Формат/Информация                        : Advanced Video Codec
Профиль формата                          : [email protected]
Настройки формата                        : CABAC / 4 Ref Frames
Параметр CABAC формата                   : Да
Параметр RefFrames формата               : 4 кадра
Идентификатор кодека                     : V_MPEG4/ISO/AVC
Продолжительность                        : 2 ч. 3 м.
Вид битрейта                             : Постоянный
Битрейт                                  : 9 765 Кбит/сек
Номинальный битрейт                      : 11,0 Мбит/сек
Ширина                                   : 1 920 пикселей
Высота                                   : 800 пикселей
Соотношение сторон                       : 2,40:1
Режим частоты кадров                     : Постоянный
Частота кадров                           : 23,976 (24000/1001) кадра/сек
Стандарт вещания                         : Component
Цветовое пространство                    : YUV
Субдискретизация насыщенности            : 4:2:0
Битовая глубина                          : 8 бит
Тип развёртки                            : Прогрессивная
Бит/(Пиксели*Кадры)                      : 0.265
Размер потока                            : 8,45 Гбайт (97%)
Библиотека кодирования                   : x264 core 155
Настройки программы                      : cabac=1 / ref=4 / deblock=1:0:0 / analyse=0x3:0x3 / me=dia / subme=1 / psy=1 / psy_rd=1.00:0.00 / mixed_ref=0 / me_range=16 / chroma_me=1 / trellis=0 / 8x8dct=1 / cqm=1 / deadzone=21,11 / fast_pskip=1 / chroma_qp_offset=0 / threads=25 / lookahead_threads=4 / sliced_threads=0 / slices=1 / nr=0 / decimate=1 / interlaced=0 / minigop=0 / stitchable=1 / constrained_intra=0 / bframes=2 / b_pyramid=0 / b_adapt=0 / b_bias=0 / direct=1 / weightb=1 / open_gop=1 / weightp=0 / keyint=240 / keyint_min=23 / scenecut=40 / intra_refresh=0 / rc_lookahead=0 / rc=cbr / mbtree=0 / bitrate=11000 / ratetol=1.0 / qcomp=0.60 / qpmin=1 / qpmax=69 / qpstep=4 / vbv_maxrate=11000 / vbv_bufsize=11000 / nal_hrd=cbr / filler=1 / ip_ratio=1.40 / pb_ratio=1.30 / aq=1:1.00
Default                                  : Да
Forced                                   : Нет
Цветовой диапазон                        : Limited
Основные цвета                           : BT.709
Характеристики трансфера                 : BT.709
Коэффициенты матрицы                     : BT.709
Аудио
Идентификатор                            : 2
Формат                                   : AC-3
Формат/Информация                        : Audio Coding 3
Коммерческое название                    : Dolby Digital
Идентификатор кодека                     : A_AC3
Продолжительность                        : 2 ч. 3 м.
Вид битрейта                             : Постоянный
Битрейт                                  : 256 Кбит/сек
Каналы                                   : 2 канала
Channel layout                           : L R
Частота                                  : 48,0 КГц
Частота кадров                           : 31,250 кадров/сек (1536 SPF)
Метод сжатия                             : С потерями
Размер потока                            : 227 Мбайт (3%)
Заголовок                                : DUB (Line)
Язык                                     : Russian
Service kind                             : Complete Main
Default                                  : Да
Forced                                   : Нет

Трейлер

Скриншоты

     
- -

K15

Post 28-Dec-2021 14:25

[Quote]

Информация о фильме
Название: Майор Гром: Чумной Доктор [Расширенная версия]
Год выхода: 2021
Жанр: боевик, криминал, детектив, комедия
Режиссер: Олег Трофим--В ролях: Тихон Жизневский, Любовь Аксёнова, Алексей Маклаков, Михаил Евланов, Александр Сетейкин, Сергей Горошко, Дмитрий Чеботарёв, Олег Чугунов, Антон Богданов, Юрий Насонов, Ойсель Море Деспайгне, Кристина Ибадуллаева, Владимир Дикун, Дмитрий Лиманов, Эльдар Мурсалов, Михаил Новиков, Евгений Катаев, Александр Какуев, Владислав Шкерин, Алексей Коршунов, Владислав Спирин, Никита Кологривый, Игорь Захаров, Владимир Лысенко, Алексей Синицин, Алина Недобитко, Николай Пинский, Григорий Сергеев, Игорь Киселёв, Андрей Мясников, Ангелина Тимофеева, Рафаэль Хисматулин--О фильме: Майор полиции Игорь Гром известен всему Санкт-Петербургу пробивным характером и непримиримой позицией по отношению к преступникам всех мастей. Неимоверная сила, аналитический склад ума и неподкупность — всё это делает майора Грома идеальным полицейским. Но всё резко меняется с появлением человека в маске Чумного Доктора. Заявив, что его город «болен чумой беззакония», он принимается за «лечение», убивая людей, которые в своё время избежали наказания при помощи денег и влияния. Общество взбудоражено. Полиция бессильна. Игорь впервые сталкивается с трудностями в расследовании, от итогов которого может зависеть судьба всего города.-- --Выпущено: Россия / Bubble Studio
Продолжительность: 02:33:16
Озвучивание: Оригинальное | КиноПоиск HD--Файл
Формат: AVI
Качество: WEB-DLRip
Видео: XviD, 1580 Kb/s, 720x304
Аудио: Russian: AC3, 448 Kb/s (6 ch)
Субтитры: Russian (Full) - отдельно--

Скриншоты

     

K15

Post 27-Dec-2021 20:12

[Quote]

Матрица: Воскрешение / The Matrix Resurrections
«Выбор за тобой»
Год выпуска: 2021
Страна: США / NPV Entertainment, Silver Pictures, Village Roadshow Pictures, Warner Bros.
Жанр: Фантастика, боевик
Продолжительность: 02:27:54
Перевод: Профессиональный (многоголосый, закадровый) [HDRezka Studio]
Субтитры: Русские (форсированные, полные), английские (полные) - отдельно-Режиссер: Лана Вачовски-В ролях: Киану Ривз, Кэрри-Энн Мосс, Яхья Абдул-Матин II, Джонатан Грофф, Джессика Хенвик, Нил Патрик Харрис, Джада Пинкетт Смит, Приянка Чопра Джонас, Кристина Риччи, Ламбер Вильсон-Описание: В двух реальностях Нео снова придется выбирать, следовать ли за белым кроликом. Выбор, пусть и иллюзорный, все еще остается единственным путем в Матрицу или из нее, что более опасно, чем когда-либо.-Рейтинг: -Качество: WEB-DLRip | исх. The.Matrix.Resurrections.2021.1080p.WEB-DL.mkv |
Формат: AVI
Видео кодек: XviD
Аудио кодек: AC3
Видео: 720x304 (2.37:1), 23.976 fps, XviD build 69 ~1215 kbps avg, 0.23 bit/pixel
Аудио: 48 kHz, AC3 Dolby Digital, 2/0 (L,R) ch, ~192 kbps
-

Скриншоты

     

K15

Post 27-Dec-2021 12:16

[Quote]

Сигнал бедствия / Mayday«-»- Год выхода: 2021
Страна: США
Жанр: Фэнтези, драма, детектив
Продолжительность: 01:39:40
Перевод: Профессиональный (полное дублирование) | iTunes
Субтитры: Русские, Английские
Режиссер: Карен Чинорре
В ролях: Грэйс Ван Паттен, Миа Гот, Хавана Роуз Лью, Стефани Соколински, Теодор Пеллерен, Джульетт Льюис, Франо Маскович, Златко Бурич, Франческо Пьячентини-Смит, Натаниэл Аллен-О фильме: Уставшая от своей серой жизни Ана переносится в другую реальность, где встречает небольшую группу девушек, живущую на берегу бескрайнего моря. В этом мире вечная весна, а на фоне залитых солнцем пейзажей идёт бесконечная война. Подобно сиренам, девушки посылают сигналы бедствия, обрекая несчастных моряков на погибель. Но когда ситуация начинает выходить из-под контроля, Ана понимает, что, возможно, в этом мире ей не место, а путь назад таит в себе множество опасностей…-Качество: HDRip-AVC
Формат: mkv
Видео кодек: AVC
Аудио кодек: AC3
Видео: 1024x428, 23.976 fps, 1950 Кбит/с
Аудио #1: 384 Кбит/с, 6 ch, 48.0 KHz [Russian]
Аудио #2: 448 Кбит/с, 6 ch, 48.0 KHz [English]

Скриншоты

     

K15

Post 27-Dec-2021 12:15

[Quote]

Бестселлер / Best Sellers«-»- Год выхода: 2021
Страна: Канада, Великобритания
Жанр: Драма, комедия
Продолжительность: 01:41:55
Перевод: Профессиональный (полное дублирование) | iTunes
Субтитры: Русские, Английские
Режиссер: Лина Росслер
В ролях: Обри Плаза, Майкл Кейн, Скотт Спидман, Эллен Вонг, Кэри Элвес, Люк Мориссетт, Вероника Феррес, Фрэнк Скорпион, Флоренс Ситу, Филип Ле Мэтр-О фильме: Люси Стэнбридж получила издательский дом в наследство от отца, видного деятеля в этой сфере, но достойно продолжить дело не смогла. У последней выпущенной ею книги продажи хуже некуда, а критики пишут, что этому роману самое место в тюремной библиотеке в качестве дополнительной формы наказания. Отчаявшись, Люси начинает копаться в старых контрактах и выясняет, что популярный в прошлом романист Харрис Шоу должен издательству одну книгу. Хотя его последний роман был опубликован более 30 лет назад, и по условиям договора при отказе от редактуры автор обязан провести промотур, Люси хватается за эту возмость спасти бизнес от банкротства. Девушке приходится отправиться в поездку с упрямым стариком, который мало того что сквернословит и постоянно выпивает, так ещё и отказывается рекламировать собственную книгу.-Качество: WEB-DLRip-AVC
Формат: mkv
Видео кодек: AVC
Аудио кодек: AC3
Видео: 1024x428, 23.976 fps, 2200 Кбит/с
Аудио: 384 Кбит/с, 6 ch, 48.0 KHz

Скриншоты

     

K15

Post 27-Dec-2021 12:06

[Quote]

Не смотрите наверх / Don't Look Up«Based on truly possible events»- Год выхода: 2021
Страна: США
Жанр: Фантастика, драма, комедия
Продолжительность: 02:23:11
Перевод: Профессиональный (полное дублирование) | Пифагор по заказу Netflix
Субтитры: Русские, Украинские
Режиссер: Адам МакКей
В ролях: Тимоти Шаламе, Леонардо ДиКаприо, Дженнифер Лоуренс, Мелани Лински, Кейт Бланшетт, Джона Хилл, Мэрил Стрип, Рон Перлман, Ариана Гранде, Марк Райлэнс-О фильме: Узнав, что через полгода на Землю упадёт гигантский метеорит, двое учёных отправляются в пресс-тур в надежде предупредить мир об опасности, но везде встречают недоверие.-Качество: WEB-DLRip-AVC
Формат: mkv
Видео кодек: AVC
Аудио кодек: AC3
Видео: 1024x428, 24.000 fps, 1735 Кбит/с
Аудио: 448 Кбит/с, 6 ch, 48.0 KHz
Примечание: Релиз без рекламы!

Скриншоты

     

K15

Post 27-Dec-2021 12:02

[Quote]

Мафия: Смертельная игра / The Birthday Cake«Убей или умри»- Год выхода: 2021
Страна: США
Жанр: Триллер, криминал
Продолжительность: 01:25:45
Перевод: Профессиональный (многоголосый, закадровый) | IVI
Субтитры: Отсутствуют
Режиссер: Джимми Яннопулос
В ролях: Юэн Макгрегор, Шайло Фернандес, Вэл Килмер, Лоррейн Бракко, Эшли Бенсон, Джон Магаро, Уильям Фихтнер, Джереми Аллен Уайт, Эмори Коэн, Винсент Пасторе-О фильме: Джованни приглашен на ужин к дяде Анджело, боссу Бруклинской мафии. Вся «семья» ежегодно собирается в этот день, чтобы почтить память отца Джованни, убитого 10 лет назад. Но в этот раз Джо начинает подозревать, что он вовлечен в смертельную игру на выживание, которую затеяли кланы мафиози.-Качество: HDRip-AVC
Формат: mkv
Видео кодек: AVC
Аудио кодек: AC3
Видео: 1024x456, 23.976 fps, 1852 Кбит/с
Аудио: 384 Кбит/с, 6 ch, 48.0 KHz
Примечание: Релиз без рекламы!

Скриншоты

     

K15

Post 27-Dec-2021 11:58

[Quote]

Обратный отсчёт / Balsinjehan«Смертельная игра началась»- Год выхода: 2021
Страна: Южная Корея
Жанр: Триллер, криминал, боевик
Продолжительность: 01:34:20
Перевод: Профессиональный (многоголосый, закадровый) | Кинопоиск HD
Субтитры: Отсутствуют
Режиссер: Ким Чхан-джу
В ролях: Чо У-джин, Ли Джэ-ин, Чин Гён, Ким Джи-хо, Чи Чхан-ук, Чон Сок-хо-О фильме: Привычный план — отвезти детей в школу и отправиться на работу в банк — для героя неожиданно превращается в самый жуткий квест в жизни. Голос с незнакомого телефонного номера утверждает, что в автомобиле бомба. И если кто-то откроет дверь, все погибнут. Помощи просить нельзя. Что делать?-Качество: WEB-DLRip-AVC
Формат: mkv
Видео кодек: AVC
Аудио кодек: AC3
Видео: 1024x428, 23.976 fps, 2084 Кбит/с
Аудио: 448 Кбит/с, 6 ch, 48.0 KHz
Примечание: Релиз без рекламы!

Скриншоты

     

K15

Post 27-Dec-2021 11:55

[Quote]

В тысяче километров от рождества / A mil kilómetros de la Navidad«-»- Год выхода: 2021
Страна: Испания
Жанр: Мелодрама, комедия
Продолжительность: 01:42:32
Перевод: Профессиональный (полное дублирование) | Невафильм по заказу Netflix
Субтитры: Русские, Украинские
Режиссер: Альваро Фернандес Армеро
В ролях: Тамар Новас, Андреа Рос, Вероника Форк, Питер Вивес, Ферми Рейшак, Серхио Позо, Даниэль Бареа Кабрера, Наталья Агуэро Авечилла-О фильме: Аудитор, который терпеть не может Рождество, едет в командировку в небольшой городок. Там герой встречает женщину, твердо решившую изменить его отношение к празднику.-Качество: WEB-DLRip
Формат: avi
Видео кодек: XviD
Аудио кодек: AC3
Видео: 720x304, 24.000 fps, 1581 Кбит/с
Аудио: 448 Кбит/с, 6 ch, 48.0 KHz
Примечание: Релиз без рекламы!

Скриншоты

     

K15

Post 27-Dec-2021 08:25

[Quote]

- Волк / Wolf - Информация о фильме:
Название: Волк
Оригинальное название: Wolf
Год выхода: 2021
Жанр: Триллер, Драма, Детектив
Режиссер: Натали Бьянчери
В ролях: Лили-Роуз Депп, Джордж Маккэй, Пэдди Консидайн, Мартин МакКанн, Терри Нотари, Фионн О’Ши, Лола Петтикрю, Айлин Уолш, Сенан Дженнингс, Хэлен Биэн, Эми Мэкен, Карис Янсен, Джон Вульф, Дарра Шеннон, Коллин Кеог
Описание: Джейкоб — волк, запертый в человеческом теле. Оказавшись в специализированной клинике, он, вместе с другими животными, испытывает на себе жестокие методы лечения. Но все меняется после знакомства с Дикой кошкой.

Страна: Великобритания, Польша, Ирландия
Студия: Feline Films, Head Gear Films, Kreo Films FZ, Lava Films, Metrol Technology
Продолжительность: 01:39:50
Перевод: Любительский (двухголосый, закадровый) - Pazl Voice

Информация о файле:
Кодек: AVC
Формат: MKV
Качество: WEB-DLRip-AVC
Видео: MPEG-4 AVC, 1024x552, 23.976 fps, 2000 kbps
Аудио RU: AC3, 6 ch, 48 kHz, 448 kbps
Аудио EN: AC3, 6 ch, 48 kHz, 448 kbps
Субтитры: Английские      

MediaInfo

x264 info: frame I:737 Avg QP:15.06 size: 76685
x264 info: frame P:28283 Avg QP:17.75 size: 22898
x264 info: frame B:114611 Avg QP:19.19 size: 6900
x264 info: consecutive B-frames: 2.3% 2.8% 5.4% 10.7% 12.1% 33.1% 12.3% 5.1% 9.8% 2.2% 4.0%
General
Unique ID : 221427505978786302650122760312147860066 (0xA69562ECEA85A6D10D1E9D4B04BEDA62)
Complete name : D:uTorrentРипы wolf1245Wolf.2021.DVO.Pazl.WEB-DLRip-AVC.[wolf1245.ExKinoRay].mkv
Format : Matroska
Format version : Version 4
File size : 2.02 GiB
Duration : 1 h 39 min
Overall bit rate : 2 894 kb/s
Movie name : Wolf.2021.DVO.Pazl.WEB-DLRip-AVC.[wolf1245.ExKinoRay]
Encoded date : UTC 2021-12-25 16:30:14
Writing application : mkvmerge v63.0.0 ('Everything') 64-bit
Writing library : libebml v1.4.2 + libmatroska v1.6.4
Video
ID : 1
Format : AVC
Format/Info : Advanced Video Codec
Format profile : [email protected]
Format settings : CABAC / 10 Ref Frames
Format settings, CABAC : Yes
Format settings, Reference frames : 10 frames
Codec ID : V_MPEG4/ISO/AVC
Duration : 1 h 39 min
Bit rate : 2 000 kb/s
Width : 1 024 pixels
Height : 552 pixels
Display aspect ratio : 1.85:1
Frame rate mode : Constant
Frame rate : 23.976 (24000/1001) FPS
Color space : YUV
Chroma subsampling : 4:2:0
Bit depth : 8 bits
Scan type : Progressive
Bits/(Pixel*Frame) : 0.148
Stream size : 1.39 GiB (69%)
Title : -=[wolf1245.ExKinoRay]=-
Writing library : x264 core 163 r3060 5db6aa6
Encoding settings : cabac=1 / ref=10 / deblock=1:-3:-3 / analyse=0x3:0x133 / me=umh / subme=10 / psy=1 / psy_rd=1.05:0.15 / mixed_ref=1 / me_range=32 / chroma_me=1 / trellis=2 / 8x8dct=1 / cqm=0 / deadzone=21,11 / fast_pskip=1 / chroma_qp_offset=-3 / threads=10 / lookahead_threads=2 / sliced_threads=0 / nr=0 / decimate=0 / interlaced=0 / bluray_compat=0 / constrained_intra=0 / bframes=10 / b_pyramid=2 / b_adapt=2 / b_bias=0 / direct=3 / weightb=1 / open_gop=0 / weightp=2 / keyint=240 / keyint_min=24 / scenecut=40 / intra_refresh=0 / rc_lookahead=60 / rc=2pass / mbtree=0 / bitrate=2000 / ratetol=1.0 / qcomp=0.60 / qpmin=0 / qpmax=69 / qpstep=4 / cplxblur=20.0 / qblur=0.5 / vbv_maxrate=50000 / vbv_bufsize=62500 / nal_hrd=none / filler=0 / ip_ratio=1.40 / pb_ratio=1.30 / aq=3:1.00
Language : English
Default : Yes
Forced : No
Color range : Limited
Color primaries : BT.709
Transfer characteristics : BT.709
Matrix coefficients : BT.709
Audio #1
ID : 2
Format : AC-3
Format/Info : Audio Coding 3
Commercial name : Dolby Digital
Codec ID : A_AC3
Duration : 1 h 39 min
Bit rate mode : Constant
Bit rate : 448 kb/s
Channel(s) : 6 channels
Channel layout : L R C LFE Ls Rs
Sampling rate : 48.0 kHz
Frame rate : 31.250 FPS (1536 SPF)
Compression mode : Lossy
Stream size : 320 MiB (15%)
Title : [DVO] Pazl Voice
Language : Russian
Service kind : Complete Main
Default : Yes
Forced : No
Audio #2
ID : 3
Format : AC-3
Format/Info : Audio Coding 3
Commercial name : Dolby Digital
Codec ID : A_AC3
Duration : 1 h 39 min
Bit rate mode : Constant
Bit rate : 448 kb/s
Channel(s) : 6 channels
Channel layout : L R C LFE Ls Rs
Sampling rate : 48.0 kHz
Frame rate : 31.250 FPS (1536 SPF)
Compression mode : Lossy
Stream size : 320 MiB (15%)
Title : Original
Language : English
Service kind : Complete Main
Default : Yes
Forced : No
Text
ID : 4
Format : UTF-8
Codec ID : S_TEXT/UTF8
Codec ID/Info : UTF-8 Plain Text
Duration : 1 h 38 min
Bit rate : 41 b/s
Count of elements : 1203
Stream size : 30.1 KiB (0%)
Title : English
Language : English
Default : No
Forced : No

K15

Post 27-Dec-2021 07:34

[Quote]

Название: Матрица: Воскрешение
Оригинальное название: The Matrix Resurrections
Год выпуска: 2021
Выпущено: США, Village Roadshow Pictures, NPV Entertainment, Silver Pictures
Жанр: Фантастика, боевик
Режиссер: Лана Вачо́вски--В ролях: Киану Ривз, Кэрри-Энн Мосс, Кристина Риччи, Джессика Хенвик, Дэниэл Бернхард, Джонатан Грофф, Приянка Чопра Джонас, Яхья Абдул-Матин II, Эллен Холлман, Джада Пинкетт Смит--О фильме: Что делать, если окружающий мир кажется ловушкой, а самые фантастические сны больше похожи на настоящую жизнь, чем повседневная реальность? Хочешь найти правду? Следуй за белым кроликом, чтобы вернуться туда, где все началось... Обратно в Матрицу.-- --Продолжительность: 02:27:54
Перевод: Профессиональный (многоголосый, закадровый) Jaskier
Субтитры: Русские (2-x полные) отдельно--Качество: WEB-DLRip
Видео: XviD, 1212 Kбит/с, 720x320
Аудио: Русский (AC3, 2 ch, 192 Кбит/с)--

Скриншоты

     
 

The time now is: Today 08:36

All times are GMT + 3 Hours