Today is a free download without charge Download

Search found 106 matches

Author Message

Theseus

Post 28-May-2021 20:14

[Quote]

Гнев человеческий / Wrath of Man-Год выхода: 2021
Страна: США, Великобритания
Жанр: боевик, триллер
Продолжительность: 01:58:56
Перевод 1: Профессиональный дублированный | Line
Перевод 2: Авторский (одноголосый, закадровый) | Яроцкий
Субтитры: Английские-Режиссер: Гай Ричи-В ролях: Джейсон Стэйтем, Холт Маккэллани, Джеффри Донован, Джош Хартнетт, Лас Алонсо, Алекс Фернс, Рауль Кастильо, Деобиа Опарей, Скотт Иствуд, Нив Алгар-О фильме: Грузовики лос-анджелесской инкассаторской компании Fortico Security часто подвергаются нападениям, и во время очередного ограбления погибают оба охранника. Через некоторое время в компанию устраивается крепкий немногословный британец Патрик Хилл. Он получает от босса прозвище Эйч и, впритык к необходимому минимуму он пройдя тесты по фитнесу, стрельбе и вождению, отправляется на первое задание. Вскоре и его грузовик пытаются ограбить вооруженные налётчики, но Эйч в одиночку расправляется с целой бандой и становится героем. Кажется, слава и уважение коллег его совершенно не интересуют, ведь он преследует свои цели.- -Качество: WEB-DLRip-AVC
Формат: MKV
Видео кодек: x.264
Аудио кодек: AC3
Видео: AVC, 1152x480 (2.40:1), 23.976 fps, 2 559 kb/s
Аудио 1: AC3, 48.0 kHz, 2 ch, 256 kb/s | RUS [DUB, Line] | Tnx KinoPub
Аудио 3: AC3, 48.0 kHz, 6 ch, 384 kb/s | RUS [AVO, Яроцкий] | Ненормативная лексика
Аудио 4: AC3, 48.0 kHz, 6 ch, 384 kb/s | ENG [Оригинал]- -

MI

Код:
Общее
Уникальный идентификатор                 : 249922206099811488031666747293555490328 (0xBC05441BD1D618A6A4B5FB816C6FFE18)
Полное имя                               : Wrath.Of.Man.2021.WEB-DLRip-AVC.mkv
Формат                                   : Matroska
Версия формата                           : Version 4
Размер файла                             : 2,98 Гбайт
Продолжительность                        : 1 ч. 58 м.
Общий поток                              : 3585 Кбит/сек
Дата кодирования                         : UTC 2021-05-28 15:35:53
Программа кодирования                    : mkvmerge v8.3.0 ('Over the Horizon') 64bit
Библиотека кодирования                   : libebml v1.3.1 + libmatroska v1.4.2
Видео
Идентификатор                            : 1
Формат                                   : AVC
Формат/Информация                        : Advanced Video Codec
Профиль формата                          : [email protected]
Настройки формата                        : CABAC / 11 Ref Frames
Параметр CABAC формата                   : Да
Параметр RefFrames формата               : 11 кадров
Идентификатор кодека                     : V_MPEG4/ISO/AVC
Продолжительность                        : 1 ч. 58 м.
Битрейт                                  : 2559 Кбит/сек
Ширина                                   : 1152 пикселя
Высота                                   : 480 пикселей
Соотношение сторон                       : 2,40:1
Режим частоты кадров                     : Постоянный
Частота кадров                           : 23,976 (24000/1001) кадра/сек
Цветовое пространство                    : YUV
Субдискретизация насыщенности            : 4:2:0
Битовая глубина                          : 8 бит
Тип развёртки                            : Прогрессивная
Бит/(Пиксели*Кадры)                      : 0.193
Размер потока                            : 2,13 Гбайт (71%)
Библиотека кодирования                   : x264 core 161 r3053 c347e7a
Настройки программы                      : cabac=1 / ref=11 / deblock=1:-2:-2 / analyse=0x3:0x113 / me=umh / subme=11 / psy=1 / psy_rd=1.00:0.00 / mixed_ref=1 / me_range=32 / chroma_me=1 / trellis=2 / 8x8dct=1 / cqm=0 / deadzone=21,11 / fast_pskip=0 / chroma_qp_offset=-4 / threads=3 / lookahead_threads=1 / sliced_threads=0 / nr=0 / decimate=1 / interlaced=0 / bluray_compat=0 / constrained_intra=0 / bframes=10 / b_pyramid=2 / b_adapt=2 / b_bias=0 / direct=3 / weightb=1 / open_gop=0 / weightp=2 / keyint=240 / keyint_min=23 / scenecut=40 / intra_refresh=0 / rc_lookahead=60 / rc=crf / mbtree=0 / crf=18.1 / qcomp=0.60 / qpmin=0 / qpmax=69 / qpstep=4 / vbv_maxrate=78125 / vbv_bufsize=62500 / crf_max=0.0 / nal_hrd=none / filler=0 / ip_ratio=1.40 / pb_ratio=1.35 / aq=1:1.00
Default                                  : Да
Forced                                   : Нет
Аудио #1
Идентификатор                            : 2
Формат                                   : AC-3
Формат/Информация                        : Audio Coding 3
Коммерческое название                    : Dolby Digital
Идентификатор кодека                     : A_AC3
Продолжительность                        : 1 ч. 58 м.
Вид битрейта                             : Постоянный
Битрейт                                  : 256 Кбит/сек
Каналы                                   : 2 канала
Channel layout                           : L R
Частота                                  : 48,0 КГц
Частота кадров                           : 31,250 кадров/сек (1536 SPF)
Битовая глубина                          : 16 бит
Метод сжатия                             : С потерями
Размер потока                            : 218 Мбайт (7%)
Заголовок                                : DUB (Line)
Язык                                     : Russian
ServiceKind/String                       : Complete Main
Default                                  : Да
Forced                                   : Нет
Аудио #2
Идентификатор                            : 3
Формат                                   : AC-3
Формат/Информация                        : Audio Coding 3
Коммерческое название                    : Dolby Digital
Идентификатор кодека                     : A_AC3
Продолжительность                        : 1 ч. 58 м.
Вид битрейта                             : Постоянный
Битрейт                                  : 384 Кбит/сек
Каналы                                   : 6 каналов
Channel layout                           : L R C LFE Ls Rs
Частота                                  : 48,0 КГц
Частота кадров                           : 31,250 кадров/сек (1536 SPF)
Битовая глубина                          : 16 бит
Метод сжатия                             : С потерями
Размер потока                            : 327 Мбайт (11%)
Заголовок                                : AVO (Яроцкий)
Язык                                     : Russian
ServiceKind/String                       : Complete Main
Default                                  : Нет
Forced                                   : Нет
Аудио #3
Идентификатор                            : 4
Формат                                   : AC-3
Формат/Информация                        : Audio Coding 3
Коммерческое название                    : Dolby Digital
Идентификатор кодека                     : A_AC3
Продолжительность                        : 1 ч. 58 м.
Вид битрейта                             : Постоянный
Битрейт                                  : 384 Кбит/сек
Каналы                                   : 6 каналов
Channel layout                           : L R C LFE Ls Rs
Частота                                  : 48,0 КГц
Частота кадров                           : 31,250 кадров/сек (1536 SPF)
Битовая глубина                          : 16 бит
Метод сжатия                             : С потерями
Размер потока                            : 327 Мбайт (11%)
Заголовок                                : Original
Язык                                     : English
ServiceKind/String                       : Complete Main
Default                                  : Нет
Forced                                   : Нет
Текст
Идентификатор                            : 5
Формат                                   : UTF-8
Идентификатор кодека                     : S_TEXT/UTF8
Идентификатор кодека/Информация          : UTF-8 Plain Text
Продолжительность                        : 1 ч. 50 м.
Битрейт                                  : 70 бит/сек
ElementCount                             : 1990
Размер потока                            : 56,8 Кбайт (0%)
Заголовок                                : SDH
Язык                                     : English
Default                                  : Нет
Forced                                   : Нет

Трейлер

Скриншоты

    
- -

Theseus

Post 28-May-2021 20:12

[Quote]

Гнев человеческий / Wrath of Man-Год выхода: 2021
Страна: США, Великобритания
Жанр: боевик, триллер
Продолжительность: 01:58:56
Перевод: Дублированный (Line)
Субтитры: Отсутствуют-Режиссер: Гай Ричи-В ролях: Джейсон Стэйтем, Холт Маккэллани, Джеффри Донован, Джош Хартнетт, Лас Алонсо, Алекс Фернс, Рауль Кастильо, Деобиа Опарей, Скотт Иствуд, Нив Алгар-О фильме: Грузовики лос-анджелесской инкассаторской компании Fortico Security часто подвергаются нападениям, и во время очередного ограбления погибают оба охранника. Через некоторое время в компанию устраивается крепкий немногословный британец Патрик Хилл. Он получает от босса прозвище Эйч и, впритык к необходимому минимуму он пройдя тесты по фитнесу, стрельбе и вождению, отправляется на первое задание. Вскоре и его грузовик пытаются ограбить вооруженные налётчики, но Эйч в одиночку расправляется с целой бандой и становится героем. Кажется, слава и уважение коллег его совершенно не интересуют, ведь он преследует свои цели.- -Качество: WEB-DLRip
Формат: AVI
Видео кодек: XviD
Аудио кодек: AC3
Видео: MPEG4, XviD, 720x304 (2.35:1), 23.976 fps, 1 448 kb/s
Аудио: AC3, 48.0 kHz, 2 ch, 192 kb/s | Tnx KinoPub- -

MI

Код:
Общее
Полное имя                               : Wrath.Of.Man.2021.WEB-DLRip.D.Line.avi
Формат                                   : AVI
Формат/Информация                        : Audio Video Interleave
Размер файла                             : 1,37 Гбайт
Продолжительность                        : 1 ч. 58 м.
Общий поток                              : 1651 Кбит/сек
Видео
Идентификатор                            : 0
Формат                                   : MPEG-4 Visual
Профиль формата                          : Advanced [email protected]
Настройки формата                        : BVOP2
Параметр BVOP формата                    : 2
Параметр QPel формата                    : Нет
Параметр GMC формата                     : Без точки перехода
Параметр матрицы формата                 : Default (MPEG)
Идентификатор кодека                     : XVID
Идентификатор кодека/Подсказка           : XviD
Продолжительность                        : 1 ч. 58 м.
Битрейт                                  : 1448 Кбит/сек
Ширина                                   : 720 пикселей
Высота                                   : 304 пикселя
Соотношение сторон                       : 2,35:1
Частота кадров                           : 23,976 (24000/1001) кадра/сек
Цветовое пространство                    : YUV
Субдискретизация насыщенности            : 4:2:0
Битовая глубина                          : 8 бит
Тип развёртки                            : Прогрессивная
Метод сжатия                             : С потерями
Бит/(Пиксели*Кадры)                      : 0.276
Размер потока                            : 1,20 Гбайт (88%)
Библиотека кодирования                   : XviD 69
Аудио
Идентификатор                            : 1
Формат                                   : AC-3
Формат/Информация                        : Audio Coding 3
Коммерческое название                    : Dolby Digital
Идентификатор кодека                     : 2000
Продолжительность                        : 1 ч. 58 м.
Вид битрейта                             : Постоянный
Битрейт                                  : 192 Кбит/сек
Каналы                                   : 2 канала
Channel layout                           : L R
Частота                                  : 48,0 КГц
Частота кадров                           : 31,250 кадров/сек (1536 SPF)
Битовая глубина                          : 16 бит
Метод сжатия                             : С потерями
Размер потока                            : 163 Мбайт (12%)
Выравнивание                             : Соединение по промежуткам
Продолжительность промежутка             : 32  мс. (0,77 видеокадр)
ServiceKind/String                       : Complete Main

Трейлер

Скриншоты

    
- -

ipevru

Post 24-May-2021 18:06

[Quote]

первый качаю "Доброжелатель"

Theseus

Post 23-Apr-2021 17:37

[Quote]

Мортал Комбат / Mortal Kombat-Год выхода: 2021
Страна: Австралия, США
Жанр: боевик, фэнтези, фантастика
Продолжительность: 01:49:59
Перевод: Дублированный (Line)
Субтитры: Английские, русские (хардсаб на китайскую речь)-Режиссер: Саймон Маккуойд-В ролях: Льюис Тан, Джо Таслим, Джессика МакНэми, Джош Лоусон, Мехкад Брукс, Матильда Кимбер, Лаура Брент, Таданобу Асано, Хироюки Санада, Чинь Хань-О фильме: Боец смешанных единоборств Коул Янг не раз соглашался проиграть за деньги. Он не знает о своем наследии и почему император Внешнего Мира Шан Цзун посылает своего лучшего воина, могущественного криомансера Саб-Зиро, на охоту за Коулом. Янг боится за безопасность своей семьи, и майор спецназа Джакс, обладатель такой же отметки в виде дракона, как и у Коула, советует ему отправиться на поиски Сони Блейд. Вскоре он оказывается в храме Лорда Рейдена, Старшего Бога и защитника Земного Царства, который дает убежище тем, кто носит метку. Здесь Коул тренируется с опытными воинами Лю Каном, Кун Лао и наемником-изгоем Кано, готовясь вместе с величайшими чемпионами Земли противостоять врагам из Внешнего Мира в битве за вселенную. Но сможет ли Коул приложить все усилия и раскрыть в себе аркану — могущественную силу его души, чтобы не только спасти свою семью, но и остановить Внешний Мир раз и навсегда?- -Качество: WEB-DLRip
Формат: AVI
Видео кодек: XviD
Аудио кодек: AC3
Видео: MPEG4, XviD, 720x304 (2.35:1), 23.976 fps, 1 620 kb/s
Аудио: AC3, 48.0 kHz, 2 ch, 256 kb/s-Сэмпл-Присутствует баннер, аудиореклама-

MI

Код:
Общее
Полное имя                               : Mortal.Kombat.2021.WEB-DLRip.Line.avi
Формат                                   : AVI
Формат/Информация                        : Audio Video Interleave
Размер файла                             : 1,45 Гбайт
Продолжительность                        : 1 ч. 49 м.
Общий поток                              : 1887 Кбит/сек
Видео
Идентификатор                            : 0
Формат                                   : MPEG-4 Visual
Профиль формата                          : Advanced [email protected]
Настройки формата                        : BVOP2
Параметр BVOP формата                    : 2
Параметр QPel формата                    : Нет
Параметр GMC формата                     : Без точки перехода
Параметр матрицы формата                 : Default (H.263)
Идентификатор кодека                     : XVID
Идентификатор кодека/Подсказка           : XviD
Продолжительность                        : 1 ч. 49 м.
Битрейт                                  : 1620 Кбит/сек
Ширина                                   : 720 пикселей
Высота                                   : 304 пикселя
Соотношение сторон                       : 2,35:1
Частота кадров                           : 23,976 (24000/1001) кадра/сек
Цветовое пространство                    : YUV
Субдискретизация насыщенности            : 4:2:0
Битовая глубина                          : 4 бит
Тип развёртки                            : Прогрессивная
Метод сжатия                             : С потерями
Бит/(Пиксели*Кадры)                      : 0.309
Размер потока                            : 1,24 Гбайт (86%)
Библиотека кодирования                   : XviD 1.2.1 (UTC 2008-12-04)
Аудио
Идентификатор                            : 1
Формат                                   : AC-3
Формат/Информация                        : Audio Coding 3
Коммерческое название                    : Dolby Digital
Идентификатор кодека                     : 2000
Продолжительность                        : 1 ч. 49 м.
Вид битрейта                             : Постоянный
Битрейт                                  : 256 Кбит/сек
Каналы                                   : 2 канала
Channel layout                           : L R
Частота                                  : 48,0 КГц
Частота кадров                           : 31,250 кадров/сек (1536 SPF)
Битовая глубина                          : 16 бит
Метод сжатия                             : С потерями
Размер потока                            : 201 Мбайт (14%)
Выравнивание                             : Соединение по промежуткам
Продолжительность промежутка             : 32  мс. (0,77 видеокадр)
ServiceKind/String                       : Complete Main

Трейлер

-    - -

Theseus

Post 23-Apr-2021 17:34

[Quote]

Мортал Комбат / Mortal Kombat-Год выхода: 2021
Страна: Австралия, США
Жанр: боевик, фэнтези, фантастика
Продолжительность: 01:49:59
Перевод: Дублированный (Line)
Субтитры: Английские, русские (хардсаб на китайскую речь)-Режиссер: Саймон Маккуойд-В ролях: Льюис Тан, Джо Таслим, Джессика МакНэми, Джош Лоусон, Мехкад Брукс, Матильда Кимбер, Лаура Брент, Таданобу Асано, Хироюки Санада, Чинь Хань-О фильме: Боец смешанных единоборств Коул Янг не раз соглашался проиграть за деньги. Он не знает о своем наследии и почему император Внешнего Мира Шан Цзун посылает своего лучшего воина, могущественного криомансера Саб-Зиро, на охоту за Коулом. Янг боится за безопасность своей семьи, и майор спецназа Джакс, обладатель такой же отметки в виде дракона, как и у Коула, советует ему отправиться на поиски Сони Блейд. Вскоре он оказывается в храме Лорда Рейдена, Старшего Бога и защитника Земного Царства, который дает убежище тем, кто носит метку. Здесь Коул тренируется с опытными воинами Лю Каном, Кун Лао и наемником-изгоем Кано, готовясь вместе с величайшими чемпионами Земли противостоять врагам из Внешнего Мира в битве за вселенную. Но сможет ли Коул приложить все усилия и раскрыть в себе аркану — могущественную силу его души, чтобы не только спасти свою семью, но и остановить Внешний Мир раз и навсегда?- -Качество: WEB-DLRip 1080p
Формат: MKV
Видео кодек: x.264
Аудио кодек: AC3
Видео: AVC, 1920x800 (2.40:1), 23.976 fps, 9 930 kb/s
Аудио: AC3, 48.0 kHz, 2 ch, 256 kb/s-Сэмпл-Присутствует баннер, аудиореклама-

MI

Код:
Общее
Уникальный идентификатор                 : 188125052607810505349359014526502423349 (0x8D879134B81B400EA893678F2855CB35)
Полное имя                               : Mortal.Kombat.2021.WEB-DLRip.1080p.Line.mkv
Формат                                   : Matroska
Версия формата                           : Version 4
Размер файла                             : 7,83 Гбайт
Продолжительность                        : 1 ч. 49 м.
Режим общего битрейта                    : Переменный
Общий поток                              : 10,2 Мбит/сек
Дата кодирования                         : UTC 2021-04-23 13:48:32
Программа кодирования                    : mkvmerge v8.3.0 ('Over the Horizon') 64bit
Библиотека кодирования                   : libebml v1.3.1 + libmatroska v1.4.2
Видео
Идентификатор                            : 1
Формат                                   : AVC
Формат/Информация                        : Advanced Video Codec
Профиль формата                          : [email protected]
Настройки формата                        : CABAC / 4 Ref Frames
Параметр CABAC формата                   : Да
Параметр RefFrames формата               : 4 кадра
Идентификатор кодека                     : V_MPEG4/ISO/AVC
Продолжительность                        : 1 ч. 49 м.
Вид битрейта                             : Переменный
Битрейт                                  : 9930 Кбит/сек
Максимальный битрейт                     : 11,0 Мбит/сек
Ширина                                   : 1920 пикселей
Высота                                   : 800 пикселей
Соотношение сторон                       : 2,40:1
Режим частоты кадров                     : Постоянный
Частота кадров                           : 23,976 (24000/1001) кадра/сек
Стандарт вещания                         : Component
Цветовое пространство                    : YUV
Субдискретизация насыщенности            : 4:2:0
Битовая глубина                          : 8 бит
Тип развёртки                            : Прогрессивная
Бит/(Пиксели*Кадры)                      : 0.270
Размер потока                            : 7,63 Гбайт (97%)
Default                                  : Да
Forced                                   : Нет
Цветовой диапазон                        : Limited
Основные цвета                           : BT.709
Характеристики трансфера                 : BT.709
Коэффициенты матрицы                     : BT.709
Аудио
Идентификатор                            : 2
Формат                                   : AC-3
Формат/Информация                        : Audio Coding 3
Коммерческое название                    : Dolby Digital
Идентификатор кодека                     : A_AC3
Продолжительность                        : 1 ч. 49 м.
Вид битрейта                             : Постоянный
Битрейт                                  : 256 Кбит/сек
Каналы                                   : 2 канала
Channel layout                           : L R
Частота                                  : 48,0 КГц
Частота кадров                           : 31,250 кадров/сек (1536 SPF)
Битовая глубина                          : 16 бит
Метод сжатия                             : С потерями
Размер потока                            : 201 Мбайт (3%)
Заголовок                                : DUB (Line)
Язык                                     : Russian
ServiceKind/String                       : Complete Main
Default                                  : Да
Forced                                   : Нет

Трейлер

-    - -

}{@R0N

Post 01-Apr-2021 21:14

[Quote]

Конёк-Горбунок / Upon the Magic Roads- Производство: Кинокомпания СТВ
Жанр: приключения, фэнтези, комедия
Режиссер: Олег Погодин
Актеры: Антон Шагин, Павел Деревянко, Михаил Ефремов, Паулина Андреева, Ян Цапник, Олег Тактаров, Владимир Дикун, Виталий Копнин, Екатерина Байгозина, Алина Недобитко
Описание:
Иван - не царевич, не богатырь, не красавец, а старшие братья и вовсе его дураком считают. Но всё меняется, когда у Ивана появляется друг и верный помощник - Конёк-Горбунок. Пусть он ростом невелик, зато умный и смелый. С таким другом никакой враг не страшен. Ну, почти никакой. С таким помощником и ничего невозможного нет. Ну, почти, нет. Ивану с Коньком предстоит проверить свою дружбу на прочность, столкнуться с коварным противником, преодолеть невероятные испытания и встретить такую любовь, ради которой стоит рискнуть всем. Ну, почти всем.

Возраст: 6+ (зрителям, достигшим 6 лет)
Рейтинг MPAA: G (нет возрастных ограничений)
Дата российской премьеры: 18 февраля 2021
Продолжительность: 01:51:12
Качество видео: WEBRip Сэмпл
Субтитры: Отсутствуют
Видео: AVC/H.264, 1920x1036, 5224 Kbps
Аудио: AAC, 2 ch, 192 Kbps

MediaInfo:

Общее
Уникальный идентификатор : 159821622486053923930262702711332495698 (0x783C865C9CA0D39813F141C567A96152)
Полное имя : D:\Konyok-gorbunok.2021.1080p.KP.WEB-DL.mkv
Формат : Matroska
Версия формата : Version 4
Размер файла : 4,21 Гбайт
Продолжительность : 1 ч. 51 м.
Общий поток : 5419 Кбит/сек
Дата кодирования : UTC 2021-03-31 21:03:50
Программа кодирования : mkvmerge v55.0.0 ('Waiting For Space') 64-bit
Библиотека кодирования : libebml v1.4.2 + libmatroska v1.6.4
Видео
Идентификатор : 1
Формат : AVC
Формат/Информация : Advanced Video Codec
Профиль формата : [email protected]
Настройки формата : CABAC / 4 Ref Frames
Параметр CABAC формата : Да
Параметр RefFrames формата : 4 кадра
Идентификатор кодека : V_MPEG4/ISO/AVC
Продолжительность : 1 ч. 51 м.
Битрейт : 5224 Кбит/сек
Номинальный битрейт : 6000 Кбит/сек
Ширина : 1920 пикселей
Высота : 1036 пикселей
Соотношение сторон : 1,85:1
Режим частоты кадров : Постоянный
Частота кадров : 24,000 кадра/сек
Цветовое пространство : YUV
Субдискретизация насыщенности : 4:2:0
Битовая глубина : 8 бит
Тип развёртки : Прогрессивная
Бит/(Пиксели*Кадры) : 0.109
Размер потока : 4,06 Гбайт (96%)
Библиотека кодирования : x264 core 157 r2969 d4099dd
Настройки программы : cabac=1 / ref=4 / deblock=1:0:0 / analyse=0x3:0x133 / me=umh / subme=10 / psy=1 / psy_rd=1.00:0.00 / mixed_ref=1 / me_range=24 / chroma_me=1 / trellis=2 / 8x8dct=1 / cqm=0 / deadzone=21,11 / fast_pskip=1 / chroma_qp_offset=-2 / threads=32 / lookahead_threads=5 / sliced_threads=0 / nr=0 / decimate=1 / interlaced=0 / bluray_compat=0 / stitchable=1 / constrained_intra=0 / bframes=8 / b_pyramid=2 / b_adapt=2 / b_bias=0 / direct=3 / weightb=1 / open_gop=0 / weightp=2 / keyint=192 / keyint_min=96 / scenecut=40 / intra_refresh=0 / rc_lookahead=60 / rc=2pass / mbtree=1 / bitrate=6000 / ratetol=1.0 / qcomp=0.60 / qpmin=0 / qpmax=69 / qpstep=4 / cplxblur=20.0 / qblur=0.5 / vbv_maxrate=6600 / vbv_bufsize=1100 / nal_hrd=none / filler=0 / ip_ratio=1.40 / aq=1:1.00
Default : Да
Forced : Нет
Аудио
Идентификатор : 2
Формат : AAC LC
Формат/Информация : Advanced Audio Codec Low Complexity
Идентификатор кодека : A_AAC-2
Продолжительность : 1 ч. 51 м.
Битрейт : 192 Кбит/сек
Каналы : 2 канала
ChannelLayout : L R
Частота : 48,0 КГц
Частота кадров : 46,875 кадров/сек (1024 SPF)
Метод сжатия : С потерями
Размер потока : 153 Мбайт (4%)
Язык : Russian
Default : Да
Forced : Нет
Скриншоты:
       

Theseus

Post 24-Feb-2021 20:46

[Quote]

Marcus Thor, > Что такое DHT обмен

Marcus Thor

Post 05-Jan-2021 22:02

[Quote]

Что такое DHT?

}{@R0N

Post 15-Jan-2021 19:59

[Quote]

Смертельная зона / Outside the Wire- Производство: США, Венгрия, 42, Automatik Entertainment, Inspire Entertainment, Leeding Media, NetFlix, Pioneer Stilking Films
Жанр: фантастика, фэнтези, боевик, приключения
Режиссер: Микаэль Хофстрём
Продюсер: Рори Аиткен, Брайан Кэвэна-Джонс, Энтони Маки
Актеры: Энтони Маки, Демсон Идрис, Эмили Бичем, Пилу Асбек, Майкл Келли, Кристина Тонтери-Янг, Бобби Локвуд, Энцо Чиленти, Генри Гаррет, Велибор Топич
Описание:
В будущем война ведётся с помощью пилотируемых дронов. Однажды пилот дрона вынужден отправиться в зону военных действий, где вместе с андроидом должен предотвратить ядерный взрыв.

Рейтинг MPAA: R (лицам до 17 лет обязательно присутствие взрослого)
Дата мировой премьеры: 15 января 2021
Продолжительность: 01:55:52
Качество видео: WEB-DL Сэмпл
Перевод: Дублированный (VSI Moscow)
Субтитры: русские (Forced, Full), английские (Forced, Full, SDH), немецкие, испанские, финские, французские, итальянские, польские, португальские, шведские
Видео: AVC/H.264, 1920x1080, 2485 Kbps
Аудио »1: E-АС3, 6 ch, 640Kbps | Русский
Аудио »2: E-АС3 Atmos, 6 ch, 768 Kbps | Английский

MediaInfo:

Код:
Общее
Уникальный идентификатор                 : 267941768403092151228814884642573490136 (0xC993B51F80F33DD4B25712744EF397D8)
Полное имя                               : D:\Outside.the.Wire.2021.1080p.WEB-DL.H264-STRONTiUM_Kyle.mkv
Формат                                   : Matroska
Версия формата                           : Version 4
Размер файла                             : 3,15 Гбайт
Продолжительность                        : 1 ч. 55 м.
Режим общего битрейта                    : Переменный
Общий поток                              : 3896 Кбит/сек
Дата кодирования                         : UTC 2021-01-15 08:09:47
Программа кодирования                    : mkvmerge v52.0.0 ('Secret For The Mad') 64-bit
Библиотека кодирования                   : libebml v1.4.1 + libmatroska v1.6.2
Видео
Идентификатор                            : 1
Формат                                   : AVC
Формат/Информация                        : Advanced Video Codec
Профиль формата                          : [email protected]
Настройки формата                        : CABAC / 3 Ref Frames
Параметр CABAC формата                   : Да
Параметр RefFrames формата               : 3 кадра
Идентификатор кодека                     : V_MPEG4/ISO/AVC
Продолжительность                        : 1 ч. 55 м.
Вид битрейта                             : Переменный
Битрейт                                  : 2485 Кбит/сек
Номинальный битрейт                      : 3160 Кбит/сек
Максимальный битрейт                     : 4740 Кбит/сек
Ширина                                   : 1920 пикселей
Высота                                   : 1080 пикселей
Соотношение сторон                       : 16:9
Режим частоты кадров                     : Постоянный
Частота кадров                           : 24,000 кадра/сек
Цветовое пространство                    : YUV
Субдискретизация насыщенности            : 4:2:0
Битовая глубина                          : 8 бит
Тип развёртки                            : Прогрессивная
Бит/(Пиксели*Кадры)                      : 0.050
Размер потока                            : 2,01 Гбайт (64%)
Библиотека кодирования                   : x264 core 148 r2722 1b0121b
Настройки программы                      : cabac=1 / ref=3 / deblock=1:0:0 / analyse=0x1:0x111 / me=umh / subme=10 / psy=1 / psy_rd=1.00:0.00 / mixed_ref=1 / me_range=24 / chroma_me=1 / trellis=2 / 8x8dct=0 / cqm=0 / deadzone=21,11 / fast_pskip=1 / chroma_qp_offset=-2 / threads=6 / lookahead_threads=1 / sliced_threads=0 / nr=0 / decimate=1 / interlaced=0 / bluray_compat=0 / stitchable=1 / constrained_intra=0 / bframes=2 / b_pyramid=0 / b_adapt=2 / b_bias=0 / direct=3 / weightb=1 / open_gop=0 / weightp=2 / keyint=250 / keyint_min=24 / scenecut=0 / intra_refresh=0 / rc_lookahead=48 / rc=2pass / mbtree=1 / bitrate=3160 / ratetol=1.0 / qcomp=0.50 / qpmin=6 / qpmax=51 / qpstep=4 / cplxblur=20.0 / qblur=0.5 / vbv_maxrate=4740 / vbv_bufsize=6320 / nal_hrd=vbr / filler=0 / ip_ratio=1.40 / aq=1:1.00
Язык                                     : English
Default                                  : Да
Forced                                   : Нет
Аудио #1
Идентификатор                            : 2
Формат                                   : E-AC-3
Формат/Информация                        : Enhanced AC-3
Коммерческое название                    : Dolby Digital Plus
Идентификатор кодека                     : A_EAC3
Продолжительность                        : 1 ч. 55 м.
Вид битрейта                             : Постоянный
Битрейт                                  : 640 Кбит/сек
Каналы                                   : 6 каналов
ChannelLayout                            : L R C LFE Ls Rs
Частота                                  : 48,0 КГц
Частота кадров                           : 31,250 кадров/сек (1536 SPF)
Метод сжатия                             : С потерями
Размер потока                            : 530 Мбайт (16%)
Заголовок                                : Russian
Язык                                     : Russian
ServiceKind/String                       : Complete Main
Default                                  : Да
Forced                                   : Нет
Аудио #2
Идентификатор                            : 3
Формат                                   : E-AC-3 JOC
Формат/Информация                        : Enhanced AC-3 with Joint Object Coding
Коммерческое название                    : Dolby Digital Plus with Dolby Atmos
Идентификатор кодека                     : A_EAC3
Продолжительность                        : 1 ч. 55 м.
Вид битрейта                             : Постоянный
Битрейт                                  : 768 Кбит/сек
Каналы                                   : 6 каналов
ChannelLayout                            : L R C LFE Ls Rs
Частота                                  : 48,0 КГц
Частота кадров                           : 31,250 кадров/сек (1536 SPF)
Метод сжатия                             : С потерями
Размер потока                            : 637 Мбайт (20%)
Заголовок                                : English
Язык                                     : English
ServiceKind/String                       : Complete Main
Default                                  : Нет
Forced                                   : Нет
ComplexityIndex                          : 16
NumberOfDynamicObjects                   : 15
BedChannelCount/String                   : 1 канал
BedChannelConfiguration                  : LFE
Текст #1
Идентификатор                            : 4
Формат                                   : UTF-8
Идентификатор кодека                     : S_TEXT/UTF8
Идентификатор кодека/Информация          : UTF-8 Plain Text
Продолжительность                        : 1 ч. 53 м.
Битрейт                                  : 1 бит/сек
ElementCount                             : 29
Размер потока                            : 1,29 Кбайт (0%)
Заголовок                                : Forced
Язык                                     : Russian
Default                                  : Да
Forced                                   : Нет
Текст #2
Идентификатор                            : 5
Формат                                   : UTF-8
Идентификатор кодека                     : S_TEXT/UTF8
Идентификатор кодека/Информация          : UTF-8 Plain Text
Продолжительность                        : 1 ч. 53 м.
Битрейт                                  : 72 бит/сек
ElementCount                             : 1220
Размер потока                            : 60,2 Кбайт (0%)
Заголовок                                : Russian
Язык                                     : Russian
Default                                  : Нет
Forced                                   : Нет
Текст #3
Идентификатор                            : 6
Формат                                   : UTF-8
Идентификатор кодека                     : S_TEXT/UTF8
Идентификатор кодека/Информация          : UTF-8 Plain Text
Продолжительность                        : 1 ч. 53 м.
Битрейт                                  : 44 бит/сек
ElementCount                             : 1176
Размер потока                            : 36,9 Кбайт (0%)
Заголовок                                : German
Язык                                     : German
Default                                  : Нет
Forced                                   : Нет
Текст #4
Идентификатор                            : 7
Формат                                   : UTF-8
Идентификатор кодека                     : S_TEXT/UTF8
Идентификатор кодека/Информация          : UTF-8 Plain Text
Продолжительность                        : 1 ч. 45 м.
Битрейт                                  : 62 бит/сек
ElementCount                             : 1651
Размер потока                            : 48,4 Кбайт (0%)
Заголовок                                : English (SDH)
Язык                                     : English
Default                                  : Нет
Forced                                   : Нет
Текст #5
Идентификатор                            : 8
Формат                                   : UTF-8
Идентификатор кодека                     : S_TEXT/UTF8
Идентификатор кодека/Информация          : UTF-8 Plain Text
Продолжительность                        : 1 ч. 53 м.
Битрейт                                  : 44 бит/сек
ElementCount                             : 1198
Размер потока                            : 37,0 Кбайт (0%)
Заголовок                                : European Spanish
Язык                                     : Spanish
Default                                  : Нет
Forced                                   : Нет
Текст #6
Идентификатор                            : 9
Формат                                   : UTF-8
Идентификатор кодека                     : S_TEXT/UTF8
Идентификатор кодека/Информация          : UTF-8 Plain Text
Продолжительность                        : 1 ч. 53 м.
Битрейт                                  : 44 бит/сек
ElementCount                             : 1128
Размер потока                            : 36,8 Кбайт (0%)
Заголовок                                : Finnish
Язык                                     : Finnish
Default                                  : Нет
Forced                                   : Нет
Текст #7
Идентификатор                            : 10
Формат                                   : UTF-8
Идентификатор кодека                     : S_TEXT/UTF8
Идентификатор кодека/Информация          : UTF-8 Plain Text
Продолжительность                        : 1 ч. 53 м.
Битрейт                                  : 44 бит/сек
ElementCount                             : 1257
Размер потока                            : 37,3 Кбайт (0%)
Заголовок                                : French
Язык                                     : French
Default                                  : Нет
Forced                                   : Нет
Текст #8
Идентификатор                            : 11
Формат                                   : UTF-8
Идентификатор кодека                     : S_TEXT/UTF8
Идентификатор кодека/Информация          : UTF-8 Plain Text
Продолжительность                        : 1 ч. 53 м.
Битрейт                                  : 42 бит/сек
ElementCount                             : 1181
Размер потока                            : 35,4 Кбайт (0%)
Заголовок                                : Italian
Язык                                     : Italian
Default                                  : Нет
Forced                                   : Нет
Текст #9
Идентификатор                            : 12
Формат                                   : UTF-8
Идентификатор кодека                     : S_TEXT/UTF8
Идентификатор кодека/Информация          : UTF-8 Plain Text
Продолжительность                        : 1 ч. 53 м.
Битрейт                                  : 38 бит/сек
ElementCount                             : 1230
Размер потока                            : 32,3 Кбайт (0%)
Заголовок                                : Polish
Язык                                     : Polish
Default                                  : Нет
Forced                                   : Нет
Текст #10
Идентификатор                            : 13
Формат                                   : UTF-8
Идентификатор кодека                     : S_TEXT/UTF8
Идентификатор кодека/Информация          : UTF-8 Plain Text
Продолжительность                        : 1 ч. 53 м.
Битрейт                                  : 43 бит/сек
ElementCount                             : 1205
Размер потока                            : 36,0 Кбайт (0%)
Заголовок                                : Portuguese
Язык                                     : Portuguese
Default                                  : Нет
Forced                                   : Нет
Текст #11
Идентификатор                            : 14
Формат                                   : UTF-8
Идентификатор кодека                     : S_TEXT/UTF8
Идентификатор кодека/Информация          : UTF-8 Plain Text
Продолжительность                        : 1 ч. 53 м.
Битрейт                                  : 42 бит/сек
ElementCount                             : 1141
Размер потока                            : 35,4 Кбайт (0%)
Заголовок                                : Swedish
Язык                                     : Swedish
Default                                  : Нет
Forced                                   : Нет
Скриншоты:        

kilmister777

Post 01-Jan-2021 11:39

[Quote]

Комета Галлея- Год выпуска: 2020
Страна: Россия
Жанр: комедия, мелодрама
Продолжительность: 01:37:11
Перевод: Не требуется- -Режиссер: Милена Фадеева-В ролях: Лия Ахеджакова, Анна Михалкова, Аня Чиповская, Антон Шагин, Софья Лукьянова, Павел Прилучный, Максим Лагашкин, Нина Усатова, Максим Жегалин, Светлана Колпакова-Описание: Под Новый год 34-летний физик-астроном Игнат Галлей, увлеченный звездами и работой в горной обсерватории, летит в столицу оформлять развод. В Москве при необычных обстоятельствах Игнат встречает загадочную девушку Таисию Артемьеву и знакомится со всей ее семьей: мамой Юлей, сестрой Дусей и интеллигентной чудаковатой бабушкой Янгой Львовной. Эта встреча переворачивает все с ног наголову в жизни астронома. А в канун Нового года Игнату предстоит принять важное решение, которое изменит не только его жизнь, но и его новых знакомых.-Качество: WEB-DLRip
Формат: AVI
Видео кодек: XviD
Аудио кодек: AC3
Видео: 720x304 (2.37:1), 24.000 fps, XviD build 73 ~1954 kbps avg, 0.30 bit/pixel
Аудио: 48 kHz, AC3 Dolby Digital, 2/0 (L,R) ch, ~192 kbps-

Скриншоты

     

kilmister777

Post 31-Dec-2020 11:26

[Quote]

Самый Новый год!- Год выпуска: 2020
Страна: Россия
Жанр: комедия, фантастика
Продолжительность: 01:19:36
Перевод: Не требуется- -Режиссер: Антонина Руже-В ролях: Роман Курцын, Елизавета Кононова, Алина Алексеева, Владимир Сычёв, Наталья Щукина, Ксения Радченко, Иван Макаревич-Описание: У Саши три проблемы: девушка, которая хочет свадьбу, на которую он никак не может решиться, ведь он всего-навсего ветеринарный фельдшер и чистит уши собакам, родители, ведь маме не нравится Оля, а папе не нравится его работа, потому что Саша чистит уши собакам, и третья - он не нравится Олиной маме, потому что... да, потому что он чистит уши собакам.-Качество: WEBRip
Формат: AVI
Видео кодек: XviD
Аудио кодек: AC3
Видео: 720x304 (2.37:1), 24.000 fps, XviD build 73 ~2074 kbps avg, 0.36 bit/pixel
Аудио: 48 kHz, AC3 Dolby Digital, 3/2 (L,C,R,l,r) + LFE ch, ~384 kbps avg-

Скриншоты

       

kilmister777

Post 27-Dec-2020 17:48

[Quote]

В чужой шкуре / Possessor- Год выпуска: 2020
Страна: Канада, Великобритания
Жанр: фантастика, триллер
Продолжительность: 01:44:19
Перевод: Профессиональный(дублированный) iTunes- -Режиссер: Брэндон Кроненберг-В ролях: Андреа Райзборо, Кристофер Эбботт, Россиф Сазерленд, Таппенс Мидлтон, Шон Бин, Дженнифер Джейсон Ли, Каньехтио Хорн, Рауль Банеджа, Гейдж Грэм-Арбатнот, Габриэль Грэм-Описание: В будущем с помощью неких мозговых имплантов киллер может оказаться в теле другого человека и, подавляя его волю, совершать убийства. Но выйти из тела носителя возможно, только если он умрёт. За этим стоит зловещая корпорация, и однажды исполнительница таких ужасных заданий начинает терять контроль.-Качество: BDRip
Формат: AVI
Видео кодек: XviD
Аудио кодек: AC3
Видео: 704x400 (16:9), 23,976 fps, XviD ~ 1548 Kbps avg, 0.229 bit/pixel
Аудио: 48 kHz, AC3 Dolby Digital, 3/2 (L,C,R,l,r) + LFE ch, ~384 kbps avg-

Скриншоты

       

kilmister777

Post 25-Dec-2020 11:02

[Quote]

Доктор Лиза- Год выпуска: 2020
Страна: Россия
Жанр: драма, биография
Продолжительность: 01:59:58
Перевод: Не требуется- -Режиссер: Оксана Карас-В ролях: Чулпан Хаматова, Анджей Хыра, Константин Хабенский, Андрей Бурковский, Евгений Писарев, Алексей Агранович, Сергей Сосновский, Татьяна Догилева, Елена Коренева, Тимофей Трибунцев-Описание: Один день из жизни Елизаветы Петровны Глинки. История начинается с праздничного события: Елизавета и её муж Глеб готовятся отметить 30-ю годовщину свадьбы. На домашний ужин приглашены близкие друзья, приезжают сыновья. Конечно, Лиза освободила этот день, чтобы провести его с семьёй. По плану у неё только одно дело – заехать на Павелецкий вокзал, ведь там сегодня Фонд доктора Лизы «Справедливая помощь» принимает пациентов. И эта поездка оказывается полна неожиданностей.-Качество: WEB-DLRip
Формат: AVI
Видео кодек: XviD
Аудио кодек: AC3
Видео: 720x304 (2.35:1), 24 fps, XviD, 1360 Кbps avg, 0.259 bit/pixel
Аудио: 48 kHz, AC3 Dolby Digital, 3/2 (L,C,R,l,r) + LFE ch, ~384 kbps avg-

Скриншоты

       

kilmister777

Post 24-Dec-2020 09:06

[Quote]

Малышка с характером / The Doorman- Год выпуска: 2020
Страна: США
Жанр: боевик, триллер
Продолжительность: 01:37:13
Перевод: Профессиональный(дублированный) iTunes- -Режиссер: Рюхэй Китамура-В ролях: Руби Роуз, Жан Рено, Аксель Хенни, Руперт Эванс, Джулиан Федер, Дэвид Сакурай, Луис Мэндилор, Хидэаки Ито, Кила Лорд Кэссиди, Филип Уитчёрч-Описание: В центре событий оказывается Эли Горски, служившая ранее в морской пехоте, а ныне работающая швейцаром в респектабельном отеле Нью-Йорка. Сыграла героиню Роуз. И именно ей придется выстроить грамотный план действий, дабы обвести вокруг пальца бандитов, возглавляемых жестоким лидером, которого сыграл Жан Рено. На протяжении всего времени девушке приходится обеспечивать защиту отеля, на который напали грабители, специализирующиеся на похищении произведений искусства.-Качество: HDRip
Формат: AVI
Видео кодек: XviD
Аудио кодек: AC3
Видео: 720x304 (2.37:1), 24.000 fps, XviD build 73 ~1747 kbps avg, 0.30 bit/pixel
Аудио: 48 kHz, AC3 Dolby Digital, 3/2 (L,C,R,l,r) + LFE ch, ~384 kbps avg-

Скриншоты

     

kilmister777

Post 23-Dec-2020 13:40

[Quote]

Полночное небо / The Midnight Sky- Год выпуска: 2020
Страна: США
Жанр: фантастика, фэнтези, триллер, драма
Продолжительность: 01:58:32
Перевод: Профессиональный(дублированный) Netflix
Субтитры: Russian (Forced) - хардсаб- -Режиссер: Джордж Клуни-В ролях: Джордж Клуни, Фелисити Джонс, Дэвид Ойелоуо, Тиффани Бун, Демиан Бичир, Кайл Чандлер, Софи Рандл, Итан Пек, Мириам Шор-Описание: Пожилой астроном Августин всю жизнь изучает звёзды. Когда приходят новости о некой катастрофе, он остаётся совершенно один на арктической исследовательской станции. Именно там он встречает загадочную девочку Айрис, пока постепенно затихают отголоски остального мира. В это время, возвращаясь после миссии у Юпитера, к Земле летит экипаж корабля «Эфир» во главе с капитаном Салливан. Августин и Салливан находятся далеко друг от друга, но их судьбы неразрывно связаны.-Качество: WEB-DLRip
Формат: AVI
Видео кодек: XviD
Аудио кодек: AC3
Видео: 720x336 (2.37:1), 24.000 fps, XviD build 73 ~1308 kbps avg, 0.30 bit/pixel
Аудио: 48 kHz, AC3 Dolby Digital, 3/2 (L,C,R,l,r) + LFE ch, ~448 kbps-

Скриншоты

       
 

The time now is: Today 09:19

All times are GMT + 3 Hours