Today is a free download without charge Download

Search found 110 matches

Author Message

Clavik

Post 14-Nov-2019 13:01

[Quote]

Аэронавты / The Aeronauts (2019) TS (VO) - Производство: Великобритания, США, Amazon Studios, Mandeville Films, One Shoe Films
Жанр: приключения, мелодрама, драма, биография
Режиссер: Том Харпер
Актеры: Фелисити Джонс, Эдди Редмэйн, Химеш Патель, Левин Ллойд, Фиби Фокс, Тим МакИннерни, Энн Рейд, Том Кортни, Ребекка Фронт, Венсан Перес
Описание:
Лондон. 1862 год. Она — очаровательная богатая молодая женщина, увлеченная управлением воздушных шаров. Он — исследователь метеоролог, готовый на все, чтобы совершить научный прорыв. Самой судьбой им было предназначено взлететь выше, чем кто-либо в истории. Вдвоем они отправятся в отчаянное путешествие на аэростате, через бури и грозы на край неизведанного мира, где воздух разряжен, а шансы на выживание невелики…

Возраст: 16+ (зрителям, достигшим 16 лет)
Рейтинг MPAA: PG-13 (детям до 13 лет просмотр нежелателен)
Дата мировой премьеры: 30 августа 2019
Дата российской премьеры: 5 декабря 2019
Релиз от: Effx
Продолжительность: 01:39:08
Качество видео: TS
Перевод: Любительский двухголосый (КОЛОБОК)
Субтитры: отсутствуют
Реклама: вырезана, банеры затерты
Видео: Xvid, 702х304, ~1907 kbps
Аудио: MP3, 2 ch, 224 kbps - VO (КОЛОБОК)

MediaInfo:

Общее
Полное имя : G:\The.Aeronauts.2019.Pk.TS-Effx.avi
Формат : AVI
Формат/Информация : Audio Video Interleave
Профиль формата : OpenDML
Размер файла : 1,49 Гбайт
Продолжительность : 1 ч. 39 м.
Общий поток : 2145 Кбит/сек
Название фильма : The.Aeronauts.2019.Pk.TS.14OOMB
Дата записи : 2019-11-14
Программа кодирования : msl
Видео
Идентификатор : 0
Формат : MPEG-4 Visual
Профиль формата : Advanced [email protected]
Параметр BVOP формата : 2
Параметр QPel формата : Нет
Параметр GMC формата : Без точки перехода
Параметр матрицы формата : Default (H.263)
Режим смешивания : Сжатый битовый поток
Идентификатор кодека : XVID
Идентификатор кодека/Подсказка : XviD
Продолжительность : 1 ч. 39 м.
Битрейт : 1907 Кбит/сек
Ширина : 720 пикселей
Высота : 304 пикселя
Соотношение сторон : 2,35:1
Частота кадров : 23,976 (24000/1001) кадра/сек
Цветовое пространство : YUV
Субдискретизация насыщенности : 4:2:0
Битовая глубина : 8 бит
Тип развёртки : Прогрессивная
Метод сжатия : С потерями
Бит/(Пиксели*Кадры) : 0.363
Размер потока : 1,32 Гбайт (89%)
Библиотека кодирования : XviD 1.2.1 (UTC 2008-12-04)
Аудио
Идентификатор : 1
Формат : MPEG Audio
Версия формата : Version 1
Профиль формата : Layer 3
Режим : Joint stereo
Идентификатор кодека : 55
Идентификатор кодека/Подсказка : MP3
Продолжительность : 1 ч. 39 м.
Вид битрейта : Постоянный
Битрейт : 224 Кбит/сек
Каналы : 2 канала
Частота : 44,1 КГц
Метод сжатия : С потерями
Размер потока : 159 Мбайт (10%)
Выравнивание : Разделение по промежуткам
Продолжительность промежутка : 26 мс. (0,63 видеокадр)
Библиотека кодирования : LAMEЄЄI·ШКсhщц¤Кт”В

Важно!

Данный релиз был сделан исключительно в ознакомительных целях, для людей которые не любят (не могут) ждать нормальное качество!
Претензии по поводу качества звука и картинки высказывать не имеет смысла. Внимательно смотрим на Качество видео.
В последствии эта раздача будет обновлена или заменена.
Другой раздачи без рекламы (до появления лицензии) вы не найдете.
Скриншоты:
       

Clavik

Post 28-Oct-2019 23:31

[Quote]

Скрины бро)))

Орлов Владимир

Post 28-Oct-2019 22:34

[Quote]

--Терминатор: Темные судьбы / Terminator: Dark Fate (Тим Миллер) [2019, фантастика, боевик, приключения, TS] [MVO] [КОЛОБОК]--
Информация о фильме
Год выпуска: 2019
Жанр: фантастика, боевик, приключения
Страна: США, Китай
Режиссёр: Тим Миллер
Перевод: Профессиональный многоголосый [КОЛОБОК]
Субтитры: нет
Продолжительность: 01:58:39-- В ролях: Арнольд Шварценеггер, Маккензи Дэвис, Эдвард Ферлонг, Линда Хэмилтон, Том Хоппер, Кассандра Старр, Наталия Рейес, Гэбриел Луна, Бретт Азар, Диего Бонета-- Описание: Сара Коннор превратилась в настоящую охотницу за терминаторами и теперь занимается уничтожением роботов-убийц из будущего. Она считала, что главное - это не дать им добраться до Джона, но теперь появилась Дани Рамос, от выживания которой также зависит судьба человечества. Вместе с ней в бой вступает и загадочная Грейс, смесь человека и машины.-- --Файлы
Качество: TS 720p
Формат: MKV
Видео: h.264,3 675 Кбит/с, 1280x536
Аудио: Русский (AC3, 2 ch, 384 Кбит/с)
--

Скриншоты

     

Орлов Владимир

Post 28-Oct-2019 17:55

[Quote]

--Терминатор: Темные судьбы / Terminator: Dark Fate (Тим Миллер) [2019, фантастика, боевик, приключения, TS] [MVO] [КОЛОБОК]--
Информация о фильме
Год выпуска: 2019
Жанр: фантастика, боевик, приключения
Страна: США, Китай
Режиссёр: Тим Миллер
Перевод: Профессиональный многоголосый [КОЛОБОК]
Субтитры: нет
Продолжительность: 01:58:39-- В ролях: Арнольд Шварценеггер, Маккензи Дэвис, Эдвард Ферлонг, Линда Хэмилтон, Том Хоппер, Кассандра Старр, Наталия Рейес, Гэбриел Луна, Бретт Азар, Диего Бонета-- Описание: Сара Коннор превратилась в настоящую охотницу за терминаторами и теперь занимается уничтожением роботов-убийц из будущего. Она считала, что главное - это не дать им добраться до Джона, но теперь появилась Дани Рамос, от выживания которой также зависит судьба человечества. Вместе с ней в бой вступает и загадочная Грейс, смесь человека и машины.-- --Файлы
Качество: TS
Формат: AVI
Видео: XviD,1452 Кбит/с, 720x304
Аудио: Русский (AC3, 2 ch, 192 Кбит/с)
--      

Clavik

Post 26-Oct-2019 23:06

[Quote]

Zомбилэнд: Контрольный выстрел / Zombieland: Double Tap (2019) CAMRip [H.264/720p-LQ]- Производство: США / Columbia Pictures, Pariah
Жанр: Ужасы, боевик, комедия
Режиссер: Рубен Фляйшер
Актеры: Джесси Айзенберг, Вуди Харрельсон, Эмма Стоун, Эбигейл Бреслин, Зои Дойч, Розарио Доусон, Эван Джогиа, Билл Мюррей, Дэн Эйкройд, Люк Уилсон
Описание:
Беспощадная и бесстрашная четверка охотников на зомби продолжает свое путешествие в глубь страны. На этот раз им предстоит сразиться не только с новыми видами живых мертвецов, но и вступить в схватку с другими выжившими, которые настроены совсем не дружелюбно. Кроме того, в собственных рядах охотников намечается серьезный разлад.

Возраст: 18+ (зрителям, достигшим 18 лет. запрещено для детей)
Рейтинг MPAA: R (лицам до 17 лет обязательно присутствие взрослого)
Дата мировой премьеры: 9 октября 2019
Дата премьеры в России: 24 октября 2019

Продолжительность: 01:38:12
Качество видео: CAMRip
Перевод: Многоголосый закадровый, любительский (КОЛОБОК)
Субтитры: Отсутствуют
Реклама: Присутствует баннер.
Видео: AVC/H.264, 1280x420, ~3649 Kbps
Аудио: AC-3, 2 ch, 384 Kbps

MediaInfo:

Общее
Полное имя : D:\NNM\Zомбилэнд\Zombieland.Double.Tap.2019.TS.720p-LQ.mkv
Формат : Matroska
Версия формата : Version 2
Размер файла : 2,82 Гбайт
Продолжительность : 1 ч. 38 м.
Режим общего битрейта : Переменный
Общий поток : 4115 Кбит/сек
Программа кодирования : libmatroska 1.4.1
Библиотека кодирования : SolveigMM Matroska Muxer Version 1.0.1502.31
Видео
Идентификатор : 1
Формат : AVC
Формат/Информация : Advanced Video Codec
Профиль формата : [url=mailto:[email protected]][email protected][/url]
Настройки формата : CABAC / 4 Ref Frames
Параметр CABAC формата : Да
Параметр RefFrames формата : 4 кадра
Идентификатор кодека : V_MPEG4/ISO/AVC
Продолжительность : 1 ч. 38 м.
Вид битрейта : Переменный
Битрейт : 3649 Кбит/сек
Максимальный битрейт : 4000 Кбит/сек
Ширина : 1280 пикселей
Высота : 420 пикселей
Соотношение сторон : 3,048
Режим частоты кадров : Постоянный
Частота кадров : 23,976 (24000/1001) кадра/сек
Стандарт вещания : Component
Цветовое пространство : YUV
Субдискретизация насыщенности : 4:2:0
Битовая глубина : 8 бит
Тип развёртки : Прогрессивная
Бит/(Пиксели*Кадры) : 0.283
Размер потока : 2,50 Гбайт (89%)
Default : Нет
Forced : Нет
Цветовой диапазон : Limited
Основные цвета : BT.709
Характеристики трансфера : BT.709
Коэффициенты матрицы : BT.709
Аудио
Идентификатор : 2
Формат : AC-3
Формат/Информация : Audio Coding 3
Коммерческое название : Dolby Digital
Идентификатор кодека : A_AC3
Продолжительность : 1 ч. 38 м.
Вид битрейта : Постоянный
Битрейт : 384 Кбит/сек
Каналы : 2 канала
ChannelLayout : L R
Частота : 48,0 КГц
Частота кадров : 31,250 кадров/сек (1536 SPF)
Битовая глубина : 16 бит
Метод сжатия : С потерями
Размер потока : 270 Мбайт (9%)
Язык : Russian
ServiceKind/String : Complete Main
Default : Нет
Forced : Нет
Скриншоты:        

Clavik

Post 11-Oct-2019 18:01

[Quote]

dolgopa писал(а):
хоть бы оформление поменяли !!!!
не вижу смысла менять так как все сайты друг у друга тырят релизы и этот релиз не исключение) плюс он тож взял его откудото) ну т оформление супер так что пусть будет)

Clavik

Post 09-Oct-2019 14:22

[Quote]

Зачем) оно и так красивое

dolgopa

Post 09-Oct-2019 14:03

[Quote]

хоть бы оформление поменяли !!!!

Clavik

Post 07-Oct-2019 20:14

[Quote]

-Гемини / Gemini Man (Энг Ли) [2019, фантастика, боевик, триллер, драма, TS] [MVO] [КОЛОБОК]-- Информация о фильме
Год выпуска: 2019
Жанр: фантастика, боевик, триллер, драма
Страна: Китай, США
Режиссёр: Энг Ли
Перевод: Профессиональный многоголосый [КОЛОБОК]
Субтитры: нет
Продолжительность: 01:47:00-- В ролях: Уилл Смит, Мэри Элизабет Уинстэд, Клайв Оуэн, Бенедикт Вонг, Дуглас Ходж, Теодора Вулли, Ральф Браун, Линда Эмонд, Андреа Суч, Илья Волох-- Описание: Генри Броган, первоклассный киллер, становится мишенью таинственного оперативника, который, кажется, знает каждый его шаг наперед...-- --Файлы
Качество: TS
Формат: AVI
Видео: XviD,1626 Кбит/с, 720x352
Аудио: Русский (AC3, 2 ch, 192 Кбит/с)

Скриншоты

     

Clavik

Post 06-Oct-2019 22:53

[Quote]

-Эверест / Abominable (Джилл Калтон, Тодд Вилдерман) [2019, мультфильм, фэнтези, комедия, приключения, семейный, TS 720p] [DUB]-- Информация о фильме
Год выпуска: 2019
Жанр: мультфильм, фэнтези, комедия, приключения, семейный
Страна: Китай, США
Режиссёр: Джилл Калтон, Тодд Вилдерман
Перевод: Дублированный
Субтитры: нет
Продолжительность: 01:27:41-- В ролях: Хлоя Беннет, Альберт Цай, Тензинг Норгай Трэйнор, Джозеф Иццо, Эдди Иззард, Сара Полсон, Цай Чинь, Мишель Вонг, Рич Дитль, Джеймс Хонг-- Описание: Путешествие на самую высокую точку мира? Что может быть круче! Так решает Лу, когда случайно находит огромное, но очень милое чудовище посреди шумного мегаполиса. Пусть их преследуют ученые из сверхсекретной лаборатории, зато её новый друг умеет смешить и творить чудеса. Лу уверена, что поможет дружелюбному йети вернуться домой - на Эверест.-- --Файлы
Качество: TS 720p
Формат: MKV
Видео: h.264,3 765 Кбит/с, 1280x720
Аудио: Русский (AC3, 2 ch, 384 Кбит/с)

Скриншоты

     

Clavik

Post 05-Oct-2019 17:56

[Quote]

К звёздам / Ad Astra (2019) TS - Производство: США, Китай, Бразилия / 20th Century Fox Film Corporation, Bona Film Group, Keep Your Head, MadRiver Pictures, New Regency Pictures
Жанр: фантастика, триллер, драма, детектив, приключения
Режиссер: Джеймс Грэй
Актеры: Брэд Питт, Томми Ли Джонс, Рут Негга, Дональд Сазерленд, Кимберли Элиз, Лорен Дин, Донни Кешаварц, Шон Блейкмор, Бобби Ниш, Лиза Гэй Хэмилтон
Описание:
Недалёкое будущее. Несколько лет назад человечество запустило программу поиска внеземной жизни «Проект «Лима»», во главе которой стоял капитан Клиффорд Макбрайд. Последний сигнал экспедиции был зафиксирован в районе Нептуна, и с тех пор о её судьбе ничего не было известно. Сам капитан Макбрайд стал героем и самым известным космонавтом, вдохновившим многих на исследование космоса.
Через 16 лет после исчезновения «Проекта «Лима»» на Земле начинают происходить странные вспышки энергии, выводящие из строя электросистемы и сеящие хаос и разрушения. По данным американского космического агентства сигнал идёт с Нептуна, и теперь сыну знаменитого космонавта, майору Рою Макбрайду, поручается ответственная миссия. Он должен добраться до марсианской базы и оттуда попытаться связаться с предположительно живым отцом.

Возраст: 16+ (зрителям, достигшим 16 лет)
Рейтинг MPAA: PG-13 (детям до 13 лет просмотр нежелателен)
Дата мировойой премьеры: 29.08.2019
Дата российской премьеры: 26.09.2019
Продолжительность: 01:53:21
Качество видео: TS
Перевод: Дублированный
Субтитры: отсутствуют
Реклама: присутствует
Видео: Xvid, 720х304, ~2193 kbps
Аудио: AC3, 2 ch, 384 kbps

MediaInfo:

Общее
Полное имя : D:\Downloads\Торрент\K.ZveZdam.2019.D.TS.21OOMB.avi
Формат : AVI
Формат/Информация : Audio Video Interleave
Профиль формата : OpenDML
Размер файла : 2,05 Гбайт
Продолжительность : 1 ч. 53 м.
Общий поток : 2590 Кбит/сек
Программа кодирования : VirtualDubMod 1.5.10.3 | www.virtualdub-fr.org || (build 2550/release)
Библиотека кодирования : VirtualDubMod build 2550/release
Видео
Идентификатор : 0
Формат : MPEG-4 Visual
Профиль формата : Advanced [email protected]
Настройки формата : BVOP2 / Custom Matrix
Параметр BVOP формата : 2
Параметр QPel формата : Нет
Параметр GMC формата : Без точки перехода
Параметр матрицы формата : Выборочная
Идентификатор кодека : XVID
Идентификатор кодека/Подсказка : XviD
Продолжительность : 1 ч. 53 м.
Битрейт : 2194 Кбит/сек
Ширина : 720 пикселей
Высота : 304 пикселя
Соотношение сторон : 2,35:1
Частота кадров : 23,976 (24000/1001) кадра/сек
Цветовое пространство : YUV
Субдискретизация насыщенности : 4:2:0
Битовая глубина : 8 бит
Тип развёртки : Прогрессивная
Метод сжатия : С потерями
Бит/(Пиксели*Кадры) : 0.418
Размер потока : 1,74 Гбайт (85%)
Библиотека кодирования : XviD 1.2.1 (UTC 2008-12-04)
Аудио
Идентификатор : 1
Формат : AC-3
Формат/Информация : Audio Coding 3
Коммерческое название : Dolby Digital
Идентификатор кодека : 2000
Продолжительность : 1 ч. 53 м.
Вид битрейта : Постоянный
Битрейт : 384 Кбит/сек
Каналы : 2 канала
ChannelLayout : L R
Частота : 48,0 КГц
Частота кадров : 31,250 кадров/сек (1536 SPF)
Метод сжатия : С потерями
Размер потока : 311 Мбайт (15%)
Выравнивание : Разделение по промежуткам
Продолжительность промежутка : 42 мс. (1,00 видеокадр)
Время предзагрузки промежутка : 500 мс.
ServiceKind/String : Complete Main
Скриншоты:
       

Clavik

Post 05-Oct-2019 17:53

[Quote]

Джокер / Joker (2019) TS - Производство: Канада, США / Warner Bros., Village Roadshow Pictures, DC Entertainment, DC Comics, 22 & Indiana Pictures, Creative Wealth Media Finance, Bron Studios
Жанр: Триллер, драма, криминал
Режиссер: Тодд Филлипс
Актеры: Хоакин Феникс, Роберт Де Ниро, Зази Битц, Джоли Чань, Марк Мэрон, Фрэнсис Конрой, Мэри Кейт Малат, Шей Уигэм, Брайан Коллен, Бретт Каллен
Описание:
Готэм, начало 1980-х годов. Комик Артур Флек живет с больной матерью, которая с детства учит его «ходить с улыбкой». Пытаясь нести в мир хорошее и дарить людям радость, Артур сталкивается с человеческой жестокостью и постепенно приходит к выводу, что этот мир получит от него не добрую улыбку, а ухмылку злодея Джокера.

Возраст: 18+ (зрителям, достигшим 18 лет. запрещено для детей)
Рейтинг MPAA: R (лицам до 17 лет обязательно присутствие взрослого)
Дата мировой премьеры: 31 августа 2019
Дата российской премьеры: 3 октября 2019, «Каро-Премьер»
Продолжительность: 01:55:58
Качество видео: TS
Перевод: Дублированный
Субтитры: Отсутствуют
Реклама: Присутствует баннер
Видео: Xvid, 720х360, ~1495 Kbps
Аудио: AC3, 2 ch, 192 Kbps

MediaInfo:

Полное имя                               : D:\Новая папка\Joker.2019..TS.avi
Формат : AVI
Формат/Информация : Audio Video Interleave
Профиль формата : OpenDML
Настройки формата : rec
Размер файла : 1,37 Гбайт
Продолжительность : 1 ч. 55 м.
Общий поток : 1692 Кбит/сек
Программа кодирования : AVI-Mux GUI 1.17.8.3, Feb 16 201019:42:50
Видео
Идентификатор : 0
Формат : MPEG-4 Visual
Профиль формата : Advanced [email protected]
Настройки формата : BVOP1
Параметр BVOP формата : 1
Параметр QPel формата : Нет
Параметр GMC формата : Без точки перехода
Параметр матрицы формата : Default (H.263)
Идентификатор кодека : XVID
Идентификатор кодека/Подсказка : XviD
Продолжительность : 1 ч. 55 м.
Битрейт : 1495 Кбит/сек
Ширина : 720 пикселей
Высота : 360 пикселей
Соотношение сторон : 2,032
Частота кадров : 23,976 (24000/1001) кадра/сек
Цветовое пространство : YUV
Субдискретизация насыщенности : 4:2:0
Битовая глубина : 8 бит
Тип развёртки : Прогрессивная
Метод сжатия : С потерями
Бит/(Пиксели*Кадры) : 0.241
Размер потока : 1,21 Гбайт (88%)
Библиотека кодирования : XviD 67
Аудио
Идентификатор : 1
Формат : AC-3
Формат/Информация : Audio Coding 3
Коммерческое название : Dolby Digital
Идентификатор кодека : 2000
Продолжительность : 1 ч. 55 м.
Вид битрейта : Постоянный
Битрейт : 192 Кбит/сек
Каналы : 2 канала
ChannelLayout : L R
Частота : 48,0 КГц
Частота кадров : 31,250 кадров/сек (1536 SPF)
Битовая глубина : 16 бит
Метод сжатия : С потерями
Размер потока : 159 Мбайт (11%)
Выравнивание : Соединение по промежуткам
Продолжительность промежутка : 64 мс. (1,53 видеокадра)
Время предзагрузки промежутка : 192 мс.
ServiceKind/String : Complete Main
Скриншоты:
       

Clavik

Post 20-Sep-2019 22:22

[Quote]

нежданчик) рэмбо новый,спасибо за раздачу

Орлов Владимир

Post 20-Sep-2019 22:21

[Quote]

-Рэмбо: Последняя кровь / Rambo: Last Blood-- Информация о фильме
Год выпуска: 2019
Жанр: боевик, триллер, приключения, вестерн
Страна: США
Режиссёр: Адриан Грюнберг
Перевод: Дублированный
Субтитры: нет
Продолжительность: 01:30:269-- В ролях: Сильвестр Сталлоне, Пас Вега, Ивет Монреаль, Луис Мэндилор, Оскар Хаэнада, Шила Шах, Серхио Перис-Менчета, Джессика Мэдсен, Хоакин Косио, Адриана Барраса-- Описание: Он хранил секреты всю жизнь, но пришло время взглянуть в глаза прошлому. В последний раз собраться и стать безжалостной машиной для убийства. Рэмбо снова встанет на смертельно опасный путь - путь мести, который ему придется пройти до конца-- --Файлы
Качество: TS
Формат: AVI
Видео: XviD,1769 Кбит/с, 720x304
Аудио: Русский (AC3, 2 ch, 384 Кбит/с)
--

Скриншоты

     

Орлов Владимир

Post 10-Sep-2019 22:14

[Quote]

-Маленькие чудовища / Little Monsters (Абе Форсайт) [2019, ужасы, комедия, TS 720p] [MVO] [КОЛОБОК]- Информация о фильме
Год выпуска: 2019
Жанр: ужасы, комедия
Страна: Австралия, Великобритания, США
Режиссёр: Абе Форсайт
Перевод: Профессиональный многоголосый [КОЛОБОК]
Субтитры: нет
Продолжительность: 01:29:12-- В ролях: Лупита Нионго, Джош Гад, Стивен Пикок, Кэт Стюарт, Александр Инглэнд, Надя Таунсенд, Феликс Уильямсон, Маршалл Напье, Генри Никсон, Джейсон Чонг-- Описание: Учительница начальных классов везёт группу детей за город на экскурсию, когда на местности происходит вспышка зомби-вируса. Чтобы спастись и не травмировать детскую психику, женщина убеждает малышей в том, что все эти зомби, кровь, кишки - ненастоящие, а всё происходящее - просто игра. Странная, но весёлая. И вот тот дядя корчится не от боли, а от радости. И не корчится, а смеётся.-- --Файлы
Качество: TS 720p
Формат: MKV
Видео: h.264,4000 Кбит/с, 1280x536
Аудио: Русский (AC3, 2 ch, 384 Кбит/с)
--

Скриншоты

     
 

The time now is: Today 22:04

All times are GMT + 3 Hours