Today is a free download without charge Download

Search found 500 matches

Author Message

Soldat_5

Post Yesterday 13:04

[Quote]

Джокер / Joker
Страна: США Канада
Производство: Warner Bros., DC Entertainment, Village Roadshow Pictures, Bron Studios
Год выпуска: 2019
Жанр: триллер, драма, криминал
Продолжительность: 01:55:41
Перевод №1: Одноголосый закадровый | BadBajo (Андрей Важенин)
Перевод №2: Любительский (многоголосый, закадровый) | Mallorn / без цензуры
Субтитры: русские (full) от Mallorn, английские (full), корейские (hardsub) / неотключаемые
Оригинальная аудиодорожка: английский
Режиссер: Тодд Филлипс / Todd Phillips
В ролях: Хоакин Феникс, Роберт Де Ниро, Зази Битц, Фрэнсис Конрой, Бретт Каллен, Шей Уигэм, Билл Кэмп, Гленн Флешлер, Ли Гилл, Джош Пэйс, Рокко Луна, Марк Мэрон, Сондра Джеймс, Мерфи Гайер, Дуглас Ходж, Данте Перейра-Олсон, Кэрри Луиз Путрелло, Шэрон Вашингтон, Ханна Гросс, Фрэнк Вуд
Описание: Готэм, начало 1980-х годов. Комик Артур Флек живёт с больной матерью, которая с детства учит его «ходить с улыбкой». Пытаясь нести в мир хорошее и дарить людям радость, Артур сталкивается с человеческой жестокостью и постепенно приходит к выводу, что этот мир получит от него не добрую улыбку, а ухмылку злодея Джокера...

Тип релиза: WEBRip 1080p
Контейнер: MKV
Видео: MPEG-4 AVC, 1920x1040 (1.85:1), 58.823 fps, ~12.9 Мbps avg
Аудио №1: 48 kHz, AC3 Dolby Digital, 2/0 (L,R) ch, ~448 kbps avg | RUS / BadBajo
Аудио №2: 48 kHz, AC3 Dolby Digital, 2/0 (L,R) ch, ~384 kbps avg | RUS / Mallorn
Аудио №3: 48 kHz, AC3 Dolby Digital, 2/0 (L,R) ch, ~192 kbps avg | UKR / Postmodern
Аудио №4: 48 kHz, AC3 Dolby Digital, 2/0 (L,R) ch, ~384 kbps avg | ENG / Original
Формат субтитров: softsub (SRT)
Реклама: нет

MediaInfo

General
Уникальный идентификатор : 185027458550173730484232930209378977955 (0x8B32FE071506A4EF611EABD49DCDC8A3)
Полное имя : Joker.WEBRip.1080p_zh.mkv
Формат : Matroska
Версия формата : Version 4
Размер файла : 11,6 Гбайт
Продолжительность : 1 ч. 55 м.
Общий поток : 14,3 Мбит/сек
Название фильма : Joker.WEBRip.1080p_zh
Дата кодирования : UTC 2019-11-14 06:59:27
Программа кодирования : mkvmerge v35.0.0 ('All The Love In The World') 32-bit
Библиотека кодирования : libebml v1.3.9 + libmatroska v1.5.2
Видео
Идентификатор : 1
Формат : AVC
Формат/Информация : Advanced Video Codec
Профиль формата : [email protected]
Настройки формата : CABAC / 4 Ref Frames
Параметр CABAC формата : Да
Параметр RefFrames формата : 4 кадра
Идентификатор кодека : V_MPEG4/ISO/AVC
Продолжительность : 1 ч. 55 м.
Битрейт : 12,9 Мбит/сек
Ширина : 1920 пикселей
Высота : 1040 пикселей
Соотношение сторон : 1,85:1
Режим частоты кадров : Постоянный
Частота кадров : 58,823 кадров/сек
Цветовое пространство : YUV
Субдискретизация насыщенности : 4:2:0
Битовая глубина : 8 бит
Тип развёртки : Прогрессивная
Бит/(Пиксели*Кадры) : 0.110
Размер потока : 10,4 Гбайт (90%)
Заголовок : Joker.WEBRip.1080p
Библиотека кодирования : x264 core 142 r2479 dd79a61
Настройки программы : cabac=1 / ref=4 / deblock=1:0:0 / analyse=0x3:0x113 / me=umh / subme=8 / psy=1 / psy_rd=1.00:0.00 / mixed_ref=1 / me_range=16 / chroma_me=1 / trellis=1 / 8x8dct=1 / cqm=0 / deadzone=21,11 / fast_pskip=1 / chroma_qp_offset=-2 / threads=24 / lookahead_threads=4 / sliced_threads=0 / nr=0 / decimate=1 / interlaced=0 / bluray_compat=0 / constrained_intra=0 / bframes=3 / b_pyramid=2 / b_adapt=2 / b_bias=0 / direct=3 / weightb=1 / open_gop=0 / weightp=2 / keyint=590 / keyint_min=59 / scenecut=40 / intra_refresh=0 / rc_lookahead=50 / rc=abr / mbtree=1 / bitrate=12899 / ratetol=1.0 / qcomp=0.60 / qpmin=0 / qpmax=69 / qpstep=4 / vbv_maxrate=62500 / vbv_bufsize=78125 / nal_hrd=none / filler=0 / ip_ratio=1.40 / aq=1:1.00
Язык : English
Default : Да
Forced : Нет
Цветовой диапазон : Limited
Основные цвета : BT.709
Характеристики трансфера : BT.709
Коэффициенты матрицы : BT.709
Аудио #1
Идентификатор : 2
Формат : AC-3
Формат/Информация : Audio Coding 3
Коммерческое название : Dolby Digital
Идентификатор кодека : A_AC3
Продолжительность : 1 ч. 55 м.
Вид битрейта : Постоянный
Битрейт : 448 Кбит/сек
Каналы : 2 канала
ChannelLayout : L R
Частота : 48,0 КГц
Частота кадров : 31,250 кадров/сек (1536 SPF)
Битовая глубина : 16 бит
Метод сжатия : С потерями
Задержка видео : -34 мс.
Размер потока : 370 Мбайт (3%)
Заголовок : BadBajo
Язык : Russian
Default : Да
Forced : Да
Аудио #2
Идентификатор : 3
Формат : AC-3
Формат/Информация : Audio Coding 3
Коммерческое название : Dolby Digital
Идентификатор кодека : A_AC3
Продолжительность : 1 ч. 55 м.
Вид битрейта : Постоянный
Битрейт : 384 Кбит/сек
Каналы : 2 канала
ChannelLayout : L R
Частота : 48,0 КГц
Частота кадров : 31,250 кадров/сек (1536 SPF)
Битовая глубина : 16 бит
Метод сжатия : С потерями
Задержка видео : -34 мс.
Размер потока : 317 Мбайт (3%)
Заголовок : MVO [Mallorn]
Язык : Russian
Default : Нет
Forced : Нет
Аудио #3
Идентификатор : 4
Формат : AC-3
Формат/Информация : Audio Coding 3
Коммерческое название : Dolby Digital
Идентификатор кодека : A_AC3
Продолжительность : 1 ч. 55 м.
Вид битрейта : Постоянный
Битрейт : 192 Кбит/сек
Каналы : 2 канала
ChannelLayout : L R
Частота : 48,0 КГц
Частота кадров : 31,250 кадров/сек (1536 SPF)
Битовая глубина : 16 бит
Метод сжатия : С потерями
Задержка видео : -34 мс.
Размер потока : 159 Мбайт (1%)
Заголовок : Dub [Postmodern, Line]
Язык : Ukrainian
Default : Нет
Forced : Нет
Аудио #4
Идентификатор : 5
Формат : AC-3
Формат/Информация : Audio Coding 3
Коммерческое название : Dolby Digital
Идентификатор кодека : A_AC3
Продолжительность : 1 ч. 55 м.
Вид битрейта : Постоянный
Битрейт : 384 Кбит/сек
Каналы : 2 канала
ChannelLayout : L R
Частота : 48,0 КГц
Частота кадров : 31,250 кадров/сек (1536 SPF)
Битовая глубина : 16 бит
Метод сжатия : С потерями
Задержка видео : 80 мс.
Размер потока : 317 Мбайт (3%)
Заголовок : Original
Язык : English
Default : Нет
Forced : Нет
Текст #1
Идентификатор : 6
Формат : UTF-8
Идентификатор кодека : S_TEXT/UTF8
Идентификатор кодека/Информация : UTF-8 Plain Text
Продолжительность : 1 ч. 55 м.
Битрейт : 69 бит/сек
ElementCount : 1188
Размер потока : 58,8 Кбайт (0%)
Заголовок : Full [от Mallorn]
Язык : Russian
Default : Нет
Forced : Нет
Текст #2
Идентификатор : 7
Формат : UTF-8
Идентификатор кодека : S_TEXT/UTF8
Идентификатор кодека/Информация : UTF-8 Plain Text
Продолжительность : 1 ч. 55 м.
Битрейт : 86 бит/сек
ElementCount : 1189
Размер потока : 73,6 Кбайт (0%)
Заголовок : Full
Язык : English
Default : Нет
Forced : Нет
Меню
00:00:00.000 : :Глава 01
00:12:00.000 : :Глава 02
00:24:00.000 : :Глава 03
00:36:00.000 : :Глава 04
00:48:00.000 : :Глава 05
01:00:00.000 : :Глава 06
01:12:00.000 : :Глава 07
01:24:00.000 : :Глава 08
01:36:00.000 : :Глава 09
01:48:00.000 : :Глава 10

Скриншоты

Soldat_5

Post 13-Nov-2019 09:53

[Quote]

Опасные секреты / Official Secrets
Год выпуска: 2019
Страна: Великобритания, США
Жанр: Триллер, драма, мелодрама, военный, биография
Продолжительность: 01:52:04
Перевод: Профессиональный(дублированный)
Режиссер: Гэвин Худ / Gavin Hood
В ролях: Кира Найтли, Мэттью Гуд, Рэйф Файнс, Индира Варма, Мэтт Смит, МайЭнн Беринг, Рис Иванс, Тамсин Грейг, Джек Фартинг, Хэтти Морахэн, Конлет Хилл, Кэтрин Келли, Шон Дули, Моника Долан, Кеннет Крэнэм, Крис Ларкин, Рэй Пантаки, Джон Хеффернан (II), Питер Гиннесс, Энгус Райт, Клив Френсис, Крис Райли, Адам Бакри, Даррелл Д’Силва, Линди Уайтфорд, Джени Ди, Радж Авасти, Уилл Бартон, Ханако Футман, Никки Лин, Марк Хью-Уильямс, Атул Шарма, Манодж Ананд, Джо Уитли, Ад Дарлингтон, Пол Блэкуэлл, Джон Алан Робертс, Ли Бифорд, Марк Энтони, Доусон Грант, Крукс Тим
Описание: Шпионка британской разведки Кэтрин Ган обнародует засекреченное электронное письмо, в котором изобличаются американское и британское правительства в их незаконном вторжении в Ирак. Кэтрин и её адвокаты пытаются оправдать её действия в суде – ей вменяют нарушение Закона о государственной тайне. Под угрозой её жизнь, свобода и брак, но ей необходимо отстоять свои убеждения
Доп. информация: Данный релиз был сделан исключительно в ознакомительных целях, для людей которые не любят (не могут) ждать нормальное качество!
Претензии по поводу качества звука и картинки высказывать не имеет смысла. Внимательно смотрим на Качество видео. В последствии эта раздача будет обновлена или поглощена.
Реклама в релизе удалялась вручную. Другой раздачи в дубляже и без рекламы (до появления лиценз
Качество: BDRip
Формат: AVI
Видео: 720x304, XviD, 23.976 fps, 1 540 Kbps
Аудио: MP3, 44100Hz, 2ch, 224 Kbps
Релиз от: EFFX

Скриншоты

MediaInfo

General
Complete name : D:\Off.Secrets\Official.Secrets.2019.D.WEB-DLRip-Effx.avi
Format : AVI
Format/Info : Audio Video Interleave
Format profile : OpenDML
File size : 1.39 GiB
Duration : 1 h 52 min
Overall bit rate : 1 779 kb/s
Movie name : Official.Secrets.2019.D.WEB-DLRip.14OOMB
Recorded date : 2019-11-12
Writing application : msl
Video
ID : 0
Format : MPEG-4 Visual
Format profile : Advanced [email protected]
Format settings : BVOP2
Format settings, BVOP : 2
Format settings, QPel : No
Format settings, GMC : No warppoints
Format settings, Matrix : Default (H.263)
Muxing mode : Packed bitstream
Codec ID : XVID
Codec ID/Hint : XviD
Duration : 1 h 52 min
Bit rate : 1 541 kb/s
Width : 720 pixels
Height : 304 pixels
Display aspect ratio : 2.35:1
Frame rate : 23.976 (24000/1001) FPS
Color space : YUV
Chroma subsampling : 4:2:0
Bit depth : 8 bits
Scan type : Progressive
Compression mode : Lossy
Bits/(Pixel*Frame) : 0.294
Stream size : 1.21 GiB (87%)
Writing library : XviD 1.2.1 (UTC 2008-12-04)
Audio
ID : 1
Format : MPEG Audio
Format version : Version 1
Format profile : Layer 3
Format settings : Joint stereo / MS Stereo
Codec ID : 55
Codec ID/Hint : MP3
Duration : 1 h 52 min
Bit rate mode : Constant
Bit rate : 224 kb/s
Channel(s) : 2 channels
Sampling rate : 44.1 kHz
Compression mode : Lossy
Stream size : 180 MiB (13%)
Alignment : Split across interleaves
Interleave, duration : 26 ms (0.63 video frame)
Writing library : LAMEª(„ãDÀv(‰P¬CL

Орлов Владимир

Post 01-Nov-2019 13:30

[Quote]

--Операция «Колибри» / The Hummingbird Project--
Информация о фильме
Название: Операция «Колибри»
Оригинальное название: The Hummingbird Project
Год выпуска: 2018
Жанр: Триллер
Режиссер: Ким Нгуйен--В ролях: Джесси Айзенберг, Александр Скарсгард, Сальма Хайек, Майкл Мэндо, Йохан Хелденберг, Аиша Исса, Марк Слэк, Сара Голдберг, Фрэнк Скорпион, Кваси Сонгуи--О фильме:
Двоюродные братья Винсент и Антон живут в мире высокочастотного трейдинга, где каждая миллисекунда может стоить миллиарды. Они решаются реализовать давно задуманный проект. Казалось бы, все продумано до мелочей и шансы на успех велики как никогда. Однако на пути братьев встает их бывший босс Эва Торрес - беспринципный злой гений, ставшая их заклятым врагом. Ставки высоки, проигравший теряет всё или, наоборот, приобретает нечто большее, поистине бесценное.-- --Страна: Бельгия, Канада
Студия: Item 7, Belga Productions
Продолжительность: 01:50:37
Перевод: Дублированный iTunes--Файл
Формат: AVI
Качество: BDRip
Видео: 688x288 (2.39:1), 23.976 fps, XviD build 50 ~803 kbps avg, 0.17 bit/pixel
Звук: 48 kHz, MPEG Layer 3, 2 ch, ~128.00 kbps avg
Субтитры: Нет--

Тех.данные видеофайла

Общее
Полное имя : C:\The.Hummingbird.Project.2018.BDRip.740.mb.avi
Формат : AVI
Формат/Информация : Audio Video Interleave
Размер файла : 745 Мбайт
Продолжительность : 1 ч. 50 м.
Общий поток : 941 Кбит/сек
Программа кодирования : VirtualDubMod 1.5.10.3 | (build 2550/release)
Библиотека кодирования : VirtualDubMod build 2550/release
Видео
Идентификатор : 0
Формат : MPEG-4 Visual
Профиль формата : Advanced [email protected]
Параметр BVOP формата : 1
Параметр QPel формата : Нет
Параметр GMC формата : Без точки перехода
Параметр матрицы формата : Default (H.263)
Идентификатор кодека : XVID
Идентификатор кодека/Подсказка : XviD
Продолжительность : 1 ч. 50 м.
Битрейт : 804 Кбит/сек
Ширина : 688 пикселей
Высота : 288 пикселей
Соотношение сторон : 2,40:1
Частота кадров : 23,976 кадра/сек
Цветовое пространство : YUV
Субдискретизация насыщенности : 4:2:0
Битовая глубина : 8 бит
Тип развёртки : Прогрессивная
Метод сжатия : С потерями
Бит/(Пиксели*Кадры) : 0.169
Размер потока : 636 Мбайт (85%)
Библиотека кодирования : XviD 1.2.1 (UTC 2008-12-04)
Аудио
Идентификатор : 1
Формат : MPEG Audio
Версия формата : Version 1
Профиль формата : Layer 3
Идентификатор кодека : 55
Идентификатор кодека/Подсказка : MP3
Продолжительность : 1 ч. 50 м.
Вид битрейта : Постоянный
Битрейт : 128 Кбит/сек
Каналы : 2 канала
Частота : 48,0 КГц
Метод сжатия : С потерями
Размер потока : 101 Мбайт (14%)
Выравнивание : Соединение по промежуткам
Продолжительность промежутка : 42 мс. (1,00 видеокадр)
Время предзагрузки промежутка : 504 мс.
Библиотека кодирования : LAME3.99r
Настройки программы : -m s -V 4 -q 2 -lowpass 17 -b 128

Скриншоты

           

Орлов Владимир

Post 01-Nov-2019 02:28

[Quote]

--Операция «Колибри» / The Hummingbird Project--
Информация о фильме
Название: Операция «Колибри»
Оригинальное название: The Hummingbird Project
Год выхода: 2018
Жанр: Триллер
Режиссер: Ким Нгуйен--В ролях: Джесси Айзенберг, Александр Скарсгард, Сальма Хайек, Майкл Мэндо, Йохан Хелденберг, Аиша Исса, Марк Слэк, Сара Голдберг, Фрэнк Скорпион, Кваси Сонгуи--О фильме: Двоюродные братья Винсент и Антон живут в мире высокочастотного трейдинга, где каждая миллисекунда может стоить миллиарды. Они решаются реализовать давно задуманный проект. Казалось бы, все продумано до мелочей и шансы на успех велики как никогда. Однако на пути братьев встает их бывший босс Эва Торрес - беспринципный злой гений, ставшая их заклятым врагом. Ставки высоки, проигравший теряет всё или, наоборот, приобретает нечто большее, поистине бесценное.-- --Страна: Бельгия, Канада
Студия: Item 7, Belga Productions
Продолжительность: 01:50:37
Перевод(ы):
#1: Дублированный | iTunes
#2: Профессиональный многоголосый | СВ Студия
#3: Профессиональный многоголосый | HDRezka Studio--Качество: BDRemux 1080p
Видео: MPEG-4 AVC, 1920x1080, 21.9 Mbit/s, 23.976 fps
Аудио #01: 48 kHz, AC3, 5.1, 384 Kbps | iTunes | RUS |
Аудио #02: 48 kHz, AC3, 5.1, 384 Kbps | СВ Студия | RUS |
Аудио #03: 48 kHz, AC3, 2.0, 192 Kbps | HDRezka Studio | RUS |
Аудио #04: 48 kHz, DTS-HD MA, 5.1, 1881 Kbps | Оригинал | ENG |
Субтитры: Русские (Full), английские--

Скриншоты

         

Тех.данные видеофайла

General
Unique ID: 174696088516995226649328492151141392489 (0x836D3E286ADA0E3D479A02F3450D6069)
Complete name: D:Video111The.Hummingbird.Project.2018.D.MVO.BDREMUX.1080p.seleZen.mkv
Format: Matroska
Format version: Version 4
File size: 19.1 GiB
Duration: 1 h 50 min
Overall bit rate mode: Variable
Overall bit rate: 24.7 Mb/s
Movie name: The Hummingbird Project 2018 from селезень
Encoded date: UTC 2019-10-31 19:40:59
Writing application: mkvmerge v22.0.0 ('At The End Of The World') 64-bit
Writing library: libebml v1.3.5 + libmatroska v1.4.8
Video
ID: 1
Format: AVC
Format/Info: Advanced Video Codec
Format profile: [email protected]
Format settings: CABAC / 4 Ref Frames
Format settings, CABAC: Yes
Format settings, Reference: 4 frames
Codec ID: V_MPEG4/ISO/AVC
Duration: 1 h 50 min
Bit rate mode: Variable
Bit rate: 21.9 Mb/s
Maximum bit rate: 35.0 Mb/s
Width: 1 920 pixels
Height: 1 080 pixels
Display aspect ratio: 16:9
Frame rate mode: Constant
Frame rate: 23.976 (24000/1001) FPS
Color space: YUV
Chroma subsampling: 4:2:0
Bit depth: 8 bits
Scan type: Progressive
Bits/(Pixel*Frame): 0.440
Stream size: 16.9 GiB (88%)
Language: English
Default: Yes
Forced: No
Audio #1
ID: 2
Format: AC-3
Format/Info: Audio Coding 3
Commercial name: Dolby Digital
Codec ID: A_AC3
Duration: 1 h 50 min
Bit rate mode: Constant
Bit rate: 384 kb/s
Channel(s): 6 channels
Channel layout: L R C LFE Ls Rs
Sampling rate: 48.0 kHz
Frame rate: 31.250 FPS (1536 SPF)
Bit depth: 16 bits
Compression mode: Lossy
Stream size: 304 MiB (2%)
Title: iTunes
Language: Russian
Service kind: Complete Main
Default: Yes
Forced: Yes
Audio #2
ID: 3
Format: AC-3
Format/Info: Audio Coding 3
Commercial name: Dolby Digital
Codec ID: A_AC3
Duration: 1 h 50 min
Bit rate mode: Constant
Bit rate: 384 kb/s
Channel(s): 6 channels
Channel layout: L R C LFE Ls Rs
Sampling rate: 48.0 kHz
Frame rate: 31.250 FPS (1536 SPF)
Bit depth: 16 bits
Compression mode: Lossy
Stream size: 304 MiB (2%)
Title: MVO [СВ Студия]
Language: Russian
Service kind: Complete Main
Default: No
Forced: No
Audio #3
ID: 4
Format: AC-3
Format/Info: Audio Coding 3
Commercial name: Dolby Digital
Codec ID: A_AC3
Duration: 1 h 50 min
Bit rate mode: Constant
Bit rate: 192 kb/s
Channel(s): 2 channels
Channel layout: L R
Sampling rate: 48.0 kHz
Frame rate: 31.250 FPS (1536 SPF)
Bit depth: 16 bits
Compression mode: Lossy
Stream size: 152 MiB (1%)
Title: MVO [HDRezka Studio]
Language: Russian
Service kind: Complete Main
Default: No
Forced: No
Audio #4
ID: 5
Format: DTS XLL
Format/Info: Digital Theater Systems
Commercial name: DTS-HD Master Audio
Codec ID: A_DTS
Duration: 1 h 50 min
Bit rate mode: Variable
Bit rate: 1 882 kb/s
Channel(s): 6 channels
Channel layout: C L R Ls Rs LFE
Sampling rate: 48.0 kHz
Frame rate: 93.750 FPS (512 SPF)
Bit depth: 24 bits
Compression mode: Lossless
Stream size: 1.45 GiB (8%)
Title: Original
Language: English
Default: No
Forced: No
Text #1
ID: 6
Format: UTF-8
Codec ID: S_TEXT/UTF8
Codec ID/Info: UTF-8 Plain Text
Duration: 1 h 42 min
Bit rate: 132 b/s
Count of elements: 1927
Stream size: 99.5 KiB (0%)
Title: Full
Language: Russian
Default: No
Forced: No
Text #2
ID: 7
Format: UTF-8
Codec ID: S_TEXT/UTF8
Codec ID/Info: UTF-8 Plain Text
Duration: 1 h 45 min
Bit rate: 83 b/s
Count of elements: 2019
Stream size: 64.0 KiB (0%)
Title: Full
Language: English
Default: No
Forced: No
Menu
00:00:00.000: en:Chapter 01
00:09:59.265: en:Chapter 02
00:20:45.703: en:Chapter 03
00:30:31.329: en:Chapter 04
00:40:32.555: en:Chapter 05
00:50:20.684: en:Chapter 06
01:00:52.357: en:Chapter 07
01:10:05.326: en:Chapter 08
01:19:56.333: en:Chapter 09
01:29:57.892: en:Chapter 10
01:39:37.555: en:Chapter 11

Орлов Владимир

Post 01-Nov-2019 02:22

[Quote]

--Операция «Колибри» / The Hummingbird Project--
Информация о фильме
Название: Операция «Колибри»
Оригинальное название: The Hummingbird Project
Год выхода: 2018
Жанр: Триллер
Режиссер: Ким Нгуйен--В ролях: Джесси Айзенберг, Александр Скарсгард, Сальма Хайек, Майкл Мэндо, Йохан Хелденберг, Аиша Исса, Марк Слэк, Сара Голдберг, Фрэнк Скорпион, Кваси Сонгуи--О фильме: Двоюродные братья Винсент и Антон живут в мире высокочастотного трейдинга, где каждая миллисекунда может стоить миллиарды. Они решаются реализовать давно задуманный проект. Казалось бы, все продумано до мелочей и шансы на успех велики как никогда. Однако на пути братьев встает их бывший босс Эва Торрес - беспринципный злой гений, ставшая их заклятым врагом. Ставки высоки, проигравший теряет всё или, наоборот, приобретает нечто большее, поистине бесценное.-- --Страна: Бельгия, Канада
Студия: Item 7, Belga Productions
Продолжительность: 01:50:37
Перевод(ы):
#1: Дублированный | iTunes
#2: Профессиональный многоголосый | СВ Студия
#3: Профессиональный многоголосый | HDRezka Studio--Качество: BDRip 1080p
Видео: MPEG-4 AVC, 1920x816, 11.5 Mbit/s, 23.976 fps
Аудио #01: 48 kHz, AC3, 5.1, 384 Kbps | iTunes | RUS |
Аудио #02: 48 kHz, AC3, 5.1, 384 Kbps | СВ Студия | RUS |
Аудио #03: 48 kHz, AC3, 2.0, 192 Kbps | HDRezka Studio | RUS |
Аудио #04: 48 kHz, AC3, 5.1, 640 Kbps | Оригинал | ENG |
Субтитры: Русские (Full), английские--

Скриншоты

         

Тех.данные видеофайла

General
Unique ID: 107733736026597318591741929703280570599 (0x510CC3486582F4AFFB7196CE5BF570E7)
Complete name: D:Video111The.Hummingbird.Project.2018.BDRip.1080p.seleZen.mkv
Format: Matroska
Format version: Version 4
File size: 10.1 GiB
Duration: 1 h 50 min
Overall bit rate: 13.1 Mb/s
Movie name: The Hummingbird Project 2018 from селезень
Encoded date: UTC 2019-10-31 19:04:29
Writing application: mkvmerge v22.0.0 ('At The End Of The World') 64-bit
Writing library: libebml v1.3.5 + libmatroska v1.4.8
Video
ID: 1
Format: AVC
Format/Info: Advanced Video Codec
Format profile: [email protected]
Format settings: CABAC / 5 Ref Frames
Format settings, CABAC: Yes
Format settings, Reference: 5 frames
Codec ID: V_MPEG4/ISO/AVC
Duration: 1 h 50 min
Bit rate: 11.5 Mb/s
Width: 1 920 pixels
Height: 816 pixels
Display aspect ratio: 2.35:1
Frame rate mode: Constant
Frame rate: 23.976 (24000/1001) FPS
Color space: YUV
Chroma subsampling: 4:2:0
Bit depth: 8 bits
Scan type: Progressive
Bits/(Pixel*Frame): 0.306
Stream size: 8.90 GiB (88%)
Title: playHD
Writing library: x264 core 146 r2538 121396c
Encoding settings: cabac=1 / ref=5 / deblock=1:-3:-3 / analyse=0x3:0x133 / me=umh / subme=10 / psy=1 / psy_rd=1.00:0.00 / mixed_ref=1 / me_range=32 / chroma_me=1 / trellis=2 / 8x8dct=1 / cqm=0 / deadzone=21,11 / fast_pskip=0 / chroma_qp_offset=-2 / threads=6 / lookahead_threads=1 / sliced_threads=0 / nr=0 / decimate=0 / interlaced=0 / bluray_compat=0 / constrained_intra=0 / bframes=9 / b_pyramid=2 / b_adapt=2 / b_bias=0 / direct=3 / weightb=1 / open_gop=0 / weightp=2 / keyint=250 / keyint_min=23 / scenecut=40 / intra_refresh=0 / rc=crf / mbtree=0 / crf=15.9 / qcomp=0.60 / qpmin=0 / qpmax=69 / qpstep=4 / ip_ratio=1.40 / pb_ratio=1.30 / aq=3:0.80
Language: English
Default: Yes
Forced: No
Audio #1
ID: 2
Format: AC-3
Format/Info: Audio Coding 3
Commercial name: Dolby Digital
Codec ID: A_AC3
Duration: 1 h 50 min
Bit rate mode: Constant
Bit rate: 384 kb/s
Channel(s): 6 channels
Channel layout: L R C LFE Ls Rs
Sampling rate: 48.0 kHz
Frame rate: 31.250 FPS (1536 SPF)
Bit depth: 16 bits
Compression mode: Lossy
Stream size: 304 MiB (3%)
Title: iTunes
Language: Russian
Service kind: Complete Main
Default: Yes
Forced: Yes
Audio #2
ID: 3
Format: AC-3
Format/Info: Audio Coding 3
Commercial name: Dolby Digital
Codec ID: A_AC3
Duration: 1 h 50 min
Bit rate mode: Constant
Bit rate: 384 kb/s
Channel(s): 6 channels
Channel layout: L R C LFE Ls Rs
Sampling rate: 48.0 kHz
Frame rate: 31.250 FPS (1536 SPF)
Bit depth: 16 bits
Compression mode: Lossy
Stream size: 304 MiB (3%)
Title: MVO [СВ Студия]
Language: Russian
Service kind: Complete Main
Default: No
Forced: No
Audio #3
ID: 4
Format: AC-3
Format/Info: Audio Coding 3
Commercial name: Dolby Digital
Codec ID: A_AC3
Duration: 1 h 50 min
Bit rate mode: Constant
Bit rate: 192 kb/s
Channel(s): 2 channels
Channel layout: L R
Sampling rate: 48.0 kHz
Frame rate: 31.250 FPS (1536 SPF)
Bit depth: 16 bits
Compression mode: Lossy
Stream size: 152 MiB (1%)
Title: MVO [HDRezka Studio]
Language: Russian
Service kind: Complete Main
Default: No
Forced: No
Audio #4
ID: 5
Format: AC-3
Format/Info: Audio Coding 3
Commercial name: Dolby Digital
Codec ID: A_AC3
Duration: 1 h 50 min
Bit rate mode: Constant
Bit rate: 640 kb/s
Channel(s): 6 channels
Channel layout: L R C LFE Ls Rs
Sampling rate: 48.0 kHz
Frame rate: 31.250 FPS (1536 SPF)
Bit depth: 16 bits
Compression mode: Lossy
Stream size: 506 MiB (5%)
Title: Original
Language: English
Service kind: Complete Main
Default: No
Forced: No
Text #1
ID: 6
Format: UTF-8
Codec ID: S_TEXT/UTF8
Codec ID/Info: UTF-8 Plain Text
Duration: 1 h 42 min
Bit rate: 132 b/s
Count of elements: 1927
Stream size: 99.5 KiB (0%)
Title: Full
Language: Russian
Default: No
Forced: No
Text #2
ID: 7
Format: UTF-8
Codec ID: S_TEXT/UTF8
Codec ID/Info: UTF-8 Plain Text
Duration: 1 h 45 min
Bit rate: 83 b/s
Count of elements: 2019
Stream size: 64.0 KiB (0%)
Title: Full
Language: English
Default: No
Forced: No
Menu
00:00:00.000: en:Chapter 01
00:09:59.265: en:Chapter 02
00:20:45.703: en:Chapter 03
00:30:31.329: en:Chapter 04
00:40:32.555: en:Chapter 05
00:50:20.684: en:Chapter 06
01:00:52.357: en:Chapter 07
01:10:05.326: en:Chapter 08
01:19:56.333: en:Chapter 09
01:29:57.892: en:Chapter 10
01:39:37.555: en:Chapter 11

Орлов Владимир

Post 01-Nov-2019 02:16

[Quote]

--Операция «Колибри» / The Hummingbird Project--
Информация о фильме
Название: Операция «Колибри»
Оригинальное название: The Hummingbird Project
Год выхода: 2018
Жанр: Триллер
Режиссер: Ким Нгуйен--В ролях: Джесси Айзенберг, Александр Скарсгард, Сальма Хайек, Майкл Мэндо, Йохан Хелденберг, Аиша Исса, Марк Слэк, Сара Голдберг, Фрэнк Скорпион, Кваси Сонгуи--О фильме: Двоюродные братья Винсент и Антон живут в мире высокочастотного трейдинга, где каждая миллисекунда может стоить миллиарды. Они решаются реализовать давно задуманный проект. Казалось бы, все продумано до мелочей и шансы на успех велики как никогда. Однако на пути братьев встает их бывший босс Эва Торрес - беспринципный злой гений, ставшая их заклятым врагом. Ставки высоки, проигравший теряет всё или, наоборот, приобретает нечто большее, поистине бесценное.-- --Страна: Бельгия, Канада
Студия: Item 7, Belga Productions
Продолжительность: 01:50:37
Перевод(ы):
#1: Дублированный | iTunes
#2: Профессиональный многоголосый | СВ Студия
#3: Профессиональный многоголосый | HDRezka Studio--Качество: BDRip 720p
Видео: MPEG-4 AVC, 1280x544, 7589 Kbit/s, 23.976 fps
Аудио #01: 48 kHz, AC3, 5.1, 384 Kbps | iTunes | RUS |
Аудио #02: 48 kHz, AC3, 5.1, 384 Kbps | СВ Студия | RUS |
Аудио #03: 48 kHz, AC3, 2.0, 192 Kbps | HDRezka Studio | RUS |
Аудио #04: 48 kHz, AC3, 5.1, 640 Kbps | Оригинал | ENG |
Субтитры: Русские (Full), английские--

Скриншоты

         

Тех.данные видеофайла

General
Unique ID: 109386205789981952925941146210347226521 (0x524B04551740D078AB75083FE1C79599)
Complete name: D:Video111The.Hummingbird.Project.2018.BDRip.720p.seleZen.mkv
Format: Matroska
Format version: Version 4
File size: 7.10 GiB
Duration: 1 h 50 min
Overall bit rate: 9 192 kb/s
Movie name: The Hummingbird Project 2018 from селезень
Encoded date: UTC 2019-10-31 19:23:12
Writing application: mkvmerge v22.0.0 ('At The End Of The World') 64-bit
Writing library: libebml v1.3.5 + libmatroska v1.4.8
Video
ID: 1
Format: AVC
Format/Info: Advanced Video Codec
Format profile: [email protected]
Format settings: CABAC / 12 Ref Frames
Format settings, CABAC: Yes
Format settings, Reference: 12 frames
Codec ID: V_MPEG4/ISO/AVC
Duration: 1 h 50 min
Bit rate: 7 589 kb/s
Width: 1 280 pixels
Height: 544 pixels
Display aspect ratio: 2.35:1
Frame rate mode: Constant
Frame rate: 23.976 (24000/1001) FPS
Color space: YUV
Chroma subsampling: 4:2:0
Bit depth: 8 bits
Scan type: Progressive
Bits/(Pixel*Frame): 0.455
Stream size: 5.86 GiB (83%)
Title: playHD
Writing library: x264 core 146 r2538 121396c
Encoding settings: cabac=1 / ref=12 / deblock=1:-3:-3 / analyse=0x3:0x133 / me=umh / subme=10 / psy=1 / psy_rd=1.00:0.00 / mixed_ref=1 / me_range=32 / chroma_me=1 / trellis=2 / 8x8dct=1 / cqm=0 / deadzone=21,11 / fast_pskip=0 / chroma_qp_offset=-2 / threads=6 / lookahead_threads=1 / sliced_threads=0 / nr=0 / decimate=0 / interlaced=0 / bluray_compat=0 / constrained_intra=0 / bframes=9 / b_pyramid=2 / b_adapt=2 / b_bias=0 / direct=3 / weightb=1 / open_gop=0 / weightp=2 / keyint=250 / keyint_min=23 / scenecut=40 / intra_refresh=0 / rc=crf / mbtree=0 / crf=13.5 / qcomp=0.60 / qpmin=0 / qpmax=69 / qpstep=4 / ip_ratio=1.40 / pb_ratio=1.30 / aq=3:0.80
Language: English
Default: Yes
Forced: No
Audio #1
ID: 2
Format: AC-3
Format/Info: Audio Coding 3
Commercial name: Dolby Digital
Codec ID: A_AC3
Duration: 1 h 50 min
Bit rate mode: Constant
Bit rate: 384 kb/s
Channel(s): 6 channels
Channel layout: L R C LFE Ls Rs
Sampling rate: 48.0 kHz
Frame rate: 31.250 FPS (1536 SPF)
Bit depth: 16 bits
Compression mode: Lossy
Stream size: 304 MiB (4%)
Title: iTunes
Language: Russian
Service kind: Complete Main
Default: Yes
Forced: Yes
Audio #2
ID: 3
Format: AC-3
Format/Info: Audio Coding 3
Commercial name: Dolby Digital
Codec ID: A_AC3
Duration: 1 h 50 min
Bit rate mode: Constant
Bit rate: 384 kb/s
Channel(s): 6 channels
Channel layout: L R C LFE Ls Rs
Sampling rate: 48.0 kHz
Frame rate: 31.250 FPS (1536 SPF)
Bit depth: 16 bits
Compression mode: Lossy
Stream size: 304 MiB (4%)
Title: MVO [СВ Студия]
Language: Russian
Service kind: Complete Main
Default: No
Forced: No
Audio #3
ID: 4
Format: AC-3
Format/Info: Audio Coding 3
Commercial name: Dolby Digital
Codec ID: A_AC3
Duration: 1 h 50 min
Bit rate mode: Constant
Bit rate: 192 kb/s
Channel(s): 2 channels
Channel layout: L R
Sampling rate: 48.0 kHz
Frame rate: 31.250 FPS (1536 SPF)
Bit depth: 16 bits
Compression mode: Lossy
Stream size: 152 MiB (2%)
Title: MVO [HDRezka Studio]
Language: Russian
Service kind: Complete Main
Default: No
Forced: No
Audio #4
ID: 5
Format: AC-3
Format/Info: Audio Coding 3
Commercial name: Dolby Digital
Codec ID: A_AC3
Duration: 1 h 50 min
Bit rate mode: Constant
Bit rate: 640 kb/s
Channel(s): 6 channels
Channel layout: L R C LFE Ls Rs
Sampling rate: 48.0 kHz
Frame rate: 31.250 FPS (1536 SPF)
Bit depth: 16 bits
Compression mode: Lossy
Stream size: 506 MiB (7%)
Title: Original
Language: English
Service kind: Complete Main
Default: No
Forced: No
Text #1
ID: 6
Format: UTF-8
Codec ID: S_TEXT/UTF8
Codec ID/Info: UTF-8 Plain Text
Duration: 1 h 42 min
Bit rate: 132 b/s
Count of elements: 1927
Stream size: 99.5 KiB (0%)
Title: Full
Language: Russian
Default: No
Forced: No
Text #2
ID: 7
Format: UTF-8
Codec ID: S_TEXT/UTF8
Codec ID/Info: UTF-8 Plain Text
Duration: 1 h 45 min
Bit rate: 83 b/s
Count of elements: 2019
Stream size: 64.0 KiB (0%)
Title: Full
Language: English
Default: No
Forced: No
Menu
00:00:00.000: en:Chapter 01
00:09:59.265: en:Chapter 02
00:20:45.703: en:Chapter 03
00:30:31.329: en:Chapter 04
00:40:32.555: en:Chapter 05
00:50:20.684: en:Chapter 06
01:00:52.357: en:Chapter 07
01:10:05.326: en:Chapter 08
01:19:56.333: en:Chapter 09
01:29:57.892: en:Chapter 10
01:39:37.555: en:Chapter 11

Орлов Владимир

Post 31-Oct-2019 23:19

[Quote]

--Операция «Колибри» / The Hummingbird Project--
Информация о фильме
Название: Операция «Колибри»
Оригинальное название: The Hummingbird Project
Год выпуска: 2018
Жанр: Триллер
Режиссер: Ким Нгуйен--В ролях: Джесси Айзенберг, Александр Скарсгард, Сальма Хайек, Майкл Мэндо, Йохан Хелденберг, Аиша Исса, Марк Слэк, Сара Голдберг, Фрэнк Скорпион, Кваси Сонгуи--О фильме:
Двоюродные братья Винсент и Антон живут в мире высокочастотного трейдинга, где каждая миллисекунда может стоить миллиарды. Они решаются реализовать давно задуманный проект. Казалось бы, все продумано до мелочей и шансы на успех велики как никогда. Однако на пути братьев встает их бывший босс Эва Торрес - беспринципный злой гений, ставшая их заклятым врагом. Ставки высоки, проигравший теряет всё или, наоборот, приобретает нечто большее, поистине бесценное.-- --Страна: Бельгия, Канада
Студия: Item 7, Belga Productions
Продолжительность: 01:50:37
Перевод: Дублированный iTunes--Файл
Формат: AVI
Качество: BDRip
Видео: 720x304 (2.37:1), 23.976 fps, XviD build 73 ~1497 kbps avg, 0.28 bit/pixel
Звук: 48 kHz, AC3 Dolby Digital, 3/2 (L,C,R,l,r) + LFE ch, ~384 kbps
Субтитры: Нет--

Скриншоты

               

Орлов Владимир

Post 31-Oct-2019 02:56

[Quote]

--Как отмыть миллион / Падение американской империи / La chute de l'empire américain (Дени Аркан) [2018, комедия, криминал, BDRip 1080p]--
Информация о фильме
Название: Как отмыть миллион / Падение американской империи
Оригинальное название: La chute de l'empire américain
Год выпуска: 2018
Жанр: Комедия, криминал
Режиссер: Дени Аркан--В ролях: Александр Ландри, Мари-Пьер Морен, Реми Жирар, Максим Рой, Эрик Брюно, Венсан Леклер, Жюльетт Госслен, Пьер Курци, Ян Инглэнд, Роз-Мари Перро, Клод Лего--О фильме:
Скромняга Пьер-Поль, обладатель ученой степени, вынужден подрабатывать курьером. В один прекрасный день, доставляя очередную посылку, он первым оказывается на месте преступления и становится обладателем миллионного куша. Искушение решить все житейские проблемы велико. И пока он размышляет вернуть или присвоить огромную сумму наличных, его начинают преследовать бандиты, а полиция не спускает с него глаз. Спасаясь и от тех, и от других, интеллектуал Пьер-Поль встречает роковую красотку...-- --Страна: Канада
Студия: Cinémaginaire Inc.
Продолжительность: 02:07:41
Перевод: Профессиональный (многоголосый, закадровый) iTunes--Файл
Качество: BDRip 1080p
Видео: MPEG-4 AVC, 1920x804, 10.2 Mbit/s, 23.976 fps
Аудио #01: 48 kHz, AC3, 5.1, 384 Kbps | iTunes | RUS |
Аудио #02: 48 kHz, AC3, 5.1, 640 Kbps | Оригинал | FRE |
Субтитры: Нет

Скриншоты

         

Тех.данные видеофайла

General
Unique ID : 75722374080120907350063118463766691583 (0x38F79948FF4BEAEB0D0AC61C9F2CFEFF)
Complete name : D:Video111La.Chute.De.L.Empire.Americain.2018.BDRip.1080p.seleZen.mkv
Format : Matroska
Format version : Version 4
File size : 10.0 GiB
Duration : 2 h 7 min
Overall bit rate : 11.2 Mb/s
Movie name : La chute de l'empire américain 2018 from селезень
Encoded date : UTC 2019-10-30 22:40:53
Writing application : mkvmerge v22.0.0 ('At The End Of The World') 64-bit
Writing library : libebml v1.3.5 + libmatroska v1.4.8
Video
ID : 1
Format : AVC
Format/Info : Advanced Video Codec
Format profile : [email protected]
Format settings : CABAC / 5 Ref Frames
Format settings, CABAC : Yes
Format settings, Reference : 5 frames
Codec ID : V_MPEG4/ISO/AVC
Duration : 2 h 7 min
Bit rate : 10.2 Mb/s
Width : 1 920 pixels
Height : 804 pixels
Display aspect ratio : 2.40:1
Frame rate mode : Constant
Frame rate : 23.976 (24000/1001) FPS
Color space : YUV
Chroma subsampling : 4:2:0
Bit depth : 8 bits
Scan type : Progressive
Bits/(Pixel*Frame) : 0.276
Stream size : 9.11 GiB (91%)
Title : Encoded by seleZen
Writing library : x264 core 148 r2705kMod 3f5ed56
Encoding settings : cabac=1 / ref=5 / deblock=1:-2:-2 / analyse=0x3:0x113 / me=umh / subme=11 / psy=1 / fade_compensate=0.00 / psy_rd=1.00:0.00 / mixed_ref=1 / me_range=32 / chroma_me=1 / trellis=2 / 8x8dct=1 / cqm=0 / deadzone=21,11 / fast_pskip=0 / chroma_qp_offset=-2 / threads=24 / lookahead_threads=6 / sliced_threads=0 / nr=0 / decimate=0 / interlaced=0 / bluray_compat=0 / constrained_intra=0 / fgo=0 / bframes=10 / b_pyramid=2 / b_adapt=2 / b_bias=0 / direct=3 / weightb=1 / open_gop=0 / weightp=2 / keyint=240 / keyint_min=23 / scenecut=40 / intra_refresh=0 / rc_lookahead=50 / rc=2pass / mbtree=0 / bitrate=10217 / ratetol=1.0 / qcomp=0.60 / qpmin=0 / qpmax=51 / qpstep=4 / cplxblur=20.0 / qblur=0.5 / vbv_maxrate=50000 / vbv_bufsize=62500 / nal_hrd=none / filler=0 / ip_ratio=1.40 / pb_ratio=1.30 / aq=3:0.80
Language : English
Default : Yes
Forced : No
Audio #1
ID : 2
Format : AC-3
Format/Info : Audio Coding 3
Commercial name : Dolby Digital
Codec ID : A_AC3
Duration : 2 h 7 min
Bit rate mode : Constant
Bit rate : 384 kb/s
Channel(s) : 6 channels
Channel layout : L R C LFE Ls Rs
Sampling rate : 48.0 kHz
Frame rate : 31.250 FPS (1536 SPF)
Bit depth : 16 bits
Compression mode : Lossy
Stream size : 351 MiB (3%)
Title : iTunes
Language : Russian
Service kind : Complete Main
Default : Yes
Forced : Yes
Audio #2
ID : 3
Format : AC-3
Format/Info : Audio Coding 3
Commercial name : Dolby Digital
Codec ID : A_AC3
Duration : 2 h 7 min
Bit rate mode : Constant
Bit rate : 640 kb/s
Channel(s) : 6 channels
Channel layout : L R C LFE Ls Rs
Sampling rate : 48.0 kHz
Frame rate : 31.250 FPS (1536 SPF)
Bit depth : 16 bits
Compression mode : Lossy
Stream size : 585 MiB (6%)
Title : Original
Language : French
Service kind : Complete Main
Default : No
Forced : No
Menu
00:00:00.000 : fr:00:00:00.000
00:05:55.355 : fr:00:05:55.355
00:13:12.458 : fr:00:13:12.458
00:19:00.056 : fr:00:19:00.056
00:23:17.479 : fr:00:23:17.479
00:28:31.418 : fr:00:28:31.418
00:37:02.220 : fr:00:37:02.220
00:47:08.367 : fr:00:47:08.367
00:52:44.078 : fr:00:52:44.078
00:59:20.390 : fr:00:59:20.390
01:05:57.954 : fr:01:05:57.954
01:13:09.885 : fr:01:13:09.885
01:21:15.370 : fr:01:21:15.370
01:29:58.059 : fr:01:29:58.059
01:34:21.906 : fr:01:34:21.906
01:39:28.379 : fr:01:39:28.379
01:44:17.334 : fr:01:44:17.334
01:50:55.440 : fr:01:50:55.440
01:56:52.505 : fr:01:56:52.505
02:01:48.593 : fr:02:01:48.593

Орлов Владимир

Post 30-Oct-2019 19:34

[Quote]

--Как отмыть миллион / Падение американской империи / La chute de l'empire américain (Дени Аркан) [2018, комедия, криминал, BDRip]--
Информация о фильме
Название: Как отмыть миллион / Падение американской империи
Оригинальное название: La chute de l'empire américain
Год выпуска: 2018
Жанр: Комедия, криминал
Режиссер: Дени Аркан--В ролях: Александр Ландри, Мари-Пьер Морен, Реми Жирар, Максим Рой, Эрик Брюно, Венсан Леклер, Жюльетт Госслен, Пьер Курци, Ян Инглэнд, Роз-Мари Перро, Клод Лего--О фильме:
Скромняга Пьер-Поль, обладатель ученой степени, вынужден подрабатывать курьером. В один прекрасный день, доставляя очередную посылку, он первым оказывается на месте преступления и становится обладателем миллионного куша. Искушение решить все житейские проблемы велико. И пока он размышляет вернуть или присвоить огромную сумму наличных, его начинают преследовать бандиты, а полиция не спускает с него глаз. Спасаясь и от тех, и от других, интеллектуал Пьер-Поль встречает роковую красотку...-- --Страна: Канада
Студия: Cinémaginaire Inc.
Продолжительность: 02:07:41
Перевод: Профессиональный (многоголосый, закадровый) iTunes--Файл
Формат: AVI
Качество: BDRip
Видео: 720x304 (2.37:1), 23.976 fps, XviD build 73 ~1435 kbps avg, 0.27 bit/pixel
Звук: 48 kHz, AC3 Dolby Digital, 2/0 (L,R) ch, ~192 kbps
Субтитры: Нет

Скриншоты

           

Clavik

Post 15-Oct-2019 18:46

[Quote]

Во время грозы / Durante la tormenta / Mirage (2018) BDRip [H.264]- Производство: Испания / Atresmedia Cine, Colosé Producciones, Mirage Studio, Think Studio
Жанр: Триллер, драма, фэнтези, детектив
Режиссер: Ориол Паоло
Актеры: Адриана Угарте, Чино Дарин, Хавьер Гутьеррес, Альваро Морте, Нора Навас, Микель Фернандес, Клара Сегура, Мима Риера, Айна Клотет, Альберт Перес
Описание:
Пространственный сбой во временных пластах, позволяет Вере спасти жизнь мальчика, 25 годами ранее жившем в доме в котором они поселились. Но эти действия приводит к потере дочери, которую она пытается вернуть, используя тот самый ключевой момент прошлого, из за которого все началось…

Продолжительность: 02:08:58
Качество видео: BDRip
Перевод: Многоголосый профессиональный
Субтитры: Русские
Видео: AVC/H.264, 960x400, ~2 471 kbps
Аудио: AC3, 2 ch, 192 kbps | Русский - MVO /HDrezka Studio/

MediaInfo:

Общее
Уникальный идентификатор : 220425262077788709344814159940896513590 (0xA5D45C7C6B92ED26BCBDF16E6EFD5E36)
Полное имя : K:\ФАНТАСТИКА ФЕНТЕЗИ\Во время грозы\Во время грозы. 2018.mkv
Формат : Matroska
Версия формата : Version 4 / Version 2
Размер файла : 2,40 Гбайт
Продолжительность : 2 ч. 8 м.
Общий поток : 2664 Кбит/сек
Название фильма : Release for Topmost
Дата кодирования : UTC 2019-10-08 18:37:50
Программа кодирования : mkvmerge v6.2.0 ('Promised Land') built on Apr 28 2013 12:22:01
Библиотека кодирования : libebml v1.3.0 + libmatroska v1.4.0
Attachment : Yes
Видео
Идентификатор : 1
Формат : AVC
Формат/Информация : Advanced Video Codec
Профиль формата : [url=mailto:[email protected]][email protected][/url]
Параметр CABAC формата : Да
Параметр ReFrames формата : 12 кадров
Идентификатор кодека : V_MPEG4/ISO/AVC
Продолжительность : 2 ч. 8 м.
Битрейт : 2471 Кбит/сек
Ширина : 960 пикселей
Высота : 400 пикселей
Соотношение сторон : 2,40:1
Режим частоты кадров : Постоянный
Частота кадров : 23,976 кадра/сек
Цветовое пространство : YUV
Субдискретизация насыщенности : 4:2:0
Битовая глубина : 8 бит
Тип развёртки : Прогрессивная
Бит/(Пиксели*Кадры) : 0.268
Размер потока : 2,18 Гбайт (91%)
Заголовок : Во время грозы. 2018 (Release for Topmost)
Библиотека кодирования : x264 core 146 r2538 121396c
Настройки программы : cabac=1 / ref=12 / deblock=1:-3:-3 / analyse=0x3:0x113 / me=umh / subme=11 / psy=1 / psy_rd=1.00:0.15 / mixed_ref=1 / me_range=32 / chroma_me=1 / trellis=2 / 8x8dct=1 / cqm=0 / deadzone=21,11 / fast_pskip=0 / chroma_qp_offset=-3 / threads=12 / lookahead_threads=2 / sliced_threads=0 / nr=0 / decimate=0 / interlaced=0 / bluray_compat=0 / constrained_intra=0 / bframes=8 / b_pyramid=2 / b_adapt=2 / b_bias=0 / direct=1 / weightb=1 / open_gop=0 / weightp=2 / keyint=240 / keyint_min=23 / scenecut=40 / intra_refresh=0 / rc_lookahead=40 / rc=2pass / mbtree=0 / bitrate=2471 / ratetol=1.0 / qcomp=0.60 / qpmin=0 / qpmax=69 / qpstep=4 / cplxblur=20.0 / qblur=0.5 / vbv_maxrate=14000 / vbv_bufsize=14000 / nal_hrd=none / filler=0 / ip_ratio=1.40 / pb_ratio=1.30 / aq=1:0.90
Язык : Spanish
Default : Да
Forced : Нет
Аудио
Идентификатор : 2
Формат : AC-3
Формат/Информация : Audio Coding 3
Расширение режима : CM (complete main)
Параметр Endianness формата : Big
Идентификатор кодека : A_AC3
Продолжительность : 2 ч. 8 м.
Вид битрейта : Постоянный
Битрейт : 192 Кбит/сек
Каналы : 2 канала
Расположение каналов : Front: L R
Частота : 48,0 КГц
Битовая глубина : 16 бит
Метод сжатия : С потерями
Размер потока : 177 Мбайт (7%)
Заголовок : Russian MVO HDrezka Studio
Язык : Russian
Default : Да
Forced : Нет
Текст
Идентификатор : 3
Формат : UTF-8
Идентификатор кодека : S_TEXT/UTF8
Идентификатор кодека/Информация : UTF-8 Plain Text
Заголовок : Russian full
Язык : Russian
Default : Нет
Forced : Нет
Меню
00:00:00.000 : en:Chapter 01
00:08:02.231 : en:Chapter 02
00:16:47.006 : en:Chapter 03
00:24:41.271 : en:Chapter 04
00:32:52.887 : en:Chapter 05
00:38:51.537 : en:Chapter 06
00:48:31.116 : en:Chapter 07
00:56:32.013 : en:Chapter 08
01:03:06.324 : en:Chapter 09
01:10:31.769 : en:Chapter 10
01:17:45.786 : en:Chapter 11
01:26:27.473 : en:Chapter 12
01:35:39.692 : en:Chapter 13
01:43:52.643 : en:Chapter 14
01:52:36.541 : en:Chapter 15
02:02:20.207 : en:Chapter 16
Скриншоты:
       

Clavik

Post 13-Oct-2019 00:25

[Quote]

На моей коже / Sulla mia pelle / On My Skin (2018) WEB-DL [H.264/1080p-LQ] - Производство: Италия, Cinemaundici,Lucky Red,Ministero dei Beni e delle Attività Culturali e del Turismo
Жанр: Драма, биография
Режиссер: Алессио Кремонини
Актеры: Алессандро Борги, Массимилиано Тортора, Мильвия Марильяно, Жазмин Тринка, Elisa Casavecchia, Aurora Casavecchia, Мауро Конте, Вальтер Нестола, Давид Петруччи, Paolo D Bovani
Описание:
31-летний наркоман Стефано Кукки оказывается арестованным карабинерами за хранение и распространение наркотиков. После задержания он подвергается избиению служителями закона и попадает в больницу. Постепенно здоровье Кукки ухудшается, и через неделю его организм не выдерживает. За одну неделю жизнь его семьи меняется навсегда.

Релиз от: mike7025
Продолжительность: 01:40:18
Качество видео: WEB-DL
Перевод: Многоголосый профессиональный
Субтитры: Русские (forced, full), английские (forced, full), испанские, французские и другие
Видео: AVC/H.264, 1920x1080, ~4220 Кbps
Аудио 1: AC3, 2 ch, 192 Kbps - Русский MVO (MVO, HDRezka studio)
Аудио 2: Е-AC3, 6 ch, 640 Kbps - Английский

MediaInfo:

General
Unique ID : 325857119113829207971953621803957906543 (0xF525CC5F4F3E259724FFF477DBA66C6F)
Complete name : G:\On.My.Skin.2018.NF.WEB-DL.1080p.mkv
Format : Matroska
Format version : Version 4 / Version 2
File size : 3.54 GiB
Duration : 1 h 40 min
Overall bit rate mode : Variable
Overall bit rate : 5 046 kb/s
Encoded date : UTC 2019-07-25 11:36:53
Writing application : mkvmerge v20.0.0 ('I Am The Sun') 64-bit
Writing library : libebml v1.3.5 + libmatroska v1.4.8
Video
ID : 1
Format : AVC
Format/Info : Advanced Video Codec
Format profile : [email protected]
Format settings : CABAC / 3 Ref Frames
Format settings, CABAC : Yes
Format settings, RefFrames : 3 frames
Codec ID : V_MPEG4/ISO/AVC
Duration : 1 h 40 min
Bit rate mode : Variable
Bit rate : 4 220 kb/s
Maximum bit rate : 6 330 kb/s
Width : 1 920 pixels
Height : 1 080 pixels
Display aspect ratio : 16:9
Frame rate mode : Constant
Frame rate : 24.000 FPS
Color space : YUV
Chroma subsampling : 4:2:0
Bit depth : 8 bits
Scan type : Progressive
Bits/(Pixel*Frame) : 0.085
Stream size : 2.95 GiB (83%)
Writing library : x264 core 148 r2715 7e75228
Encoding settings : cabac=1 / ref=3 / deblock=1:0:0 / analyse=0x1:0x111 / me=umh / subme=10 / psy=1 / psy_rd=1.00:0.00 / mixed_ref=1 / me_range=24 / chroma_me=1 / trellis=2 / 8x8dct=0 / cqm=0 / deadzone=21,11 / fast_pskip=1 / chroma_qp_offset=-2 / threads=8 / lookahead_threads=1 / sliced_threads=0 / nr=0 / decimate=1 / interlaced=0 / bluray_compat=0 / stitchable=1 / constrained_intra=0 / bframes=2 / b_pyramid=0 / b_adapt=2 / b_bias=0 / direct=3 / weightb=1 / open_gop=0 / weightp=2 / keyint=48 / keyint_min=25 / scenecut=0 / intra_refresh=0 / rc_lookahead=48 / rc=2pass / mbtree=1 / bitrate=4220 / ratetol=1.0 / qcomp=0.50 / qpmin=6 / qpmax=51 / qpstep=4 / cplxblur=20.0 / qblur=0.5 / vbv_maxrate=6330 / vbv_bufsize=8440 / nal_hrd=vbr / filler=0 / ip_ratio=1.40 / aq=1:1.00
Language : English
Default : Yes
Forced : No
Audio #1
ID : 2
Format : AC-3
Format/Info : Audio Coding 3
Codec ID : A_AC3
Duration : 1 h 40 min
Bit rate mode : Constant
Bit rate : 192 kb/s
Channel(s) : 2 channels
Channel positions : Front: L R
Sampling rate : 48.0 kHz
Frame rate : 31.250 FPS (1536 SPF)
Bit depth : 16 bits
Compression mode : Lossy
Stream size : 138 MiB (4%)
Title : MVO HDRezka Studio
Language : Russian
Service kind : Complete Main
Default : Yes
Forced : No
Audio #2
ID : 3
Format : E-AC-3
Format/Info : Enhanced Audio Coding 3
Codec ID : A_EAC3
Duration : 1 h 40 min
Bit rate mode : Constant
Bit rate : 640 kb/s
Channel(s) : 6 channels
Channel positions : Front: L C R, Side: L R, LFE
Sampling rate : 48.0 kHz
Frame rate : 187.500 FPS (256 SPF)
Compression mode : Lossy
Stream size : 459 MiB (13%)
Language : English
Service kind : Complete Main
Default : No
Forced : No
Text #1
ID : 4
Format : UTF-8
Codec ID : S_TEXT/UTF8
Codec ID/Info : UTF-8 Plain Text
Duration : 1 h 30 min
Bit rate : 1 b/s
Count of elements : 21
Stream size : 858 Bytes (0%)
Title : forced
Language : Russian
Default : Yes
Forced : Yes
Text #2
ID : 5
Format : UTF-8
Codec ID : S_TEXT/UTF8
Codec ID/Info : UTF-8 Plain Text
Duration : 1 h 36 min
Bit rate : 74 b/s
Count of elements : 1056
Stream size : 52.7 KiB (0%)
Language : Russian
Default : No
Forced : No
Text #3
ID : 6
Format : UTF-8
Codec ID : S_TEXT/UTF8
Codec ID/Info : UTF-8 Plain Text
Duration : 1 h 36 min
Bit rate : 1 b/s
Count of elements : 44
Stream size : 1.29 KiB (0%)
Title : Forced
Language : English
Default : No
Forced : No
Text #4
ID : 7
Format : UTF-8
Codec ID : S_TEXT/UTF8
Codec ID/Info : UTF-8 Plain Text
Duration : 1 h 36 min
Bit rate : 49 b/s
Count of elements : 1019
Stream size : 35.2 KiB (0%)
Language : English
Default : No
Forced : No
Text #5
ID : 8
Format : UTF-8
Codec ID : S_TEXT/UTF8
Codec ID/Info : UTF-8 Plain Text
Duration : 1 h 36 min
Bit rate : 51 b/s
Count of elements : 1019
Stream size : 36.9 KiB (0%)
Title : French
Language : French
Default : No
Forced : No
Text #6
ID : 9
Format : UTF-8
Codec ID : S_TEXT/UTF8
Codec ID/Info : UTF-8 Plain Text
Duration : 1 h 36 min
Bit rate : 47 b/s
Count of elements : 1018
Stream size : 33.6 KiB (0%)
Title : German
Language : German
Default : No
Forced : No
Text #7
ID : 10
Format : UTF-8
Codec ID : S_TEXT/UTF8
Codec ID/Info : UTF-8 Plain Text
Duration : 1 h 36 min
Bit rate : 49 b/s
Count of elements : 1020
Stream size : 34.9 KiB (0%)
Title : European Spanish
Language : Spanish
Default : No
Forced : No
Text #8
ID : 11
Format : UTF-8
Codec ID : S_TEXT/UTF8
Codec ID/Info : UTF-8 Plain Text
Duration : 1 h 36 min
Bit rate : 48 b/s
Count of elements : 1018
Stream size : 34.1 KiB (0%)
Title : Spanish
Language : Spanish
Default : No
Forced : No
Text #9
ID : 12
Format : UTF-8
Codec ID : S_TEXT/UTF8
Codec ID/Info : UTF-8 Plain Text
Duration : 1 h 36 min
Bit rate : 59 b/s
Count of elements : 1157
Stream size : 42.3 KiB (0%)
Title : Italian
Language : Italian
Default : No
Forced : No
Text #10
ID : 13
Format : UTF-8
Codec ID : S_TEXT/UTF8
Codec ID/Info : UTF-8 Plain Text
Duration : 1 h 36 min
Bit rate : 43 b/s
Count of elements : 1018
Stream size : 30.7 KiB (0%)
Title : Dutch
Language : Dutch
Default : No
Forced : No
Text #11
ID : 14
Format : UTF-8
Codec ID : S_TEXT/UTF8
Codec ID/Info : UTF-8 Plain Text
Duration : 1 h 36 min
Bit rate : 47 b/s
Count of elements : 1018
Stream size : 33.6 KiB (0%)
Title : Norwegian
Language : Norwegian
Default : No
Forced : No
Text #12
ID : 15
Format : UTF-8
Codec ID : S_TEXT/UTF8
Codec ID/Info : UTF-8 Plain Text
Duration : 1 h 36 min
Bit rate : 49 b/s
Count of elements : 1018
Stream size : 35.0 KiB (0%)
Title : Danish
Language : Danish
Default : No
Forced : No
Text #13
ID : 16
Format : UTF-8
Codec ID : S_TEXT/UTF8
Codec ID/Info : UTF-8 Plain Text
Duration : 1 h 36 min
Bit rate : 47 b/s
Count of elements : 1020
Stream size : 33.8 KiB (0%)
Title : Portuguese
Language : Portuguese
Default : No
Forced : No
Text #14
ID : 17
Format : UTF-8
Codec ID : S_TEXT/UTF8
Codec ID/Info : UTF-8 Plain Text
Duration : 1 h 36 min
Bit rate : 47 b/s
Count of elements : 1018
Stream size : 33.5 KiB (0%)
Title : Brazilian Portuguese
Language : Portuguese
Default : No
Forced : No
Text #15
ID : 18
Format : UTF-8
Codec ID : S_TEXT/UTF8
Codec ID/Info : UTF-8 Plain Text
Duration : 1 h 36 min
Bit rate : 42 b/s
Count of elements : 1018
Stream size : 29.8 KiB (0%)
Title : Polish
Language : Polish
Default : No
Forced : No
Text #16
ID : 19
Format : UTF-8
Codec ID : S_TEXT/UTF8
Codec ID/Info : UTF-8 Plain Text
Duration : 1 h 36 min
Bit rate : 85 b/s
Count of elements : 1019
Stream size : 60.5 KiB (0%)
Title : Greek
Language : Greek
Default : No
Forced : No
Text #17
ID : 20
Format : UTF-8
Codec ID : S_TEXT/UTF8
Codec ID/Info : UTF-8 Plain Text
Duration : 1 h 36 min
Bit rate : 50 b/s
Count of elements : 1018
Stream size : 35.6 KiB (0%)
Title : Swedish
Language : Swedish
Default : No
Forced : No
Text #18
ID : 21
Format : UTF-8
Codec ID : S_TEXT/UTF8
Codec ID/Info : UTF-8 Plain Text
Duration : 1 h 36 min
Bit rate : 48 b/s
Count of elements : 1016
Stream size : 34.5 KiB (0%)
Title : Finnish
Language : Finnish
Default : No
Forced : No
Text #19
ID : 22
Format : UTF-8
Codec ID : S_TEXT/UTF8
Codec ID/Info : UTF-8 Plain Text
Duration : 1 h 36 min
Bit rate : 48 b/s
Count of elements : 1016
Stream size : 34.6 KiB (0%)
Title : Turkish
Language : Turkish
Default : No
Forced : No
Скриншоты:
       

Clavik

Post 06-Oct-2019 20:22

[Quote]

Мистериум. Охотники на фазанов / Fasandraeberne (2014) BDRip [H.264/720p] - Производство: Дания, Германия, Швеция / Film i Väst, Zentropa Entertainments
Жанр: триллер, детектив, криминал
Режиссер: Миккель Нёргор
Актеры: Николай Ли Каас, Фарес Фарес, Йохан Филип Асбек, Давид Денсик, Даница Чурчич, Сара-Софи Бусснина, Джохэнн Луиз Шмидт, Марко Ильсё, Беате Билле, Питер Кристофферсен
Описание:
В 1994 году двое подростков-близнецов были найдены зверски убитыми в летнем загородном доме. Ряд фактов указывал на причастность к делу группы студентов, но расследование было прекращено, после того как местный отшельник признал себя виновным.
20 лет спустя это дело попадает на стол Карла Мёрка, который начинает подозревать, что в нём что-то не сходится.

Возраст: 18+ (зрителям, достигшим 18 лет. запрещено для детей)
Продолжительность: 01:59:40
Качество видео: BDRip
Перевод: Многоголосый профессиональный, одноголосый авторский
Субтитры: русские (полные), английские (полные), датские (полные)
Видео: AVC/H.264, 1280х544, ~3,5 Mbps
Аудио #1: AC3, 2 ch, 192 kbps - русский (MVO, Позитив)
Аудио #2: AC3, 6 ch, 640 kbps - русский (AVO, А. Алексеев)
Аудио #3: DTS, 6 ch, 768 kbps - датский

MediaInfo:

x264 info: frame I:1446  Avg QP:11.02  size:104758
x264 info: frame P:36345 Avg QP:12.81 size: 37636
x264 info: frame B:134563 Avg QP:14.49 size: 11954
Unique ID : 142026644364059275218286438753802280705 (0x6AD95633D1099125B7D66F9D16525F01)
Complete name : D:\Temp\NNM\Мистериум. Охотники на фазанов.2014.720p.mkv
Format : Matroska
Format version : Version 4 / Version 2
File size : 4.26 GiB
Duration : 1h 59mn
Overall bit rate : 5 095 Kbps
Movie name : Fasandraeberne (2014)
Writing library : Lavf57.71.100
Video
ID : 1
Format : AVC
Format/Info : Advanced Video Codec
Format profile : [url=mailto:[email protected]][email protected][/url]
Format settings, CABAC : Yes
Format settings, ReFrames : 12 frames
Codec ID : V_MPEG4/ISO/AVC
Duration : 1h 59mn
Bit rate : 3 500 Kbps
Width : 1 280 pixels
Height : 544 pixels
Display aspect ratio : 2.35:1
Frame rate mode : Constant
Frame rate : 24.000 fps
Color space : YUV
Chroma subsampling : 4:2:0
Bit depth : 8 bits
Scan type : Progressive
Bits/(Pixel*Frame) : 0.209
Stream size : 2.84 GiB (67%)
Writing library : x264 core 157 r2935 545de2f
Encoding settings : cabac=1 / ref=12 / deblock=1:-3:-3 / analyse=0x3:0x133 / me=umh / subme=9 / psy=1 / psy_rd=1.05:0.10 / mixed_ref=1 / me_range=24 / chroma_me=1 / trellis=2 / 8x8dct=1 / cqm=0 / deadzone=21,11 / fast_pskip=0 / chroma_qp_offset=-3 / threads=5 / lookahead_threads=1 / sliced_threads=0 / nr=0 / decimate=0 / interlaced=0 / bluray_compat=0 / constrained_intra=0 / bframes=9 / b_pyramid=2 / b_adapt=2 / b_bias=0 / direct=1 / weightb=1 / open_gop=0 / weightp=2 / keyint=240 / keyint_min=24 / scenecut=40 / intra_refresh=0 / rc=2pass / mbtree=0 / bitrate=3500 / ratetol=1.0 / qcomp=0.70 / qpmin=3 / qpmax=69 / qpstep=4 / cplxblur=20.0 / qblur=0.5 / ip_ratio=1.40 / pb_ratio=1.30 / aq=2:1.00
Language : Danish
Default : Yes
Forced : No
Audio #1
ID : 2
Format : AC-3
Format/Info : Audio Coding 3
Mode extension : CM (complete main)
Format settings, Endianness : Big
Codec ID : A_AC3
Duration : 1h 59mn
Bit rate mode : Constant
Bit rate : 192 Kbps
Channel(s) : 2 channels
Channel positions : Front: L R
Sampling rate : 48.0 KHz
Bit depth : 16 bits
Compression mode : Lossy
Stream size : 164 MiB (4%)
Title : MVO
Language : Russian
Default : Yes
Forced : No
Audio #2
ID : 3
Format : AC-3
Format/Info : Audio Coding 3
Mode extension : CM (complete main)
Format settings, Endianness : Big
Codec ID : A_AC3
Duration : 1h 59mn
Bit rate mode : Constant
Bit rate : 640 Kbps
Channel(s) : 6 channels
Channel positions : Front: L C R, Side: L R, LFE
Sampling rate : 48.0 KHz
Bit depth : 16 bits
Compression mode : Lossy
Stream size : 548 MiB (13%)
Title : AVO
Language : Russian
Default : No
Forced : No
Audio #3
ID : 4
Format : DTS
Format/Info : Digital Theater Systems
Mode : 16
Format settings, Endianness : Big
Codec ID : A_DTS
Duration : 1h 59mn
Bit rate mode : Constant
Bit rate : 768 Kbps
Channel(s) : 6 channels
Channel positions : Front: L C R, Side: L R, LFE
Sampling rate : 48.0 KHz
Bit depth : 16 bits
Compression mode : Lossy
Stream size : 657 MiB (15%)
Title : original
Language : Danish
Default : No
Forced : No
Text #1
ID : 5
Format : UTF-8
Codec ID : S_TEXT/UTF8
Codec ID/Info : UTF-8 Plain Text
Title : full
Language : Russian
Default : Yes
Forced : No
Text #2
ID : 6
Format : UTF-8
Codec ID : S_TEXT/UTF8
Codec ID/Info : UTF-8 Plain Text
Title : full
Language : English
Default : No
Forced : No
Text #3
ID : 7
Format : UTF-8
Codec ID : S_TEXT/UTF8
Codec ID/Info : UTF-8 Plain Text
Title : full
Language : Danish
Default : No
Forced : No
Menu
00:00:00.000 : :Chapter 01
00:10:00.000 : :Chapter 02
00:19:59.625 : :Chapter 03
00:29:59.790 : :Chapter 04
00:39:59.625 : :Chapter 05
00:49:59.791 : :Chapter 06
00:59:59.583 : :Chapter 07
01:09:59.916 : :Chapter 08
01:20:00.000 : :Chapter 09
01:30:00.000 : :Chapter 10
01:39:59.541 : :Chapter 11
01:49:59.791 : :Chapter 12
01:59:40.416 : :Chapter 13
Скриншоты:
       

kilmister777

Post 17-Sep-2019 11:11

[Quote]

Безумные родители / Mom and Dad- Год выпуска: 2017
Страна: США
Жанр: ужасы, триллер, комедия
Продолжительность: 01:23:05
Перевод: Профессиональный (многоголосый закадровый) iTunes- -Режиссер: Брайан Тейлор-В ролях: Николас Кейдж, Сэлма Блэр, Лэнс Хенриксен, Энн Уинтерс, Рэйчел Мелвин, Джозеф Д. Рейтман, Лорена Диас, Оливия Крочиккия, Закари Артур, Саманта Лемоул-Описание: Со стороны семья Райан кажется идеальной — муж хорошо зарабатывает, красавица-жена, двое детей. Но проблемы есть в любой семье. Дочь-старшеклассница перестала общаться с матерью и таскает у неё деньги из кошелька. Младший брат постоянно задирает сестру, родители тоже с трудом находят общий язык. Внезапно по телевизору начинают передавать странный сигнал, и все услышавшие его родители нападают на собственных детей. Самое время для супругов Райан начать работать в команде и выяснить отношения всем семейством.-Качество: BDRip
Формат: AVI
Видео кодек: XviD
Аудио кодек: AC3
Видео: 720x304 (2.37:1), 23.976 fps, XviD build 73 ~2122 kbps avg, 0.40 bit/pixel
Аудио: 48 kHz, AC3 Dolby Digital, 3/2 (L,C,R,l,r) + LFE ch, ~384 kbps avg-

Скриншоты

       

Орлов Владимир

Post 15-Sep-2019 00:23

[Quote]

--Голоса с того света / Morto Não Fala (Деннисон Рамалью) [2018, Ужасы, триллер, мистика, WEB-DLRip] [DUB] [iTunes]-- Информация о фильме
Название: Голоса с того света
Оригинальное название: Morto Não Fala
Год выпуска: 2018
Жанр: Ужасы, триллер, мистика
Режиссер: Деннисон Рамалью--В ролях: Даниэль де Оливейра, Фабиула Нассименту, Бьянка Компрату, Маркос Клигман, Анналара Пратес, Марку Рикка--О фильме:
Стенио работает по ночам в морге большого криминального города, поэтому постоянно видит тела жертв бандитских разборок в самых разных невообразимых состояниях. Другой бы на его месте отчаялся, но только не Стенио — мёртвые разговаривают с ним. В прямом смысле. У мужчины оккультный дар с рождения, который он может использовать в своих интересах — мертвецы доверяют ему свои секреты. Однажды от очередного трупа Стенио узнаёт, что жена изменяет ему с соседом.-- --Страна: Бразилия
Студия: Canal Brasil, Casa de Cinema de Porto Alegre, Globo Filmes
Продолжительность: 01:50:19
Перевод: Дублированный | iTunes--Файл
Формат: AVI
Качество: WEB-DLRip
Источник: GOLOSA_S_TOGO_SVETA_2018_WEB-DL_1080p-BLUEBIRD
Видео: 720x304 (2.37:1), 24 fps, XviD build 73 ~1503 kbps avg, 0.29 bit/pixel
Звук: 48 kHz, AC3 Dolby Digital, 3/2 (L,C,R,l,r) + LFE ch, ~384 kbps
Субтитры: Нет
--

Скриншоты

               

Орлов Владимир

Post 14-Sep-2019 04:54

[Quote]

--Собачьи дни / Dog Days (Кен Марино) [2018, Драма, комедия, BDRip] [MVO] [iTunes]-- Информация о фильме
Название: Собачьи дни
Оригинальное название: Dog Days
Год выпуска: 2018
Жанр: Драма, комедия
Режиссер: Кен Марино--В ролях: Нина Добрев, Ванесса Энн Хадженс, Тони Белл, Ева Лонгория, Роб Кордри, Адам Палли, Райан Хансен, Джессика Ст. Клер, Томас Леннон, Жасмин Сепас Джонс--О фильме:
История о жителях Лос-Анджелеса, которых связывает любовь к собакам.-- --Страна: США
Студия: LD Entertainment
Продолжительность: 01:53:01
Перевод: Профессиональный (многоголосый, закадровый) | iTunes--Файл
Формат: AVI
Качество: BDRip | BDRemux 1080p |
Видео: 720x304 (2.37:1), 23.976 fps, XviD build 73 ~1392 kbps avg, 0.27 bit/pixel
Аудио: 48 kHz, AC3 Dolby Digital, 3/2 (L,C,R,l,r) + LFE ch, ~384 kbps
Субтитры: Нет
--

Скриншоты

               
 

The time now is: Today 21:05

All times are GMT + 3 Hours