Today is a free download without charge Download

Академия верстки | Разработка интернет магазина WP + WooCommerce (2018) PCRec [H.264]

Reply to topic
 
Author
Message

Clavik ®

Gender:

Longevity: 6 years

Posts: 2203

Location: Украина

Торрент-статистика

Post 07-Oct-2019 20:11

[Quote]

Академия верстки | Разработка интернет магазина WP + WooCommerce (2018) PCRec [H.264] - Автор (режиссер): Артем Исламов, Олег Дмитриев
Производство: Академия верстки
Жанр: программирование, PHP, WordPress
Описание:
За 5 недель ты научишься с нуля создавать полноценные интернет-магазины и начнешь на этом зарабатывать от 1000$ в месяц.
Продолжительность: 11:25:45
Качество видео: PCRec
Видео: AVC/H.264, 1280x720-1920x1080, ~172-1111 Kbps
Аудио: AAC, 2 ch, 125-256 Kbps

MediaInfo:

Общее
Полное имя : .\02 Бонусы\006 SEO для WordPress.mp4
Формат : MPEG-4
Профиль формата : Base Media / Version 2
Идентификатор кодека : mp42 (mp42/mp41/isom/avc1)
Размер файла : 87,0 Мбайт
Продолжительность : 16 м. 36 с.
Режим общего битрейта : Переменный
Общий поток : 732 Кбит/сек
Дата кодирования : UTC 2018-03-19 16:46:20
Дата пометки : UTC 2018-03-19 16:46:20
Видео
Идентификатор : 1
Формат : AVC
Формат/Информация : Advanced Video Codec
Профиль формата : [url=mailto:[email protected]][email protected][/url]
Настройки формата : CABAC / 5 Ref Frames
Параметр CABAC формата : Да
Параметр RefFrames формата : 5 кадров
Идентификатор кодека : avc1
Идентификатор кодека/Информация : Advanced Video Coding
Продолжительность : 16 м. 36 с.
Битрейт : 468 Кбит/сек
Ширина : 1280 пикселей
Высота : 720 пикселей
Соотношение сторон : 16:9
Режим частоты кадров : Постоянный
Частота кадров : 60,000 кадров/сек
Цветовое пространство : YUV
Субдискретизация насыщенности : 4:2:0
Битовая глубина : 8 бит
Тип развёртки : Прогрессивная
Бит/(Пиксели*Кадры) : 0.008
Размер потока : 55,6 Мбайт (64%)
Библиотека кодирования : x264 core 155 r10 7d0ff22
Настройки программы : cabac=1 / ref=5 / deblock=1:0:0 / analyse=0x3:0x113 / me=hex / subme=8 / psy=1 / psy_rd=1.00:0.00 / mixed_ref=1 / me_range=16 / chroma_me=1 / trellis=2 / 8x8dct=1 / cqm=0 / deadzone=21,11 / fast_pskip=1 / chroma_qp_offset=-2 / threads=22 / lookahead_threads=3 / sliced_threads=0 / nr=0 / decimate=1 / interlaced=0 / bluray_compat=0 / stitchable=1 / constrained_intra=0 / bframes=3 / b_pyramid=2 / b_adapt=2 / b_bias=0 / direct=3 / weightb=1 / open_gop=0 / weightp=2 / keyint=infinite / keyint_min=60 / scenecut=40 / intra_refresh=0 / rc_lookahead=50 / rc=crf / mbtree=1 / crf=20.0 / qcomp=0.60 / qpmin=5 / qpmax=69 / qpstep=4 / vbv_maxrate=2750 / vbv_bufsize=7500 / crf_max=0.0 / nal_hrd=none / filler=0 / ip_ratio=1.40 / aq=1:1.00
Дата кодирования : UTC 2018-03-19 16:46:20
Дата пометки : UTC 2018-03-19 16:46:20
Цветовой диапазон : Limited
Основные цвета : BT.709
Характеристики трансфера : BT.709
Коэффициенты матрицы : BT.709
Codec configuration box : avcC
Аудио
Идентификатор : 2
Формат : AAC LC
Формат/Информация : Advanced Audio Codec Low Complexity
Идентификатор кодека : mp4a-40-2
Продолжительность : 16 м. 36 с.
Вид битрейта : Переменный
Битрейт : 256 Кбит/сек
Каналы : 2 канала
ChannelLayout : L R
Частота : 48,0 КГц
Частота кадров : 46,875 кадров/сек (1024 SPF)
Метод сжатия : С потерями
Размер потока : 30,4 Мбайт (35%)
Дата кодирования : UTC 2018-03-19 16:46:20
Дата пометки : UTC 2018-03-19 16:46:20
Общее
Полное имя : .\02 Бонусы\010 Безопасность на WordPress часть 3.mp4
Формат : MPEG-4
Профиль формата : Base Media / Version 2
Идентификатор кодека : mp42 (mp42/mp41/isom/avc1)
Размер файла : 33,3 Мбайт
Продолжительность : 4 м. 23 с.
Режим общего битрейта : Переменный
Общий поток : 1059 Кбит/сек
Дата кодирования : UTC 2018-05-08 06:53:55
Дата пометки : UTC 2018-05-08 06:53:55
Видео
Идентификатор : 1
Формат : AVC
Формат/Информация : Advanced Video Codec
Профиль формата : [url=mailto:[email protected]][email protected][/url]
Настройки формата : CABAC / 5 Ref Frames
Параметр CABAC формата : Да
Параметр RefFrames формата : 5 кадров
Идентификатор кодека : avc1
Идентификатор кодека/Информация : Advanced Video Coding
Продолжительность : 4 м. 23 с.
Битрейт : 795 Кбит/сек
Ширина : 1920 пикселей
Высота : 1080 пикселей
Соотношение сторон : 16:9
Режим частоты кадров : Постоянный
Частота кадров : 60,000 кадров/сек
Цветовое пространство : YUV
Субдискретизация насыщенности : 4:2:0
Битовая глубина : 8 бит
Тип развёртки : Прогрессивная
Бит/(Пиксели*Кадры) : 0.006
Размер потока : 25,0 Мбайт (75%)
Библиотека кодирования : x264 core 155 r10 7d0ff22
Настройки программы : cabac=1 / ref=5 / deblock=1:0:0 / analyse=0x3:0x113 / me=hex / subme=8 / psy=1 / psy_rd=1.00:0.00 / mixed_ref=1 / me_range=16 / chroma_me=1 / trellis=2 / 8x8dct=1 / cqm=0 / deadzone=21,11 / fast_pskip=1 / chroma_qp_offset=-2 / threads=34 / lookahead_threads=5 / sliced_threads=0 / nr=0 / decimate=1 / interlaced=0 / bluray_compat=0 / stitchable=1 / constrained_intra=0 / bframes=3 / b_pyramid=2 / b_adapt=2 / b_bias=0 / direct=3 / weightb=1 / open_gop=0 / weightp=2 / keyint=infinite / keyint_min=60 / scenecut=40 / intra_refresh=0 / rc_lookahead=50 / rc=crf / mbtree=1 / crf=20.0 / qcomp=0.60 / qpmin=5 / qpmax=69 / qpstep=4 / vbv_maxrate=5500 / vbv_bufsize=15000 / crf_max=0.0 / nal_hrd=none / filler=0 / ip_ratio=1.40 / aq=1:1.00
Дата кодирования : UTC 2018-05-08 06:53:55
Дата пометки : UTC 2018-05-08 06:53:55
Цветовой диапазон : Limited
Основные цвета : BT.709
Характеристики трансфера : BT.709
Коэффициенты матрицы : BT.709
Codec configuration box : avcC
Аудио
Идентификатор : 2
Формат : AAC LC
Формат/Информация : Advanced Audio Codec Low Complexity
Идентификатор кодека : mp4a-40-2
Продолжительность : 4 м. 23 с.
Вид битрейта : Переменный
Битрейт : 256 Кбит/сек
Каналы : 2 канала
ChannelLayout : L R
Частота : 48,0 КГц
Частота кадров : 46,875 кадров/сек (1024 SPF)
Метод сжатия : С потерями
Размер потока : 8,06 Мбайт (24%)
Дата кодирования : UTC 2018-05-08 06:53:55
Дата пометки : UTC 2018-05-08 06:53:55

Дополнительная информация:

В раздаче имеются архивы! В них содержится дополнительные материалы.
Скриншоты:
       

_________________


Other forum [Profile] [PM]
Display posts from previous:    
Reply to topic

The time now is: Today 22:04

All times are GMT + 3 Hours



You cannot post new topics in this forum
You cannot reply to topics in this forum
You cannot edit your posts in this forum
You cannot delete your posts in this forum
You cannot vote in polls in this forum
You cannot attach files in this forum
You cannot download files in this forum