Today is a free download without charge Download

Отмена / Undone (2019) WEB-DL [H.264/720p-LQ] (сезон 1, серии 1-8 из 8) NewStation

Reply to topic
 
Author
Message

Clavik ®

Gender:

Longevity: 6 years

Posts: 2203

Location: Украина

Торрент-статистика

Post 03-Oct-2019 00:09

[Quote]

Отмена / Undone (2019) WEB-DL [H.264/720p-LQ] (сезон 1, серии 1-8 из 8) NewStation - Производство: США, Amazon Studios, Minnow Mountain, Submarine, Tornante Company
Жанр: Мультфильм, фэнтези, драма
Режиссер: Хиско Хулсинг
Описание:
Сюжет расскажет о девочке, которая после автомобильной аварии получила возможность перемещаться во времени и пространстве. Она пытается использовать свои способности, чтобы спасти давно умершего отца.

Релиз от: NewStation
Продолжительность: ~00:22:00 серия
Качество видео: WEB-DL
Перевод: Многоголосый любительский (NewStation)
Субтитры: русские, английские, арабские, датские, немецкие, испанские, финские, французские, ивритские, индонезийские, итальянские, корейские, японские, норвежские, голландские, польские, португальские, шведские, тамильские, тайские, турецкие, китайские
Видео: AVC/H.264, 1280x720, ~2461 kbps
Аудио #1: AC3, 6 ch, 640 kbps, - Русский (NewStation)
Аудио #2: AC3, 6 ch, 640 kbps, - Английский

Список серий:

01 The Crash
02 The Hospital
03 Handheld Blackjack
04 Moving The Keys
05 Alone In This (You Have Me)
06 Prayers And Visions
07 The Wedding
08 The Halloween Night

MediaInfo:

Общее
Уникальный идентификатор : 309130553703888034426444919069264564730 (0xE8906106D236B8F204D9EEB532F7D1FA)
Полное имя : F:\NewStation\Undone.S01.WEB-DL.720p.NewStation\Undone.S01E01.WEB-DL.720p.NewStation.mkv
Формат : Matroska
Версия формата : Version 4 / Version 2
Размер файла : 608 Мбайт
Продолжительность : 22 м. 39 с.
Общий поток : 3749 Кбит/сек
Дата кодирования : UTC 2019-09-13 21:15:07
Программа кодирования : mkvmerge v28.1.0 ('Morning Child') 64-bit
Библиотека кодирования : libebml v1.3.6 + libmatroska v1.4.9
Видео
Идентификатор : 1
Формат : AVC
Формат/Информация : Advanced Video Codec
Профиль формата : [url=mailto:[email protected]][email protected][/url]
Настройки формата : CABAC / 4 Ref Frames
Параметр CABAC формата : Да
Параметр RefFrames формата : 4 кадра
Идентификатор кодека : V_MPEG4/ISO/AVC
Продолжительность : 22 м. 39 с.
Вид битрейта : Постоянный
Битрейт : 2461 Кбит/сек
Номинальный битрейт : 6000 Кбит/сек
Ширина : 1280 пикселей
Высота : 720 пикселей
Соотношение сторон : 16:9
Режим частоты кадров : Постоянный
Частота кадров : 23,976 (24000/1001) кадра/сек
Цветовое пространство : YUV
Субдискретизация насыщенности : 4:2:0
Битовая глубина : 8 бит
Тип развёртки : Прогрессивная
Бит/(Пиксели*Кадры) : 0.111
Размер потока : 399 Мбайт (66%)
Default : Да
Forced : Нет
Цветовой диапазон : Limited
Основные цвета : BT.709
Характеристики трансфера : BT.709
Коэффициенты матрицы : BT.709
Аудио #1
Идентификатор : 2
Формат : AC-3
Формат/Информация : Audio Coding 3
Идентификатор кодека : A_AC3
Продолжительность : 22 м. 39 с.
Вид битрейта : Постоянный
Битрейт : 640 Кбит/сек
Каналы : 6 каналов
Расположение каналов : Front: L C R, Side: L R, LFE
Частота : 48,0 КГц
Частота кадров : 31,250 кадров/сек (1536 SPF)
Битовая глубина : 16 бит
Метод сжатия : С потерями
Размер потока : 104 Мбайт (17%)
Заголовок : NewStation
Язык : Russian
ServiceKind/String : Complete Main
Default : Да
Forced : Нет
Аудио #2
Идентификатор : 3
Формат : AC-3
Формат/Информация : Audio Coding 3
Идентификатор кодека : A_AC3
Продолжительность : 22 м. 39 с.
Вид битрейта : Постоянный
Битрейт : 640 Кбит/сек
Каналы : 6 каналов
Расположение каналов : Front: L C R, Side: L R, LFE
Частота : 48,0 КГц
Частота кадров : 31,250 кадров/сек (1536 SPF)
Битовая глубина : 16 бит
Метод сжатия : С потерями
Размер потока : 104 Мбайт (17%)
Заголовок : Original
Язык : English
ServiceKind/String : Complete Main
Default : Нет
Forced : Нет
Текст #1
Идентификатор : 4
Формат : UTF-8
Идентификатор кодека : S_TEXT/UTF8
Идентификатор кодека/Информация : UTF-8 Plain Text
Продолжительность : 20 м. 10 с.
Битрейт : 91 бит/сек
ElementCount : 377
Размер потока : 13,4 Кбайт (0%)
Язык : English
Default : Нет
Forced : Нет
Текст #2
Идентификатор : 5
Формат : UTF-8
Идентификатор кодека : S_TEXT/UTF8
Идентификатор кодека/Информация : UTF-8 Plain Text
Продолжительность : 21 м. 3 с.
Битрейт : 95 бит/сек
ElementCount : 414
Размер потока : 14,7 Кбайт (0%)
Заголовок : SDH
Язык : English
Default : Нет
Forced : Нет
Текст #3
Идентификатор : 6
Формат : UTF-8
Идентификатор кодека : S_TEXT/UTF8
Идентификатор кодека/Информация : UTF-8 Plain Text
Продолжительность : 21 м. 8 с.
Битрейт : 134 бит/сек
ElementCount : 407
Размер потока : 20,8 Кбайт (0%)
Язык : Arabic
Default : Нет
Forced : Нет
Текст #4
Идентификатор : 7
Формат : UTF-8
Идентификатор кодека : S_TEXT/UTF8
Идентификатор кодека/Информация : UTF-8 Plain Text
Продолжительность : 20 м. 10 с.
Битрейт : 85 бит/сек
ElementCount : 406
Размер потока : 12,6 Кбайт (0%)
Язык : Danish
Default : Нет
Forced : Нет
Текст #5
Идентификатор : 8
Формат : UTF-8
Идентификатор кодека : S_TEXT/UTF8
Идентификатор кодека/Информация : UTF-8 Plain Text
Продолжительность : 20 м. 10 с.
Битрейт : 80 бит/сек
ElementCount : 281
Размер потока : 12,0 Кбайт (0%)
Язык : German
Default : Нет
Forced : Нет
Текст #6
Идентификатор : 9
Формат : UTF-8
Идентификатор кодека : S_TEXT/UTF8
Идентификатор кодека/Информация : UTF-8 Plain Text
Продолжительность : 21 м. 8 с.
Битрейт : 80 бит/сек
ElementCount : 406
Размер потока : 12,5 Кбайт (0%)
Заголовок : Latinoamérica
Язык : Spanish
Default : Нет
Forced : Нет
Текст #7
Идентификатор : 10
Формат : UTF-8
Идентификатор кодека : S_TEXT/UTF8
Идентификатор кодека/Информация : UTF-8 Plain Text
Продолжительность : 20 м. 10 с.
Битрейт : 85 бит/сек
ElementCount : 405
Размер потока : 12,6 Кбайт (0%)
Заголовок : España
Язык : Spanish
Default : Нет
Forced : Нет
Текст #8
Идентификатор : 11
Формат : UTF-8
Идентификатор кодека : S_TEXT/UTF8
Идентификатор кодека/Информация : UTF-8 Plain Text
Продолжительность : 21 м. 8 с.
Битрейт : 77 бит/сек
ElementCount : 408
Размер потока : 12,1 Кбайт (0%)
Язык : Finnish
Default : Нет
Forced : Нет
Текст #9
Идентификатор : 12
Формат : UTF-8
Идентификатор кодека : S_TEXT/UTF8
Идентификатор кодека/Информация : UTF-8 Plain Text
Продолжительность : 20 м. 10 с.
Битрейт : 78 бит/сек
ElementCount : 405
Размер потока : 11,6 Кбайт (0%)
Язык : French
Default : Нет
Forced : Нет
Текст #10
Идентификатор : 13
Формат : UTF-8
Идентификатор кодека : S_TEXT/UTF8
Идентификатор кодека/Информация : UTF-8 Plain Text
Продолжительность : 21 м. 8 с.
Битрейт : 125 бит/сек
ElementCount : 407
Размер потока : 19,4 Кбайт (0%)
Язык : Hebrew
Default : Нет
Forced : Нет
Текст #11
Идентификатор : 14
Формат : UTF-8
Идентификатор кодека : S_TEXT/UTF8
Идентификатор кодека/Информация : UTF-8 Plain Text
Продолжительность : 21 м. 8 с.
Битрейт : 215 бит/сек
ElementCount : 407
Размер потока : 33,3 Кбайт (0%)
Язык : Hindi
Default : Нет
Forced : Нет
Текст #12
Идентификатор : 15
Формат : UTF-8
Идентификатор кодека : S_TEXT/UTF8
Идентификатор кодека/Информация : UTF-8 Plain Text
Продолжительность : 21 м. 8 с.
Битрейт : 66 бит/сек
ElementCount : 408
Размер потока : 10,4 Кбайт (0%)
Язык : Indonesian
Default : Нет
Forced : Нет
Текст #13
Идентификатор : 16
Формат : UTF-8
Идентификатор кодека : S_TEXT/UTF8
Идентификатор кодека/Информация : UTF-8 Plain Text
Продолжительность : 20 м. 10 с.
Битрейт : 86 бит/сек
ElementCount : 406
Размер потока : 12,8 Кбайт (0%)
Язык : Italian
Default : Нет
Forced : Нет
Текст #14
Идентификатор : 17
Формат : UTF-8
Идентификатор кодека : S_TEXT/UTF8
Идентификатор кодека/Информация : UTF-8 Plain Text
Продолжительность : 21 м. 8 с.
Битрейт : 58 бит/сек
ElementCount : 376
Размер потока : 9,11 Кбайт (0%)
Язык : Japanese
Default : Нет
Forced : Нет
Текст #15
Идентификатор : 18
Формат : UTF-8
Идентификатор кодека : S_TEXT/UTF8
Идентификатор кодека/Информация : UTF-8 Plain Text
Продолжительность : 21 м. 8 с.
Битрейт : 85 бит/сек
ElementCount : 406
Размер потока : 13,2 Кбайт (0%)
Язык : Korean
Default : Нет
Forced : Нет
Текст #16
Идентификатор : 19
Формат : UTF-8
Идентификатор кодека : S_TEXT/UTF8
Идентификатор кодека/Информация : UTF-8 Plain Text
Продолжительность : 20 м. 10 с.
Битрейт : 79 бит/сек
ElementCount : 405
Размер потока : 11,7 Кбайт (0%)
Язык : Norwegian Bokmal
Default : Нет
Forced : Нет
Текст #17
Идентификатор : 20
Формат : UTF-8
Идентификатор кодека : S_TEXT/UTF8
Идентификатор кодека/Информация : UTF-8 Plain Text
Продолжительность : 21 м. 8 с.
Битрейт : 71 бит/сек
ElementCount : 390
Размер потока : 11,1 Кбайт (0%)
Язык : Dutch
Default : Нет
Forced : Нет
Текст #18
Идентификатор : 21
Формат : UTF-8
Идентификатор кодека : S_TEXT/UTF8
Идентификатор кодека/Информация : UTF-8 Plain Text
Продолжительность : 21 м. 8 с.
Битрейт : 68 бит/сек
ElementCount : 397
Размер потока : 10,6 Кбайт (0%)
Язык : Polish
Default : Нет
Forced : Нет
Текст #19
Идентификатор : 22
Формат : UTF-8
Идентификатор кодека : S_TEXT/UTF8
Идентификатор кодека/Информация : UTF-8 Plain Text
Продолжительность : 20 м. 10 с.
Битрейт : 85 бит/сек
ElementCount : 406
Размер потока : 12,7 Кбайт (0%)
Язык : Portuguese
Default : Нет
Forced : Нет
Текст #20
Идентификатор : 23
Формат : UTF-8
Идентификатор кодека : S_TEXT/UTF8
Идентификатор кодека/Информация : UTF-8 Plain Text
Продолжительность : 21 м. 8 с.
Битрейт : 136 бит/сек
ElementCount : 404
Размер потока : 21,2 Кбайт (0%)
Язык : Russian
Default : Нет
Forced : Нет
Текст #21
Идентификатор : 24
Формат : UTF-8
Идентификатор кодека : S_TEXT/UTF8
Идентификатор кодека/Информация : UTF-8 Plain Text
Продолжительность : 21 м. 8 с.
Битрейт : 80 бит/сек
ElementCount : 407
Размер потока : 12,5 Кбайт (0%)
Язык : Swedish
Default : Нет
Forced : Нет
Текст #22
Идентификатор : 25
Формат : UTF-8
Идентификатор кодека : S_TEXT/UTF8
Идентификатор кодека/Информация : UTF-8 Plain Text
Продолжительность : 21 м. 8 с.
Битрейт : 255 бит/сек
ElementCount : 407
Размер потока : 39,5 Кбайт (0%)
Язык : Tamil
Default : Нет
Forced : Нет
Текст #23
Идентификатор : 26
Формат : UTF-8
Идентификатор кодека : S_TEXT/UTF8
Идентификатор кодека/Информация : UTF-8 Plain Text
Продолжительность : 21 м. 8 с.
Битрейт : 215 бит/сек
ElementCount : 407
Размер потока : 33,4 Кбайт (0%)
Язык : Telugu
Default : Нет
Forced : Нет
Текст #24
Идентификатор : 27
Формат : UTF-8
Идентификатор кодека : S_TEXT/UTF8
Идентификатор кодека/Информация : UTF-8 Plain Text
Продолжительность : 21 м. 8 с.
Битрейт : 207 бит/сек
ElementCount : 407
Размер потока : 32,1 Кбайт (0%)
Язык : Thai
Default : Нет
Forced : Нет
Текст #25
Идентификатор : 28
Формат : UTF-8
Идентификатор кодека : S_TEXT/UTF8
Идентификатор кодека/Информация : UTF-8 Plain Text
Продолжительность : 21 м. 8 с.
Битрейт : 74 бит/сек
ElementCount : 406
Размер потока : 11,5 Кбайт (0%)
Язык : Turkish
Default : Нет
Forced : Нет
Текст #26
Идентификатор : 29
Формат : UTF-8
Идентификатор кодека : S_TEXT/UTF8
Идентификатор кодека/Информация : UTF-8 Plain Text
Продолжительность : 21 м. 8 с.
Битрейт : 82 бит/сек
ElementCount : 407
Размер потока : 12,8 Кбайт (0%)
Заголовок : 中文(简体)
Язык : Chinese
Default : Нет
Forced : Нет
Текст #27
Идентификатор : 30
Формат : UTF-8
Идентификатор кодека : S_TEXT/UTF8
Идентификатор кодека/Информация : UTF-8 Plain Text
Продолжительность : 21 м. 8 с.
Битрейт : 72 бит/сек
ElementCount : 407
Размер потока : 11,2 Кбайт (0%)
Заголовок : 中文(繁體)
Язык : Chinese
Default : Нет
Forced : Нет
Меню
00:00:00.000 : en:Amazon Original
00:00:05.000 : en:Title Sequence
00:00:17.000 : en:Alma is so bored with living
00:01:44.000 : en:Celebrating an engagement
00:03:40.000 : en:Alma never wants to settle down
00:06:20.000 : en:The frustrations of her job
00:08:22.000 : en:Alma helps her mom look through photos
00:10:16.000 : en:Getting on the same page
00:11:28.000 : en:Supporting Becca on her special night
00:13:43.000 : en:Alma is afraid to move forward
00:18:52.000 : en:Broken people break other people
00:21:28.000 : en:End Credits
Скриншоты:
       

_________________


Other forum [Profile] [PM]
Display posts from previous:    
Reply to topic

The time now is: Today 21:47

All times are GMT + 3 Hours



You cannot post new topics in this forum
You cannot reply to topics in this forum
You cannot edit your posts in this forum
You cannot delete your posts in this forum
You cannot vote in polls in this forum
You cannot attach files in this forum
You cannot download files in this forum