Today is a free download without charge Download

За кулисами (2019) WEB-DLRip

Reply to topic
 
Author
Message

Clavik ®

Gender:

Longevity: 5 years 11 months

Posts: 1916

Location: Украина

Торрент-статистика

Post 11-Sep-2019 09:23

[Quote]

За кулисами (2019) WEB-DLRip «Шекспир был прав: вся жизнь - театр!»- Производство: Россия / Студия «Дмитрия Куповых «Свободное кино», Творческое объединение «ШАГ», BIG BAG FILMS
Жанр: Комедия, драма
Режиссер: Илья Ермолов, Игорь Каграманов, Эвелина Барсегян
Актеры: Юрий Стоянов, Павел Деревянко, Карина Разумовская, Виктория Верберг, Денис Фомин, Алевтина Даниленко, Виктор Барченко, Сергей Бредюк, Михаил Калиничев, Борис Шильманский
Описание:
Зрители привыкли следить за перипетиями судеб вымышленных персонажей, но за кулисами могут разворачиваться не менее интересные истории. Иногда они смешные, иногда — страшные, но точно — всегда интересные.
Руководитель театра вынужден проявить всю свою управленческую хитрость в условиях дефицита финансов и талантов. Другой герой знакомит зрителя с проблемами гениального актёра, оказавшегося на площадке второсортного телесериала. А подсадной бравист внезапно встречает свою первую любовь в зрительном зале театра и на свою беду решает за ней приударить.

Возраст: 16+ (зрителям, достигшим 16 лет)
Дата российской премьеры: 18 апреля 2019, «SFI-Distribution»
Релиз от: Алехаndr
Продолжительность: 01:17:02
Качество видео: WEB-DLRip
Перевод: Не требуется (русский)
Субтитры: Отсутствуют
Видео: Xvid, 720x304 (2,35:1), ~1760 Kbps
Аудио: AC3, 2 ch, 192 Kbps

MediaInfo:

Общее
Полное имя : D:\За кулисами (2019).by.Алехаndr.avi
Формат : AVI
Формат/Информация : Audio Video Interleave
Профиль формата : OpenDML
Размер файла : 1,06 Гбайт
Продолжительность : 1 ч. 17 м.
Общий поток : 1966 Кбит/сек
Программа кодирования : Lavf58.20.100
Видео
Идентификатор : 0
Формат : MPEG-4 Visual
Профиль формата : Advanced [email protected]
Настройки формата : BVOP2
Параметр BVOP формата : 2
Параметр QPel формата : Нет
Параметр GMC формата : Без точки перехода
Параметр матрицы формата : Default (H.263)
Идентификатор кодека : XVID
Идентификатор кодека/Подсказка : XviD
Продолжительность : 1 ч. 17 м.
Битрейт : 1760 Кбит/сек
Ширина : 720 пикселей
Высота : 304 пикселя
Соотношение сторон : 2,35:1
Частота кадров : 24,000 кадра/сек
Цветовое пространство : YUV
Субдискретизация насыщенности : 4:2:0
Битовая глубина : 8 бит
Тип развёртки : Прогрессивная
Метод сжатия : С потерями
Бит/(Пиксели*Кадры) : 0.335
Размер потока : 970 Мбайт (90%)
Библиотека кодирования : XviD 67
Аудио
Идентификатор : 1
Формат : AC-3
Формат/Информация : Audio Coding 3
Коммерческое название : Dolby Digital
Идентификатор кодека : 2000
Продолжительность : 1 ч. 17 м.
Вид битрейта : Постоянный
Битрейт : 192 Кбит/сек
Каналы : 2 канала
ChannelLayout : L R
Частота : 48,0 КГц
Частота кадров : 31,250 кадров/сек (1536 SPF)
Битовая глубина : 16 бит
Метод сжатия : С потерями
Размер потока : 106 Мбайт (10%)
Выравнивание : Соединение по промежуткам
Продолжительность промежутка : 32 мс. (0,77 видеокадр)
ServiceKind/String : Complete Main
Скриншоты:
       

_________________


Other forum [Profile] [PM]
Display posts from previous:    
Reply to topic

The time now is: Today 10:28

All times are GMT + 3 Hours



You cannot post new topics in this forum
You cannot reply to topics in this forum
You cannot edit your posts in this forum
You cannot delete your posts in this forum
You cannot vote in polls in this forum
You cannot attach files in this forum
You cannot download files in this forum