Today is a free download without charge Download

Смешанные единоборства. UFC 242: Хабиб - Порье / UFC 242: Khabib vs. Poirier (07.09.2019) IPTVRip

Reply to topic
 
Author
Message

Clavik ®

Gender:

Longevity: 5 years 11 months

Posts: 1921

Location: Украина

Торрент-статистика

Post 09-Sep-2019 17:50

[Quote]

Смешанные единоборства. UFC 242: Хабиб - Порье / UFC 242: Khabib vs. Poirier (07.09.2019) IPTVRip - Телекомпания: Россия, UFC ТВ
Жанр: Спорт, ММА
Описание:
7 сентября в “The Arena” города Абу-Даби (ОАЭ) прошел турнир UFC 242. Главным событием вечера стал объединительный поединок в легком весе между непобежденным чемпионом UFC в легком весе Хабибом Нурмагомедовым и временным чемпионом Дастином Порье. Хабиб Нурмагомедов последний раз выступал 7 октября 2018 года на турнире UFC 229. Российский боец провел первую защиту пояса, победив Конора МакГрегора удушающим приемом в четвертом раунде в самом громком поединке в истории UFC. «Орел» завоевал вакантный пояс в легком весе 8 апреля 2018 года на турнире UFC 223, победив Эла Яквинту единогласным решением судей. Дастин Порье ведет серию из четырех побед. Последняя виктория стала пока что самой важной в карьере американца – 14 апреля на турнире UFC 236 «Бриллиант» победил Макса Холлоуэя единогласным решением судей и завоевал временный пояс чемпиона UFC в легком весе. Перед этим Дастин поочередно остановил Энтони Петтиса, Джастина Гэтжи и Эдди Альвареза. В одном дивизионе не может быть двух чемпионов, а значит, столкновение Нурмагомедова и Порье было неизбежно. И теперь время пришло.
Продолжительность: 06:32:04
Качество видео: IPTVRip
Перевод: Роман Софронов, Аюб Магомадов, Олег Володин, Давид Багдасарян
Видео: Xvid, 720400, ~2000
Аудио: AC3, 2 ch, 192 kbps

MediaInfo:

Общее
Полное имя : D:\FILMS\ZALIV\UFC.242\03.UFC.242.Основной.Кард.avi
Формат : AVI
Формат/Информация : Audio Video Interleave
Профиль формата : OpenDML
Размер файла : 2,57 Гбайт
Продолжительность : 2 ч. 46 м.
Общий поток : 2207 Кбит/сек
Программа кодирования : Lavf56.36.100
Библиотека кодирования : VirtualDub build 35576/release
Видео
Идентификатор : 0
Формат : xvid
Идентификатор кодека : xvid
Продолжительность : 2 ч. 46 м.
Битрейт : 2002 Кбит/сек
Ширина : 720 пикселей
Высота : 400 пикселей
Соотношение сторон : 16:9
Частота кадров : 25,000 кадров/сек
Бит/(Пиксели*Кадры) : 0.278
Размер потока : 2,34 Гбайт (91%)
Аудио
Идентификатор : 1
Формат : AC-3
Формат/Информация : Audio Coding 3
Коммерческое название : Dolby Digital
Идентификатор кодека : 2000
Продолжительность : 2 ч. 46 м.
Вид битрейта : Постоянный
Битрейт : 192 Кбит/сек
Каналы : 2 канала
ChannelLayout : L R
Частота : 48,0 КГц
Частота кадров : 31,250 кадров/сек (1536 SPF)
Битовая глубина : 16 бит
Метод сжатия : С потерями
Размер потока : 229 Мбайт (9%)
Выравнивание : Соединение по промежуткам
Продолжительность промежутка : 32 мс. (0,80 видеокадр)
Время предзагрузки промежутка : 512 мс.
ServiceKind/String : Complete Main

Дополнительная информация:

Кард:
Ранний кард:
Легкий вес (70 кг): Дон Мадж (10-2) - Фарес Зиам (8-3-1)
Средний вес (84 кг): Омари Ахмедов (18-4-1) - Зак Каммингс (23-6)
Полусредний вес (77 кг): Нордин Талеб (15-6) - Муслим Салихов (14-2)
Полусредний вес (77 кг): Белал Мухаммад (15-3) - Такаши Сато (15-2)
Предварительный кард:
Легкий вес (70 кг): Оттман Азайтар (11-0) - Тиему Паккален (8-2)
Женщины, легчайший вес (61 кг): Лиана Джоджуа (7-2) - Сара Морас (5-5)
Полулегкий вес (66 кг): Зубайра Тухугов (18-4) - Лерон Мерфи (5-0)
Женщины, наилегчайший вес (57 кг): Джоанн Калдервуд (13-4) - Андреа Ли (11-2)
Основной кард:
Легкий вес (70 кг): Майрбек Тайсумов (27-5) - Карлос Диего Феррейра (15-2)
Тяжелый вес (до 120 кг): Кертис Блэйдс (11-2) - Шамиль Абдурахимов (20-4)
Легкий вес (70 кг): Ислам Махачев (17-1) - Дэви Рамос (10-2)
Легкий вес (70 кг): Эдсон Барбоза (20-7) - Пол Фелдер (16-4)
Легкий вес (70 кг): Хабиб Нурмагомедов (ч) (27-0) - Дастин Порье (вч) (25-5)
Скриншоты:
       

_________________


In forum [Profile] [PM]
Similar theme
Forum Topic Author Torrent Replies Last Post
./templates/default/images/folder_dl.gif Книги и журналы для самых маленьких и их родителей Подборка | Раскраски Смешарики [77 выпусков] (2006-2009) [DJVU] sashau
1 | 0

0 | 3094

8

2015-05-04 10:31
sashau Latest
Display posts from previous:    
Reply to topic

The time now is: Today 11:23

All times are GMT + 3 Hours



You cannot post new topics in this forum
You cannot reply to topics in this forum
You cannot edit your posts in this forum
You cannot delete your posts in this forum
You cannot vote in polls in this forum
You cannot attach files in this forum
You cannot download files in this forum