Today is a free download without charge Download

Gunjou no Magmell / Magmel of the Sea Blue / Магмел синего моря [2019, TV, 13 ep] WEB-DL 1080p Rus

Reply to topic
 
Author
Message

Clavik ®

Gender:

Longevity: 6 years

Posts: 2144

Location: Украина

Торрент-статистика

Post 12-Aug-2019 11:22

[Quote]

Gunjou no Magmell / Magmel of the Sea Blue / Магмел синего моря- Жанр: приключения, фэнтези
Тип: TV-сериал
Продолжительность: 13 эпизодов по 25 минут
Выпуск: c 07.04.2019 по 30.06.2019
Автор: Дайнэнбё
Снято по манге: Gunjou no Magmel
Режиссер: Датэ Хаято
Производство: Studio Pierrot-Информационные ссылки: AniDB || World Art || MAL || ANN-Релиз подготовлен группой AniLibria
  • Тип озвучки: Двухголосая, закадровая
-Описание:
Действие разворачивается в мире, где в океане внезапно всплыл континент, получивший название Магмелл, что положило начало новой эпохе географических открытий. Отважные исследователи отправляются в глубь материка, где находят прежде не известные формы жизни и новые ресурсы, но и встречают невероятные опасности. В центре повествования загадочный юноша, который зарабатывает на жизнь как рабочий на подхвате у исследователей.-Качество: WEB-DLRip | Энкод: Erai-raws
Язык озвучки: Японский и Русский
Формат: MKV
Видео: x264, 1920x1080, ~7 500 kbps, 23.976 fps
Аудио: Е-AC3, 128 kbps, 48.0 kHz, 2 ch
Аудио: AAC, 192 kbps, 48.0 kHz, 2 ch

Список эпизодов:

01. Angler
02. Ruler of the 7th Ward
03. Seven Colored Pigeon
04. Bloody Maria
05. Father Den-Den and Magmell
06. Shuuin`s Pupil
07. Original Resident
08. The Old Man and Fields of Coffee
09. Zero`s Great Adventure
10. Monster Mania
11. Captured Zero
12. Despair
13. Someday Together...

Тех. параметры:

General
Unique ID : 175083535728602319076362687230762286319 (0x83B7DCC7BF1F2C413D0855BD9737FCEF)
Complete name : Gunjou no Magmel [AniLibria]\[AniLibria] Gunjou no Magmel - 01 [1080p].mkv
Format : Matroska
Format version : Version 4
File size : 1.29 GiB
Duration : 23 min 42 s
Overall bit rate mode : Variable
Overall bit rate : 7 805 kb/s
Encoded date : UTC 2019-04-20 05:26:09
Writing application : mkvmerge v33.1.0 ('Primrose') 64-bit
Writing library : libebml v1.3.7 + libmatroska v1.5.0
Video
ID : 1
Format : AVC
Format/Info : Advanced Video Codec
Format profile : [email protected]
Format settings : CABAC / 3 Ref Frames
Format settings, CABAC : Yes
Format settings, Reference : 3 frames
Codec ID : V_MPEG4/ISO/AVC
Duration : 23 min 42 s
Bit rate mode : Variable
Bit rate : 7 500 kb/s
Maximum bit rate : 11.2 Mb/s
Width : 1 920 pixels
Height : 1 080 pixels
Display aspect ratio : 16:9
Frame rate mode : Constant
Frame rate : 23.976 (24000/1001) FPS
Color space : YUV
Chroma subsampling : 4:2:0
Bit depth : 8 bits
Scan type : Progressive
Bits/(Pixel*Frame) : 0.151
Stream size : 1.24 GiB (96%)
Writing library : x264 core 148 r2715 7e75228
Encoding settings : cabac=1 / ref=3 / deblock=1:0:0 / analyse=0x1:0x111 / me=umh / subme=10 / psy=1 / psy_rd=1.00:0.00 / mixed_ref=1 / me_range=24 / chroma_me=1 / trellis=2 / 8x8dct=0 / cqm=0 / deadzone=21,11 / fast_pskip=1 / chroma_qp_offset=-2 / threads=8 / lookahead_threads=1 / sliced_threads=0 / nr=0 / decimate=1 / interlaced=0 / bluray_compat=0 / stitchable=1 / constrained_intra=0 / bframes=2 / b_pyramid=0 / b_adapt=2 / b_bias=0 / direct=3 / weightb=1 / open_gop=0 / weightp=2 / keyint=48 / keyint_min=25 / scenecut=0 / intra_refresh=0 / rc_lookahead=48 / rc=2pass / mbtree=1 / bitrate=7500 / ratetol=1.0 / qcomp=0.50 / qpmin=6 / qpmax=51 / qpstep=4 / cplxblur=20.0 / qblur=0.5 / vbv_maxrate=11250 / vbv_bufsize=15000 / nal_hrd=vbr / filler=0 / ip_ratio=1.40 / aq=1:1.00
Language : Japanese
Default : Yes
Forced : No
Audio #1
ID : 2
Format : AAC LC
Format/Info : Advanced Audio Codec Low Complexity
Codec ID : A_AAC-2
Duration : 23 min 42 s
Bit rate : 192 kb/s
Channel(s) : 2 channels
Channel layout : L R
Sampling rate : 48.0 kHz
Frame rate : 46.875 FPS (1024 SPF)
Compression mode : Lossy
Stream size : 32.6 MiB (2%)
Title : AniLibria
Language : Russian
Default : Yes
Forced : Yes
Audio #2
ID : 3
Format : E-AC-3
Format/Info : Enhanced AC-3
Commercial name : Dolby Digital Plus
Codec ID : A_EAC3
Duration : 23 min 42 s
Bit rate mode : Constant
Bit rate : 128 kb/s
Channel(s) : 2 channels
Channel layout : L R
Sampling rate : 48.0 kHz
Frame rate : 31.250 FPS (1536 SPF)
Compression mode : Lossy
Stream size : 21.7 MiB (2%)
Title : Оригинал
Language : Japanese
Service kind : Complete Main
Default : No
Forced : No
-        -

_________________


Other forum [Profile] [PM]
Display posts from previous:    
Reply to topic

The time now is: Today 23:03

All times are GMT + 3 Hours



You cannot post new topics in this forum
You cannot reply to topics in this forum
You cannot edit your posts in this forum
You cannot delete your posts in this forum
You cannot vote in polls in this forum
You cannot attach files in this forum
You cannot download files in this forum