Today is a free download without charge Download

Космический рубеж / Final Space (2018) WEB-DLRip [H.264/1080p] (Сезон 1, Серии 10 из 10 + Пилот) NewStation

Reply to topic
 
Author
Message

Clavik ®

Gender:

Longevity: 5 years 10 months

Posts: 1562

Location: Украина

Торрент-статистика

Post 09-Aug-2019 13:18

[Quote]

Космический рубеж / Final Space (2018) WEB-DLRip [H.264/1080p] (Сезон 1, Серии10 из 10 + Пилот) NewStation - Производство: Сша
Жанр: Компьютерная анимация, Комедия, Для взрослых
Режиссер: Майк Робертс, Олэн Роджерс
Персонажи: Дэвид Теннант, Митчелл Дэвис, Коути Гэлловэй, Олэн Роджерс, Джейк Сидвелл
Описание:
Астронавт по имени Гэри и его уничтожающий планеты приятель, называемый себя Мункейк, приступают к путешествиям по космосу, чтобы разгадать тайну того, где вселенная заканчивается и действительно ли она существует.

Дата мировой премьеры: 26 февраля 2018
Продолжительность: 00:22:00 х серия
Качество видео: WEB-DLRip
Перевод: Двуголосый закадровый, любительский
Озвучка / Автор перевода: NewStation
Субтитры: Русские, Английские
Видео: AVC/H.264, 1920x1080, ~11.8 mbps
Аудио: AC3, 6 ch, 384 kbps

Mediainfo:

General
Unique ID : 169510269826157012864571824067272314024 (0x7F867D8E639D8FD88F5B1B7291C90CA8)
Complete name : H:\Movies\Cartoons\short\Final.Space.S01.WEB-DL.1080p.NewStation
Format : Matroska
Format version : Version 4 / Version 2
File size : 1.91 GiB
Duration : 21 min 18 s
Overall bit rate mode : Variable
Overall bit rate : 12.9 Mb/s
Encoded date : UTC 2018-02-20 13:07:26
Writing application : mkvmerge v19.0.0 ('Brave Captain') 64-bit
Writing library : libebml v1.3.5 + libmatroska v1.4.8
Video
ID : 1
Format : AVC
Format/Info : Advanced Video Codec
Format profile : [email protected]
Format settings : CABAC / 4 Ref Frames
Format settings, CABAC : Yes
Format settings, RefFrames : 4 frames
Codec ID : V_MPEG4/ISO/AVC
Duration : 21 min 18 s
Bit rate mode : Variable
Bit rate : 11.8 Mb/s
Maximum bit rate : 15.0 Mb/s
Width : 1 920 pixels
Height : 1 080 pixels
Display aspect ratio : 16:9
Frame rate mode : Constant
Frame rate : 23.976 (24000/1001) FPS
Color space : YUV
Chroma subsampling : 4:2:0
Bit depth : 8 bits
Scan type : Progressive
Bits/(Pixel*Frame) : 0.238
Stream size : 1.76 GiB (92%)
Language : English
Default : Yes
Forced : No
Color range : Limited
Color primaries : BT.709
Transfer characteristics : BT.709
Matrix coefficients : BT.709
Audio #1
ID : 2
Format : AC-3
Format/Info : Audio Coding 3
Codec ID : A_AC3
Duration : 21 min 18 s
Bit rate mode : Constant
Bit rate : 384 kb/s
Channel(s) : 6 channels
Channel positions : Front: L C R, Side: L R, LFE
Sampling rate : 48.0 kHz
Frame rate : 31.250 FPS (1536 SPF)
Bit depth : 16 bits
Compression mode : Lossy
Stream size : 58.5 MiB (3%)
Title : NewStation
Language : Russian
Service kind : Complete Main
Default : Yes
Forced : No
Audio #2
ID : 3
Format : E-AC-3
Format/Info : Enhanced Audio Coding 3
Codec ID : A_EAC3
Duration : 21 min 18 s
Bit rate mode : Constant
Bit rate : 640 kb/s
Channel(s) : 6 channels
Channel positions : Front: L C R, Side: L R, LFE
Sampling rate : 48.0 kHz
Frame rate : 187.500 FPS (256 SPF)
Compression mode : Lossy
Stream size : 97.5 MiB (5%)
Title : Original
Language : English
Service kind : Complete Main
Default : No
Forced : No
Text
ID : 4
Format : UTF-8
Codec ID : S_TEXT/UTF8
Codec ID/Info : UTF-8 Plain Text
Duration : 21 min 9 s
Bit rate : 84 b/s
Count of elements : 475
Stream size : 13.2 KiB (0%)
Language : English
Default : No
Forced : No
Скриншоты:
       

_________________


Other forum [Profile] [PM]

Clavik ®

Gender:

Longevity: 5 years 10 months

Posts: 1562

Location: Украина

Торрент-статистика

Post 09-Aug-2019 13:19 (after 1 minute)

[Quote]

Прикольный мультсериал

_________________


Other forum [Profile] [PM]
Display posts from previous:    
Reply to topic

The time now is: Today 18:17

All times are GMT + 3 Hours



You cannot post new topics in this forum
You cannot reply to topics in this forum
You cannot edit your posts in this forum
You cannot delete your posts in this forum
You cannot vote in polls in this forum
You cannot attach files in this forum
You cannot download files in this forum