Today is a free download without charge Download

Animal Planet: Живой или вымерший. Додо Севера / Extinct or Alive (2018) HDTV [H.264/1080i]

Reply to topic
 
Author
Message

RazBoyNik ®

Gender:

Longevity: 5 years 10 months

Posts: 366

Торрент-статистика

Post 15-Jul-2019 10:32

[Quote]

Живой или вымерший. Додо Севера / Extinct or Alive (2018) HDTV [H.264/1080i] - Год выпуска: 2018
Страна: США, Hot Snakes Media, Animal Planet
Жанр: Документальный, природа, флора, фауна
Режиссер: Форрест Галанте
Описание:
Что если вымершие животные на самом деле не вымерли? Биолог Форрест Галланте путешествует по земному шару и, вооружившись новейшими технологиями, ищет виды, которые мир уже прекратил искать. Поиски доказательств и свидетельств, благодаря которым, возможно, удастся выследить и вернуть к жизни животных, ошибочно считающихся исчезнувшими, приводят энтузиаста Форреста в далекие и иногда опасные места.
Форрест отправляется на Фарерские острова, где ищет признаки присутствия бескрылой гагарки - большой нелетающей морской птицы, объявленной вымершей 175 лет назад.
Продолжительность: 00:43:57
Качество видео: HDTV
Перевод: Одноголосый закадровый, профессиональный
Субтитры: отсутствуют
Видео: AVC/H.264, 1920x1080, ~10,7 Mbps
Аудио#1: MP2, 2 ch, 192 Kbps | Русский
Аудио#2: MP2, 2 ch, 192 Kbps | Английский

Mediainfo:

Общее
Идентификатор : 1 (0x1)
Полное имя : F:\КИНО\Живой или вым. Додо Севера 1080 (2018).ts
Формат : MPEG-TS
Размер файла : 3,57 Гбайт
Продолжительность : 43 м. 58 с.
Режим общего битрейта : Переменный
Общий поток : 11,6 Мбит/сек
Видео
Идентификатор : 1026 (0x402)
Идентификатор меню : 119 (0x77)
Формат : AVC
Формат/Информация : Advanced Video Codec
Профиль формата : [email protected]
Настройки формата : CABAC / 4 Ref Frames
Параметр CABAC формата : Да
Параметр RefFrames формата : 4 кадра
Идентификатор кодека : 27
Продолжительность : 43 м. 57 с.
Битрейт : 10,7 Мбит/сек
Ширина : 1920 пикселей
Высота : 1080 пикселей
Соотношение сторон : 16:9
Частота кадров : 25,000 кадров/сек
Стандарт вещания : Component
Цветовое пространство : YUV
Субдискретизация насыщенности : 4:2:0
Битовая глубина : 8 бит
Тип развёртки : Чересстрочная
Метод сохранения типа развёртки : Раздельные поля
Порядок развёртки : Верхнее поле первое
Бит/(Пиксели*Кадры) : 0.205
Размер потока : 3,27 Гбайт (92%)
Цветовой диапазон : Limited
Основные цвета : BT.709
Характеристики трансфера : BT.709
Коэффициенты матрицы : BT.709
Аудио #1
Идентификатор : 1027 (0x403)
Идентификатор меню : 119 (0x77)
Формат : MPEG Audio
Версия формата : Version 1
Профиль формата : Layer 2
Идентификатор кодека : 3
Продолжительность : 43 м. 57 с.
Вид битрейта : Постоянный
Битрейт : 192 Кбит/сек
Каналы : 2 канала
Частота : 48,0 КГц
Частота кадров : 41,667 кадра/сек (1152 SPF)
Метод сжатия : С потерями
Задержка видео : -80 мс.
Размер потока : 60,4 Мбайт (2%)
Язык : Russian
Аудио #2
Идентификатор : 1028 (0x404)
Идентификатор меню : 119 (0x77)
Формат : MPEG Audio
Версия формата : Version 1
Профиль формата : Layer 2
Идентификатор кодека : 3
Продолжительность : 43 м. 58 с.
Вид битрейта : Постоянный
Битрейт : 192 Кбит/сек
Каналы : 2 канала
Частота : 48,0 КГц
Частота кадров : 41,667 кадра/сек (1152 SPF)
Метод сжатия : С потерями
Задержка видео : -80 мс.
Размер потока : 60,4 Мбайт (2%)
Язык : English
Скриншоты:
       
Other forum [Profile] [PM]
Display posts from previous:    
Reply to topic

The time now is: Today 18:50

All times are GMT + 3 Hours



You cannot post new topics in this forum
You cannot reply to topics in this forum
You cannot edit your posts in this forum
You cannot delete your posts in this forum
You cannot vote in polls in this forum
You cannot attach files in this forum
You cannot download files in this forum