Today is a free download without charge Download

Майна / Maina (2013) BDRemux [H.264/1080i]

Reply to topic
 
Author
Message

RazBoyNik ®

Gender:

Longevity: 5 years 10 months

Posts: 366

Торрент-статистика

Post 14-Feb-2017 18:12

[Quote]

Майна / Maïna - Производство: Канада / Equinoxe
Жанр: Приключения
Режиссер: Мишель Полетт
Актеры: Ренетта Арлук, Танту Кардинал, Грэм Грин, Пакак Иннуксук, Ипилье Оотова, Эрик Швейг, Роузэнн Супернаульт, Уапшкусс Терниш, Люси Тулугарджук, Нуувия Тулугарджук
Описание:
Юная девушка Майна родилась и выросла в племени северо-американских индейцев, которые испокон веков живут на лоне природы, верят в силы духов и почитают старые традиции, и обычаи. Родила девочку Такаэра, но вскормила и вырастила девочку другая женщина, ставшая спутницей отца — вождя племени. Такаэра не смогла простить ему измену. Она покинула племя и стала вести уединенную жизнь, оставаясь при этом шаманом племени.
После смерти отца, отравленного членом враждующего племени Саиту, Майна вынуждена противостоять одержимому ею Саиту, а также отправиться в далекое путешествие, чтобы разыскать похищенного одиннадцатилетнего мальчишку из племени, по имени Нипки. На пути бесстрашную девушку ждет множество приключений, опасных ситуаций и знакомств с новыми интересными людьми.

Продолжительность: 01:38:06
Качество видео: BDRemux
Перевод: Авторский (П. Морозов/PashaUp)
Язык субтитров: Русский (полные), Английский (на диалоги индейцев)
Вид субтитров: Вшитые, отключаемые
Видео: AVC/H.264, 1920x1080, ~20 Mbps
Аудио 1: DTS-HD MA, 6 ch, ~2048 kbps, Русский (AVO, П. Морозов/PashaUp)
Аудио 2: DTS-HD MA, 6 ch, ~2048 kbps, Английский (Оригинал)

MediaIinfo:

Общее
Формат : Matroska
Версия формата : Version 4 / Version 2
Размер файла : 16,6 Гбайт
Продолжительность : 1 ч. 38 м.
Режим общего битрейта : Переменный
Общий поток : 24,3 Мбит/сек
Название фильма : Maina (2013) BDRemux by Lexandros
Дата кодирования : UTC 2017-02-13 06:53:06
Программа кодирования : mkvmerge v9.8.0 ('Kuglblids') 64bit
Библиотека кодирования : libebml v1.3.4 + libmatroska v1.4.5
Видео
Идентификатор : 1
Формат : AVC
Формат/Информация : Advanced Video Codec
Профиль формата : [url=mailto:[email protected]][email protected][/url]
Параметр CABAC формата : Да
Параметр ReFrames формата : 2 кадра
Параметр GOP формата : M=1, N=5
Идентификатор кодека : V_MPEG4/ISO/AVC
Продолжительность : 1 ч. 38 м.
Вид битрейта : Переменный
Битрейт : 20,1 Мбит/сек
Максимальный битрейт : 36,2 Мбит/сек
Ширина : 1920 пикселей
Высота : 1080 пикселей
Соотношение сторон : 16:9
Режим частоты кадров : Постоянный
Частота кадров : 25,000 кадров/сек
Цветовое пространство : YUV
Субдискретизация насыщенности : 4:2:0
Битовая глубина : 8 бит
Тип развёртки : MBAFF
Метод сохранения типа развёртки : Чередующиеся поля
Порядок развёртки : Верхнее поле первое
Бит/(Пиксели*Кадры) : 0.388
Размер потока : 13,8 Гбайт (83%)
Язык : English
Default : Да
Forced : Нет
Аудио #1
Идентификатор : 2
Формат : DTS
Формат/Информация : Digital Theater Systems
Профиль формата : MA / Core
Режим : 16
Параметр Endianness формата : Big
Идентификатор кодека : A_DTS
Продолжительность : 1 ч. 38 м.
Вид битрейта : Переменный / Постоянный
Битрейт : 2048 Кбит/сек / 1509 Кбит/сек
Каналы : 6 каналов
Расположение каналов : Front: L C R, Side: L R, LFE
Частота : 48,0 КГц
Частота кадров : 93,750 кадра/сек (512 spf)
Битовая глубина : 16 бит
Метод сжатия : Без потерь / Lossy
Размер потока : 1,43 Гбайт (9%)
Заголовок : AVO, PashaUp
Язык : Russian
Default : Да
Forced : Нет
Аудио #2
Идентификатор : 3
Формат : DTS
Формат/Информация : Digital Theater Systems
Профиль формата : MA / Core
Режим : 16
Параметр Endianness формата : Big
Идентификатор кодека : A_DTS
Продолжительность : 1 ч. 38 м.
Вид битрейта : Переменный / Постоянный
Битрейт : 2048 Кбит/сек / 1509 Кбит/сек
Каналы : 6 каналов
Расположение каналов : Front: L C R, Side: L R, LFE
Частота : 48,0 КГц
Частота кадров : 93,750 кадра/сек (512 spf)
Битовая глубина : 16 бит
Метод сжатия : Без потерь / Lossy
Размер потока : 1,42 Гбайт (9%)
Язык : English
Default : Нет
Forced : Нет
Текст #1
Идентификатор : 4
Формат : UTF-8
Идентификатор кодека : S_TEXT/UTF8
Идентификатор кодека/Информация : UTF-8 Plain Text
Продолжительность : 1 ч. 34 м.
Битрейт : 17 бит/сек
Count of elements : 464
Размер потока : 12,4 Кбайт (0%)
Язык : Russian
Default : Да
Forced : Нет
Текст #2
Идентификатор : 5
Формат : UTF-8
Идентификатор кодека : S_TEXT/UTF8
Идентификатор кодека/Информация : UTF-8 Plain Text
Продолжительность : 1 ч. 31 м.
Битрейт : 12 бит/сек
Count of elements : 336
Размер потока : 8,24 Кбайт (0%)
Язык : English
Default : Нет
Forced : Нет
Меню
00:00:00.000 : en:00:00:00.000
00:10:05.000 : en:00:10:05.000
00:24:56.800 : en:00:24:56.800
00:36:28.000 : en:00:36:28.000
00:50:02.120 : en:00:50:02.120
01:01:05.200 : en:01:01:05.200
01:13:18.000 : en:01:13:18.000
01:25:19.000 : en:01:25:19.000
Скриншоты:
       
Other forum [Profile] [PM]
Display posts from previous:    
Reply to topic

The time now is: Today 22:56

All times are GMT + 3 Hours



You cannot post new topics in this forum
You cannot reply to topics in this forum
You cannot edit your posts in this forum
You cannot delete your posts in this forum
You cannot vote in polls in this forum
You cannot attach files in this forum
You cannot download files in this forum