Today is a free download without charge Download

Комиссар - Короли (2013) [FLAC|Lossless]<Pop>

Reply to topic
 
Author
Message

UndegraundMen ®

Longevity: 6 years 6 months

Posts: 25145

Торрент-статистика

Post 27-Apr-2013 00:02

[Quote]

Комиссар - Короли (2013)- Год: 2013
Жанр: Pop
Продолжительность: 01:00:33
Лейбл: Квадро-Диск
Каталожный №: KTL13-014
Сканы: Комплект
Кодек: FLAC (image+.cue)
Битрейт: Lossless
Треклист:
01. Короли [3:35]
02. Сказка о любви [4:00]
03. Голубоглазая [3:36]
04. Небо [3:42]
05. Забудь моё имя [3:28]
06. Всё, кончено всё (drum&bass piano version) [4:17]
07. Слёзы любви [3:17]
08. Волчья кровь [4:55]
09. BFG-2012 [3:20]
10. Переходим на Вы [3:49]
11. А если честно сказать (DJ Vital ver.) [4:27]
12. Наташка [4:07]
13. Я так устал (full rain&moon version) [10:23]
14. Короли (High gear ver.) [3:37]
-

Содержимое индексной карты (.cue&#41;&#58;

Код:
REM GENRE Pop
REM DATE 2013
REM DISCID BA0E300E
REM COMMENT "ExactAudioCopy v0.99pb5"
PERFORMER "Комиссар"
TITLE "Короли"
FILE "Комиссар - Короли.flac" WAVE
  TRACK 01 AUDIO
    TITLE "Короли"
    PERFORMER "Комиссар"
    INDEX 01 00:00:00
  TRACK 02 AUDIO
    TITLE "Сказка о любви"
    PERFORMER "Комиссар"
    INDEX 00 03:32:41
    INDEX 01 03:34:41
  TRACK 03 AUDIO
    TITLE "Голубоглазая"
    PERFORMER "Комиссар"
    INDEX 00 07:32:40
    INDEX 01 07:34:40
  TRACK 04 AUDIO
    TITLE "Небо"
    PERFORMER "Комиссар"
    INDEX 00 11:08:45
    INDEX 01 11:10:45
  TRACK 05 AUDIO
    TITLE "Забудь моё имя"
    PERFORMER "Комиссар"
    INDEX 00 14:50:18
    INDEX 01 14:52:18
  TRACK 06 AUDIO
    TITLE "Всё, кончено всё (drum&bass piano version)"
    PERFORMER "Комиссар"
    INDEX 00 18:18:55
    INDEX 01 18:20:55
  TRACK 07 AUDIO
    TITLE "Слёзы любви"
    PERFORMER "Комиссар"
    INDEX 00 22:36:04
    INDEX 01 22:38:04
  TRACK 08 AUDIO
    TITLE "Волчья кровь"
    PERFORMER "Комиссар"
    INDEX 00 25:52:46
    INDEX 01 25:54:46
  TRACK 09 AUDIO
    TITLE "BFG-2012"
    PERFORMER "Комиссар"
    INDEX 00 30:47:55
    INDEX 01 30:49:55
  TRACK 10 AUDIO
    TITLE "Переходим на Вы"
    PERFORMER "Комиссар"
    INDEX 00 34:08:01
    INDEX 01 34:10:01
  TRACK 11 AUDIO
    TITLE "А если честно сказать (DJ Vital ver.)"
    PERFORMER "Комиссар"
    INDEX 00 37:57:31
    INDEX 01 37:59:31
  TRACK 12 AUDIO
    TITLE "Наташка"
    PERFORMER "Комиссар"
    INDEX 00 42:24:14
    INDEX 01 42:26:14
  TRACK 13 AUDIO
    TITLE "Я так устал (full rain&moon version)"
    PERFORMER "Комиссар"
    INDEX 00 46:30:56
    INDEX 01 46:32:56
  TRACK 14 AUDIO
    TITLE "Короли (High gear ver.)"
    PERFORMER "Комиссар"
    INDEX 00 56:53:40
    INDEX 01 56:55:40

Отчёт ЕАС&#58;

Код:
Exact Audio Copy V0.99 prebeta 5 from 4. May 2009
EAC extraction logfile from 26. April 2013, 16:16
Комиссар / Короли
Used drive  : PIONEER DVD-RW  DVR-212   Adapter: 7  ID: 0
Read mode               : Secure
Utilize accurate stream : Yes
Defeat audio cache      : Yes
Make use of C2 pointers : No
Read offset correction                      : 48
Overread into Lead-In and Lead-Out          : No
Fill up missing offset samples with silence : Yes
Delete leading and trailing silent blocks   : No
Null samples used in CRC calculations       : Yes
Used interface                              : Installed external ASPI interface
Used output format : Internal WAV Routines
Sample format      : 44.100 Hz; 16 Bit; Stereo
TOC of the extracted CD
     Track |   Start  |  Length  | Start sector | End sector
    ---------------------------------------------------------
        1  |  0:00.00 |  3:34.41 |         0    |    16090
        2  |  3:34.41 |  3:59.74 |     16091    |    34089
        3  |  7:34.40 |  3:36.05 |     34090    |    50294
        4  | 11:10.45 |  3:41.48 |     50295    |    66917
        5  | 14:52.18 |  3:28.37 |     66918    |    82554
        6  | 18:20.55 |  4:17.24 |     82555    |   101853
        7  | 22:38.04 |  3:16.42 |    101854    |   116595
        8  | 25:54.46 |  4:55.09 |    116596    |   138729
        9  | 30:49.55 |  3:20.21 |    138730    |   153750
       10  | 34:10.01 |  3:49.30 |    153751    |   170955
       11  | 37:59.31 |  4:26.58 |    170956    |   190963
       12  | 42:26.14 |  4:06.42 |    190964    |   209455
       13  | 46:32.56 | 10:22.59 |    209456    |   256164
       14  | 56:55.40 |  3:37.16 |    256165    |   272455
Range status and errors
Selected range
     Filename M:\FLAC (bruk67)\MP3\Комиссар (FLAC)\2013 - Короли\Комиссар - Короли.wav
     Peak level 100.0 %
     Range quality 100.0 %
     Test CRC 02A10AA9
     Copy CRC 02A10AA9
     Copy OK
No errors occurred
AccurateRip summary
Track  1  not present in database
Track  2  not present in database
Track  3  not present in database
Track  4  not present in database
Track  5  not present in database
Track  6  not present in database
Track  7  not present in database
Track  8  not present in database
Track  9  not present in database
Track 10  not present in database
Track 11  not present in database
Track 12  not present in database
Track 13  not present in database
Track 14  not present in database
None of the tracks are present in the AccurateRip database
End of status report

Отчёт auCDtect Task Manager&#58;

Код:
-----------------------
DON'T MODIFY THIS FILE
-----------------------
PERFORMER: auCDtect Task Manager, ver. 1.5.1RC3 build 1.5.1.4
Copyright (c) 2008-2010 y-soft. All rights reserved
http://y-soft.org
ANALYZER: auCDtect: CD records authenticity detector, version 0.8.2
Copyright (c) 2004 Oleg Berngardt. All rights reserved.
Copyright (c) 2004 Alexander Djourik. All rights reserved.
FILE: Комиссар - Короли.flac
  Size: 427091738 Hash: 365400B86F6874744A491AFA2B82A583 Accuracy: -m0
  Conclusion: CDDA 100%
  Signature: 279EE9DBC52A7CB77F84CAC485F9C16A43C4B2E8

-
-Время раздачи: Круглосуточно (до первых сидов, далее по возможности)-
Поглощение/вытеснение
Только с согласия релизера

poseydonbond
Other forum [Profile] [PM]

Dracula

Longevity: 5 years 10 months

Posts: 10535

Торрент-статистика

Post 28-Apr-2013 11:57 (after 1 day 11 hours)

Топик был перенесен из форума Разножанровые коллекции книг и библиотеки в форум Pop


alex
 
Similar theme
Forum Topic Author Torrent Replies Last Post
./templates/default/images/folder_dl.gif Зарубежные сериалы Комиссар полиции / The Commish / Сезон: 5 / Серии: 1 из 4 (Майлз Уоткинс, Джеймс Уитмор мл.) [1995, драма, комедия, криминал, детектив,, VHSRip] AVO (Сергей Визгунов) Omen
0 | 1

0 | 810

0

2016-04-11 09:33
Omen Latest
Display posts from previous:    
Reply to topic

The time now is: Today 18:55

All times are GMT + 3 Hours



You cannot post new topics in this forum
You cannot reply to topics in this forum
You cannot edit your posts in this forum
You cannot delete your posts in this forum
You cannot vote in polls in this forum
You cannot attach files in this forum
You cannot download files in this forum