Today is a free download without charge Download

Search found 500 matches

Author Message

}{@R0N

Post 29-Jun-2019 11:15

[Quote]

Codecamp | Профессия Python разработчик - Автор (режиссер): Дмитрий Егерев
Производство: Россия / Codecamp.ru
Жанр: Программирование, Python, Flask, Разработка, SQL, Web-разработка
Описание:
Python — один из самых гибких, универсальных и быстроразвивающихся языков программирования.
Python используется и в стартапах, и в транснациональных корпорациях — выбирайте сами, где работать и какие задачи решать.
Начните изучать Python и систематизируйте ваши знания.
Курс научит вас писать программы, веб-приложения, скрипты для автоматизации рутинных действий, работы с серверами и сбора данных с сайтов, а также решать множество других интересных задач.
Продолжительность: 10:10:06
Качество видео: PCRec
Видео: AVC/H.264, 1280x720, ~200 Kbps
Аудио: AAC, 2 ch, 126 Kbps

MediaInfo:

Общее
Полное имя : D:\PYTHON\codecamp - Профессия Python разработчик\Группа 201807 Python - Вводная Лекция 0.mp4
Формат : MPEG-4
Профиль формата : Base Media / Version 2
Идентификатор кодека : mp42 (isom/mp42)
Размер файла : 123 Мбайт
Продолжительность : 58 м. 4 с.
Режим общего битрейта : Переменный
Общий поток : 297 Кбит/сек
Дата кодирования : UTC 2018-06-17 01:15:08
Дата пометки : UTC 2018-06-17 01:15:08
gsst : 0
gstd : 3484781
Видео
Идентификатор : 1
Формат : AVC
Формат/Информация : Advanced Video Codec
Профиль формата : [url=mailto:[email protected]][email protected][/url]
Настройки формата : CABAC / 3 Ref Frames
Параметр CABAC формата : Да
Параметр RefFrames формата : 3 кадра
Идентификатор кодека : avc1
Идентификатор кодека/Информация : Advanced Video Coding
Продолжительность : 58 м. 4 с.
Битрейт : 168 Кбит/сек
Ширина : 1280 пикселей
Высота : 720 пикселей
Соотношение сторон : 16:9
Режим частоты кадров : Постоянный
Частота кадров : 30,000 кадров/сек
Цветовое пространство : YUV
Субдискретизация насыщенности : 4:2:0
Битовая глубина : 8 бит
Тип развёртки : Прогрессивная
Бит/(Пиксели*Кадры) : 0.006
Размер потока : 69,7 Мбайт (57%)
Заголовок : ISO Media file produced by Google Inc. Created on: 06/16/2018.
Дата кодирования : UTC 2018-06-17 01:15:08
Дата пометки : UTC 2018-06-17 01:15:08
Цветовой диапазон : Limited
Основные цвета : BT.709
Характеристики трансфера : BT.709
Коэффициенты матрицы : BT.709
Codec configuration box : avcC
Аудио
Идентификатор : 2
Формат : AAC LC
Формат/Информация : Advanced Audio Codec Low Complexity
Идентификатор кодека : mp4a-40-2
Продолжительность : 58 м. 4 с.
Вид битрейта : Переменный
Битрейт : 126 Кбит/сек
Каналы : 2 канала
ChannelLayout : L R
Частота : 44,1 КГц
Частота кадров : 43,066 кадра/сек (1024 SPF)
Метод сжатия : С потерями
Размер потока : 52,2 Мбайт (42%)
Заголовок : ISO Media file produced by Google Inc. Created on: 06/16/2018.
Дата кодирования : UTC 2018-06-17 01:15:08
Дата пометки : UTC 2018-06-17 01:15:08
Общее
Полное имя : D:\PYTHON\codecamp - Профессия Python разработчик\Группа 201807 Python - Лекция 1.mp4
Формат : MPEG-4
Профиль формата : Base Media / Version 2
Идентификатор кодека : mp42 (isom/mp42)
Размер файла : 212 Мбайт
Продолжительность : 1 ч. 48 м.
Режим общего битрейта : Переменный
Общий поток : 272 Кбит/сек
Дата кодирования : UTC 2018-06-21 23:20:13
Дата пометки : UTC 2018-06-21 23:20:13
gsst : 0
gstd : 6530008
Видео
Идентификатор : 1
Формат : AVC
Формат/Информация : Advanced Video Codec
Профиль формата : [url=mailto:[email protected]][email protected][/url]
Настройки формата : CABAC / 3 Ref Frames
Параметр CABAC формата : Да
Параметр RefFrames формата : 3 кадра
Идентификатор кодека : avc1
Идентификатор кодека/Информация : Advanced Video Coding
Продолжительность : 1 ч. 48 м.
Битрейт : 143 Кбит/сек
Ширина : 1280 пикселей
Высота : 720 пикселей
Соотношение сторон : 16:9
Режим частоты кадров : Переменный
Частота кадров : 30,000 кадров/сек
Минимальная частота кадров : 29,703 кадров/сек
Максимальная частота кадров : 30,000 кадров/сек
Цветовое пространство : YUV
Субдискретизация насыщенности : 4:2:0
Битовая глубина : 8 бит
Тип развёртки : Прогрессивная
Бит/(Пиксели*Кадры) : 0.005
Размер потока : 111 Мбайт (52%)
Заголовок : ISO Media file produced by Google Inc. Created on: 06/21/2018.
Дата кодирования : UTC 2018-06-21 23:20:13
Дата пометки : UTC 2018-06-21 23:20:13
Цветовой диапазон : Limited
Основные цвета : BT.709
Характеристики трансфера : BT.709
Коэффициенты матрицы : BT.470 System B/G
Codec configuration box : avcC
Аудио
Идентификатор : 2
Формат : AAC LC
Формат/Информация : Advanced Audio Codec Low Complexity
Идентификатор кодека : mp4a-40-2
Продолжительность : 1 ч. 48 м.
Вид битрейта : Переменный
Битрейт : 126 Кбит/сек
Каналы : 2 канала
ChannelLayout : L R
Частота : 44,1 КГц
Частота кадров : 43,066 кадра/сек (1024 SPF)
Метод сжатия : С потерями
Размер потока : 97,8 Мбайт (46%)
Заголовок : ISO Media file produced by Google Inc. Created on: 06/21/2018.
Дата кодирования : UTC 2018-06-21 23:20:13
Дата пометки : UTC 2018-06-21 23:20:13
Общее
Полное имя : D:\PYTHON\codecamp - Профессия Python разработчик\Группа 201807 Python - Лекция 2.mp4
Формат : MPEG-4
Профиль формата : Base Media / Version 2
Идентификатор кодека : mp42 (isom/mp42)
Размер файла : 213 Мбайт
Продолжительность : 1 ч. 51 м.
Режим общего битрейта : Переменный
Общий поток : 266 Кбит/сек
Дата кодирования : UTC 2018-06-24 19:45:02
Дата пометки : UTC 2018-06-24 19:45:02
gsst : 0
gstd : 6711542
Видео
Идентификатор : 1
Формат : AVC
Формат/Информация : Advanced Video Codec
Профиль формата : [url=mailto:[email protected]][email protected][/url]
Настройки формата : CABAC / 3 Ref Frames
Параметр CABAC формата : Да
Параметр RefFrames формата : 3 кадра
Идентификатор кодека : avc1
Идентификатор кодека/Информация : Advanced Video Coding
Продолжительность : 1 ч. 51 м.
Битрейт : 135 Кбит/сек
Ширина : 1280 пикселей
Высота : 720 пикселей
Соотношение сторон : 16:9
Режим частоты кадров : Постоянный
Частота кадров : 30,000 кадров/сек
Цветовое пространство : YUV
Субдискретизация насыщенности : 4:2:0
Битовая глубина : 8 бит
Тип развёртки : Прогрессивная
Бит/(Пиксели*Кадры) : 0.005
Размер потока : 108 Мбайт (51%)
Заголовок : ISO Media file produced by Google Inc. Created on: 06/24/2018.
Дата кодирования : UTC 2018-06-24 19:45:02
Дата пометки : UTC 2018-06-24 19:45:02
Цветовой диапазон : Limited
Основные цвета : BT.709
Характеристики трансфера : BT.709
Коэффициенты матрицы : BT.470 System B/G
Codec configuration box : avcC
Аудио
Идентификатор : 2
Формат : AAC LC
Формат/Информация : Advanced Audio Codec Low Complexity
Идентификатор кодека : mp4a-40-2
Продолжительность : 1 ч. 51 м.
Вид битрейта : Переменный
Битрейт : 128 Кбит/сек
Каналы : 2 канала
ChannelLayout : L R
Частота : 44,1 КГц
Частота кадров : 43,066 кадра/сек (1024 SPF)
Метод сжатия : С потерями
Размер потока : 102 Мбайт (48%)
Заголовок : ISO Media file produced by Google Inc. Created on: 06/24/2018.
Дата кодирования : UTC 2018-06-24 19:45:02
Дата пометки : UTC 2018-06-24 19:45:02
Общее
Полное имя : D:\PYTHON\codecamp - Профессия Python разработчик\Группа 201807 Python - Лекция 3.mp4
Формат : MPEG-4
Профиль формата : Base Media / Version 2
Идентификатор кодека : mp42 (isom/mp42)
Размер файла : 203 Мбайт
Продолжительность : 1 ч. 17 м.
Режим общего битрейта : Переменный
Общий поток : 365 Кбит/сек
Дата кодирования : UTC 2018-06-28 22:35:14
Дата пометки : UTC 2018-06-28 22:35:14
gsst : 0
gstd : 4676289
Видео
Идентификатор : 1
Формат : AVC
Формат/Информация : Advanced Video Codec
Профиль формата : [url=mailto:Ma[email protected]][email protected][/url]
Настройки формата : CABAC / 3 Ref Frames
Параметр CABAC формата : Да
Параметр RefFrames формата : 3 кадра
Идентификатор кодека : avc1
Идентификатор кодека/Информация : Advanced Video Coding
Продолжительность : 1 ч. 17 м.
Битрейт : 236 Кбит/сек
Ширина : 1280 пикселей
Высота : 720 пикселей
Соотношение сторон : 16:9
Режим частоты кадров : Постоянный
Частота кадров : 30,000 кадров/сек
Цветовое пространство : YUV
Субдискретизация насыщенности : 4:2:0
Битовая глубина : 8 бит
Тип развёртки : Прогрессивная
Бит/(Пиксели*Кадры) : 0.009
Размер потока : 131 Мбайт (65%)
Заголовок : ISO Media file produced by Google Inc. Created on: 06/28/2018.
Дата кодирования : UTC 2018-06-28 22:35:14
Дата пометки : UTC 2018-06-28 22:35:14
Цветовой диапазон : Limited
Основные цвета : BT.709
Характеристики трансфера : BT.709
Коэффициенты матрицы : BT.709
Codec configuration box : avcC
Аудио
Идентификатор : 2
Формат : AAC LC
Формат/Информация : Advanced Audio Codec Low Complexity
Идентификатор кодека : mp4a-40-2
Продолжительность : 1 ч. 17 м.
Вид битрейта : Переменный
Битрейт : 126 Кбит/сек
Каналы : 2 канала
ChannelLayout : L R
Частота : 44,1 КГц
Частота кадров : 43,066 кадра/сек (1024 SPF)
Метод сжатия : С потерями
Размер потока : 70,0 Мбайт (34%)
Заголовок : ISO Media file produced by Google Inc. Created on: 06/28/2018.
Дата кодирования : UTC 2018-06-28 22:35:14
Дата пометки : UTC 2018-06-28 22:35:14
Общее
Полное имя : D:\PYTHON\codecamp - Профессия Python разработчик\Группа 201807 Python - Лекция 4.mp4
Формат : MPEG-4
Профиль формата : Base Media / Version 2
Идентификатор кодека : mp42 (isom/mp42)
Размер файла : 163 Мбайт
Продолжительность : 1 ч. 23 м.
Режим общего битрейта : Переменный
Общий поток : 273 Кбит/сек
Дата кодирования : UTC 2018-07-01 19:37:38
Дата пометки : UTC 2018-07-01 19:37:38
gsst : 0
gstd : 5020757
Видео
Идентификатор : 1
Формат : AVC
Формат/Информация : Advanced Video Codec
Профиль формата : [url=mailto:[email protected]][email protected][/url]
Настройки формата : CABAC / 3 Ref Frames
Параметр CABAC формата : Да
Параметр RefFrames формата : 3 кадра
Идентификатор кодека : avc1
Идентификатор кодека/Информация : Advanced Video Coding
Продолжительность : 1 ч. 23 м.
Битрейт : 143 Кбит/сек
Ширина : 1280 пикселей
Высота : 720 пикселей
Соотношение сторон : 16:9
Режим частоты кадров : Переменный
Частота кадров : 30,000 кадров/сек
Минимальная частота кадров : 29,703 кадров/сек
Максимальная частота кадров : 30,000 кадров/сек
Цветовое пространство : YUV
Субдискретизация насыщенности : 4:2:0
Битовая глубина : 8 бит
Тип развёртки : Прогрессивная
Бит/(Пиксели*Кадры) : 0.005
Размер потока : 85,7 Мбайт (53%)
Заголовок : ISO Media file produced by Google Inc. Created on: 07/01/2018.
Дата кодирования : UTC 2018-07-01 19:37:38
Дата пометки : UTC 2018-07-01 19:37:38
Цветовой диапазон : Limited
Основные цвета : BT.709
Характеристики трансфера : BT.709
Коэффициенты матрицы : BT.470 System B/G
Codec configuration box : avcC
Аудио
Идентификатор : 2
Формат : AAC LC
Формат/Информация : Advanced Audio Codec Low Complexity
Идентификатор кодека : mp4a-40-2
Продолжительность : 1 ч. 23 м.
Продолжительность оригинала : 1 ч. 23 м.
Вид битрейта : Переменный
Битрейт : 126 Кбит/сек
Каналы : 2 канала
ChannelLayout : L R
Частота : 44,1 КГц
Частота кадров : 43,066 кадра/сек (1024 SPF)
Метод сжатия : С потерями
Размер потока : 75,2 Мбайт (46%)
Размер потока оригинала : 75,2 Мбайт (46%)
Заголовок : ISO Media file produced by Google Inc. Created on: 07/01/2018.
Дата кодирования : UTC 2018-07-01 19:37:38
Дата пометки : UTC 2018-07-01 19:37:38
Общее
Полное имя : D:\PYTHON\codecamp - Профессия Python разработчик\Группа 201807 Python - Лекция 5.mp4
Формат : MPEG-4
Профиль формата : Base Media / Version 2
Идентификатор кодека : mp42 (isom/mp42)
Размер файла : 225 Мбайт
Продолжительность : 1 ч. 21 м.
Режим общего битрейта : Переменный
Общий поток : 387 Кбит/сек
Дата кодирования : UTC 2018-07-03 20:29:00
Дата пометки : UTC 2018-07-03 20:29:00
gsst : 0
gstd : 4872010
Видео
Идентификатор : 1
Формат : AVC
Формат/Информация : Advanced Video Codec
Профиль формата : [url=mailto:[email protected]][email protected][/url]
Настройки формата : CABAC / 3 Ref Frames
Параметр CABAC формата : Да
Параметр RefFrames формата : 3 кадра
Идентификатор кодека : avc1
Идентификатор кодека/Информация : Advanced Video Coding
Продолжительность : 1 ч. 21 м.
Битрейт : 257 Кбит/сек
Ширина : 1280 пикселей
Высота : 720 пикселей
Соотношение сторон : 16:9
Режим частоты кадров : Переменный
Частота кадров : 30,000 кадров/сек
Минимальная частота кадров : 29,703 кадров/сек
Максимальная частота кадров : 30,000 кадров/сек
Цветовое пространство : YUV
Субдискретизация насыщенности : 4:2:0
Битовая глубина : 8 бит
Тип развёртки : Прогрессивная
Бит/(Пиксели*Кадры) : 0.009
Размер потока : 150 Мбайт (67%)
Заголовок : ISO Media file produced by Google Inc. Created on: 07/03/2018.
Дата кодирования : UTC 2018-07-03 20:29:00
Дата пометки : UTC 2018-07-03 20:29:00
Цветовой диапазон : Limited
Основные цвета : BT.709
Характеристики трансфера : BT.709
Коэффициенты матрицы : BT.470 System B/G
Codec configuration box : avcC
Аудио
Идентификатор : 2
Формат : AAC LC
Формат/Информация : Advanced Audio Codec Low Complexity
Идентификатор кодека : mp4a-40-2
Продолжительность : 1 ч. 21 м.
Вид битрейта : Переменный
Битрейт : 126 Кбит/сек
Каналы : 2 канала
ChannelLayout : L R
Частота : 44,1 КГц
Частота кадров : 43,066 кадра/сек (1024 SPF)
Метод сжатия : С потерями
Размер потока : 72,9 Мбайт (32%)
Заголовок : ISO Media file produced by Google Inc. Created on: 07/03/2018.
Дата кодирования : UTC 2018-07-03 20:29:00
Дата пометки : UTC 2018-07-03 20:29:00
Общее
Полное имя : D:\PYTHON\codecamp - Профессия Python разработчик\Группа 201807 Python - Лекция 6.mp4
Формат : MPEG-4
Профиль формата : Base Media / Version 2
Идентификатор кодека : mp42 (isom/mp42)
Размер файла : 189 Мбайт
Продолжительность : 1 ч. 28 м.
Режим общего битрейта : Переменный
Общий поток : 299 Кбит/сек
Дата кодирования : UTC 2018-07-08 19:31:22
Дата пометки : UTC 2018-07-08 19:31:22
gsst : 0
gstd : 5312005
Видео
Идентификатор : 1
Формат : AVC
Формат/Информация : Advanced Video Codec
Профиль формата : [url=mailto:[email protected]][email protected][/url]
Настройки формата : CABAC / 3 Ref Frames
Параметр CABAC формата : Да
Параметр RefFrames формата : 3 кадра
Идентификатор кодека : avc1
Идентификатор кодека/Информация : Advanced Video Coding
Продолжительность : 1 ч. 28 м.
Битрейт : 169 Кбит/сек
Ширина : 1280 пикселей
Высота : 720 пикселей
Соотношение сторон : 16:9
Режим частоты кадров : Переменный
Частота кадров : 30,000 кадров/сек
Минимальная частота кадров : 29,703 кадров/сек
Максимальная частота кадров : 30,000 кадров/сек
Цветовое пространство : YUV
Субдискретизация насыщенности : 4:2:0
Битовая глубина : 8 бит
Тип развёртки : Прогрессивная
Бит/(Пиксели*Кадры) : 0.006
Размер потока : 107 Мбайт (57%)
Заголовок : ISO Media file produced by Google Inc. Created on: 07/08/2018.
Дата кодирования : UTC 2018-07-08 19:31:22
Дата пометки : UTC 2018-07-08 19:31:22
Цветовой диапазон : Limited
Основные цвета : BT.709
Характеристики трансфера : BT.709
Коэффициенты матрицы : BT.470 System B/G
Codec configuration box : avcC
Аудио
Идентификатор : 2
Формат : AAC LC
Формат/Информация : Advanced Audio Codec Low Complexity
Идентификатор кодека : mp4a-40-2
Продолжительность : 1 ч. 28 м.
Вид битрейта : Переменный
Битрейт : 126 Кбит/сек
Каналы : 2 канала
ChannelLayout : L R
Частота : 44,1 КГц
Частота кадров : 43,066 кадра/сек (1024 SPF)
Метод сжатия : С потерями
Размер потока : 79,5 Мбайт (42%)
Заголовок : ISO Media file produced by Google Inc. Created on: 07/08/2018.
Дата кодирования : UTC 2018-07-08 19:31:22
Дата пометки : UTC 2018-07-08 19:31:22

Дополнительная информация:

Содержание:
1 неделя
Язык Python
Изучим основы языка, работу с числами, строками, списками, переменными, ввод и вывод информации, а так же форматированием строк
2 неделя
Основы ООП
Освоим что такое конструктор, атрибуты класса и методы и изучим как устроены классы и полиморфизм и некоторые другие магические методы
3 неделя
Тестирование и отладка
Научимся работать с отладчиком winpdb, подключать модули и работать с пакетом pip и использование сторонних библиотек
4 неделя
Веб-приложение на Flask
Спроекцируем и создадим свое приложение с формами на сайте, наследованием шаблонов, а так же подключим bootstrap
5 неделя
Развертывание приложения
Развернем приложение на внешнем хостинге, а так же научимся работать с ассетами. Подключим mail server для работы с электронной почтой
6 неделя
Базы данных и SQL
Освоим СУБД, связь моделей данных, изучим миграции откаты БД и как создавать модели данных
Важно!!!
В раздаче уроки заканчиваются на 4 неделе. Как я понял бегло просмотрев видео.
В описании курса на оф.сайте сказано про изучение Django на 4 неделе. В этом курсе пишется приложение на Flask.
Курс раздаю "как есть". Дополнительных материалов к курсу и недостающих видеоуроков для 5 и 6 недели у меня нету
Друзья, если у кого-то из участников клуба есть недостающие уроки, или полный видеокурс - поделитесь
Судя по описаниям курс интересный.
Стоимость курса ориентировочно 18000 RUR. Вроде как такая информация поступала от преподавателя.
Скриншоты:
       

Дополнительные скриншоты:

       
       
   

}{@R0N

Post 25-Jun-2019 00:07

[Quote]

Павел Косенко | Как научиться видеть цвет - Автор (режиссер): Павел Косенко
Производство: Liveclasses.ru
Жанр: Обучающее видео, колористика
Описание:
Мастер-класс гуру цветной фотографии Павла Косенко для тех, кто хочет научиться видеть цвет, снимать и обрабатывать цветные фотографии.
Широко распространено мнение, что хороший цвет фотографии приобретают в Adobe Photoshop. Это, конечно, не так, хотя компьютерная обработка способна подчеркнуть достоинства снимков. Однако, для получения хорошего цвета, его необходимо сфотографировать. А перед этим — увидеть. Именно в этом кроется «секрет» мировых шедевров цветной фотографии.
Продолжительность: 03:03:45
Качество видео: HDRip
Видео: AVC, 1280х720, ~2400 Kbps
Аудио: AAC, 1 ch, 192 Kbps

MediaInfo:

Format                      : MPEG-4
Format profile : Base Media / Version 2
Codec ID : mp42 (mp42/isom)
File size : 162 MiB
Duration : 8 min 37 s
Overall bit rate mode : Variable
Overall bit rate : 2 618 kb/s
Encoded date : UTC 2018-09-06 22:43:15
Tagged date : UTC 2018-09-06 22:43:16
Video
ID : 1
Format : AVC
Format/Info : Advanced Video Codec
Format profile : [url=mailto:[email protected]][email protected][/url]
Format settings : CABAC / 4 Ref Frames
Format settings, CABAC : Yes
Format settings, ReFrames : 4 frames
Codec ID : avc1
Codec ID/Info : Advanced Video Coding
Duration : 8 min 37 s
Bit rate : 2 400 kb/s
Width : 1 280 pixels
Height : 720 pixels
Display aspect ratio : 16:9
Frame rate mode : Constant
Frame rate : 25.000 FPS
Color space : YUV
Chroma subsampling : 4:2:0
Bit depth : 8 bits
Scan type : Progressive
Bits/(Pixel*Frame) : 0.104
Stream size : 149 MiB (93%)
Writing library : x264 core 148
Encoding settings : cabac=1 / ref=3 / deblock=1:0:0 / analyse=0x3:0x113 / me=hex / subme=7 / psy=1 / psy_rd=1.00:0.00 / mixed_ref=1 / me_range=16 / chroma_me=1 / trellis=1 / 8x8dct=1 / cqm=0 / deadzone=21,11 / fast_pskip=1 / chroma_qp_offset=-2 / threads=22 / lookahead_threads=3 / sliced_threads=0 / nr=0 / decimate=1 / interlaced=0 / bluray_compat=0 / constrained_intra=0 / bframes=3 / b_pyramid=2 / b_adapt=1 / b_bias=0 / direct=1 / weightb=1 / open_gop=0 / weightp=2 / keyint=90 / keyint_min=9 / scenecut=40 / intra_refresh=0 / rc_lookahead=40 / rc=abr / mbtree=1 / bitrate=2400 / ratetol=1.0 / qcomp=0.60 / qpmin=0 / qpmax=69 / qpstep=4 / ip_ratio=1.40 / aq=1:1.00
Encoded date : UTC 2018-09-06 22:43:15
Tagged date : UTC 2018-09-06 22:43:16
Color range : Limited
Color primaries : BT.709
Transfer characteristics : BT.709
Matrix coefficients : BT.709
Codec configuration box : avcC
Audio
ID : 2
Format : AAC LC
Format/Info : Advanced Audio Codec Low Complexity
Codec ID : mp4a-40-2
Duration : 8 min 37 s
Duration_FirstFrame : 3 s 679 ms
Bit rate mode : Variable
Bit rate : 192 kb/s
Channel(s) : 2 channels
Channel layout : L R
Sampling rate : 44.1 kHz
Frame rate : 43.066 FPS (1024 SPF)
Compression mode : Lossy
Stream size : 11.8 MiB (7%)
Title : Stereo
Language : English
Encoded date : UTC 2018-09-06 22:43:15
Tagged date : UTC 2018-09-06 22:43:16

Содержание:

Невозможно хорошо петь, не имея музыкального слуха. Точно также невозможно делать хорошие цветные фотографии без умения видеть и чувствовать цвет. Слух развивают с помощью сольфеджио — специальных вокальных упражнений. Для того, чтобы развить цветовое видение, необходимы визуальные тренировки, построенные на вглядывании, рассматривании и обсуждении увиденного. Именно этому посвящен мастер-класс.
• Что такое хороший цвет?
• Чем отличается цветная фотография от фотографии, сделанной на цветной фотоаппарат?
• Как научиться видеть цвет и передавать цветовые ощущения в фотографии?
• В чем заключаются «секреты» обработки фотографий?
• Как настроить фотоаппарат для получения более эффектных цветных снимков?
• Почему на пленку цвет получается лучше и как это использовать в цифровой фотографии?
Вы получите ответы на эти и многие другие вопросы. На мастер-классе вы познакомитесь с теорией цвета и принципами цветовой гармонии, — узнаете о том, что делает цветную фотографию интересной, как цвет связан со смысловым и композиционным содержанием кадра. Приобретете визуальный опыт, необходимый для развития чувства цвета. Научитесь мыслить в цвете, творчески его использовать, снимать и обрабатывать цветные фотографии.
Содержание:
01.Что такое цвет
02.Восприятие цвета и цветовые иллюзии
03.Вариативность как основа цветовой выразительности
04.Цветовое тело человека
05.Насыщенность цвета
06.К чему приводит повышение насыщенности
07.Гармония цвета
08.Кадрирование — основной инструмент цветного фотографа
09.Куда смотреть чтобы увидеть цвет
10.Цветовые рефлексы
11.Больше грязи — больше связи
12.Почему можно и нужно снимать в полдень
13.Плохая погода — друг цветного фотографа
14.Вечер, ночь — цветное время
15.Как ходить в музеи
16.Художники работающие в цвете
17.Пол Джексон Поллок или почему ваш ребёнок не нарисует также
18.Ретро-фотографии
19.Киноцвет
20.Фотографы работающие в цвете
21.Как обрабатывать фото, если вы снимаете в JPEG
22.Как обрабатывать фото, если вы снимаете в Raw
Скриншоты:
     

}{@R0N

Post 23-Jun-2019 14:49

[Quote]

Skill.im | PowerPoint 2013/2016 [Базовый + Продвинутый курс] - Автор (режиссер): Skill.im
Жанр: Видеокурс
Ведёт: Екатерина Нечипоренко
Описание:
Обучение PowerPoint от образовательного проекта Skill.im – это пошаговая подготовка опытных пользователей ПК, которым нужно в короткие сроки освоить работу в этой программе.
Курс по Microsoft Powerpoint состоит из нескольких уроков. В процессе обучения вы освоите интерфейс и настройку дизайна презентации. Научитесь делать свои презентации интереснее и понятнее, а также многому другому.
Продолжительность: 08:24:17
Качество видео: PCRec
Видео: AVC/H.264, 1280x720, ~1598 Kbps
Аудио: AAC, 2 ch, 192 Kbps

MediaInfo:

General
Complete name : C:\Users\admin\Desktop\PowerPoint 20132016\Пpoдвинутый\PowerPoint 2013-2016 Продвинутый курс\Раздел №04. Использование таблиц\31. Форматирование стиля таблицы.mp4
Format : MPEG-4
Codec ID : M4V (M4V /mp42/isom)
File size : 47.2 MiB
Duration : 3 min 40 s
Overall bit rate mode : Variable
Overall bit rate : 1 794 kb/s
Encoded date : UTC 2016-02-15 11:39:57
Tagged date : UTC 2016-02-15 11:39:57
©TIM : 00:00:00:00
©TSC : 30
©TSZ : 1
Video
ID : 1
Format : AVC
Format/Info : Advanced Video Codec
Format profile : [url=mailto:[email protected]][email protected][/url]
Format settings, CABAC : No
Format settings, ReFrames : 2 frames
Format settings, GOP : M=1, N=30
Codec ID : avc1
Codec ID/Info : Advanced Video Coding
Duration : 3 min 40 s
Bit rate : 1 598 kb/s
Width : 1 280 pixels
Height : 720 pixels
Display aspect ratio : 16:9
Frame rate mode : Constant
Frame rate : 30.000 FPS
Standard : NTSC
Color space : YUV
Chroma subsampling : 4:2:0
Bit depth : 8 bits
Scan type : Progressive
Bits/(Pixel*Frame) : 0.058
Stream size : 42.0 MiB (89%)
Language : English
Encoded date : UTC 2016-02-15 11:39:57
Tagged date : UTC 2016-02-15 11:39:57
Color range : Limited
Color primaries : BT.709
Transfer characteristics : BT.709
Matrix coefficients : BT.709
Audio
ID : 2
Format : AAC
Format/Info : Advanced Audio Codec
Format profile : LC
Codec ID : 40
Duration : 3 min 40 s
Source duration : 3 min 40 s
Bit rate mode : Variable
Bit rate : 192 kb/s
Maximum bit rate : 308 kb/s
Channel(s) : 2 channels
Channel positions : Front: L R
Sampling rate : 48.0 kHz
Frame rate : 46.875 FPS (1024 spf)
Compression mode : Lossy
Stream size : 4.98 MiB (11%)
Source stream size : 4.98 MiB (11%)
Language : English
Encoded date : UTC 2016-02-15 11:39:57
Tagged date : UTC 2016-02-15 11:39:57

Содержание:

PowerPoint 2013-2016 Базовый курс
Раздел №01. Начало работы с программой
Раздел №02. Создание презентации
Раздел №03. Настройка дизайна презентации
Раздел №04. Использование структуры в PowerPoint
Раздел №05. Работа с текстом
Раздел №06. Работа с объектами
PowerPoint 2013-2016 Продвинутый курс
Раздел №01. Фигуры и инструменты рисования
Раздел №02. Изображения в PowerPoint
Раздел №03. SmartArt
Раздел №04. Использование таблиц
Раздел №05. Графики и диаграммы
Раздел №06. Использование мультимедиа
Раздел №07. Анимация и переходы
Раздел №08. Распространение презентации
Раздел №09. Демонстрация презентации
Скриншоты:
       

darkos_bot

Post 21-Jun-2019 23:42

[Quote]

Skill.im | MS Word 2016 [Полный курс] (2018) PCRec [H.264/720p-LQ]- Автор (режиссер): Skill.im
Жанр: Видеокурс
Ведёт: Екатерина Нечипоренко
Описание:
Просмотрев этот видеокурс вы сделате Word своим верным помощником, с помощью которого вы сможете решать почти любые задачи - легко, быстро и профессионально.
Вы изучите все главные функции редактора, научитесь редактированию и форматированию документов, освоите работу со списками и шрифтами.
Продолжительность: 15:07:12
Качество видео: PCRec
Видео: AVC/H.264, 1280x720, ~255 kbps
Аудио: AAC, 2 ch, 107 kbps

Содержание:

MS Word 2016, базовый курс

В этом курсе Вы узнаете:
Как работать в ворде?
Как создать новый документ?
Как сделать абзац?
Как убрать выделение текста?
Как сделать отступ?
Как поставить ударение?
Как скопировать и вставить текст?
Как открыть буфер обмена?
Как добавить и убрать выделение текста цветом?
Как сделать красную строку?
Содержание:
Раздел №1. Знакомство с MS Word 2016
1. Гид по интерфейсу 04 : 35
2. Навигация по документу 02 : 43
3. Режимы просмотра документа 03 : 33
4. Панель быстрого доступа 03 : 02
Раздел №2. Первые шаги
5. Создание нового документа 03 : 10
6. Наполнение документа текстом 01 : 54
7. Сохранение документа 04 : 04
8. Сохранение документов на OneDrive 01 : 37
9. Открытие документа 02 : 44
10. Сохранение документа в других форматах 02 : 08
11. Сохранение документа в PDF формате 02 : 53
12. Недавние документы 02 : 51
Раздел №3. Базовое редактирование документа
13. Выделение текста 05 : 05
14. Удаление текста 03 : 41
15. Команды "Отменить", "Вернуть" и "Повторить" 04 : 03
16. Добавление отступов 04 : 33
17. Вставка символов 02 : 44
18. Команды "Копировать" и "Вставить" 03 : 27
19. Вставка текста с учетом форматирования 03 : 18
20. Команда "Вырезать" 02 : 45
21. Буфер обмена 05 : 05
Раздел №4. Форматирование текста
22. Выбор шрифта 03 : 27
23. Изменение регистра 02 : 13
24. Начертания 04 : 08
25. Выделение цветом и зачеркивание текста 03 : 01
26. Подстрочный и надстрочный знаки 03 : 38
27. Цвет текста 03 : 55
28. Текстовые эффекты 03 : 36
Раздел №5. Форматирование абзаца
29. Выравнивание абзаца 03 : 07
30. Настройка отступов абзаца 05 : 28
31. Отступы между абзацами 04 : 27
32. Междустрочный интервал 02 : 22
33. Фон абзаца 02 : 01
34. Границы абзаца 04 : 03
35. Форматирование по образцу 04 : 28
Раздел №6. Работа со списками
36. Создание списков 05 : 07
37. Настройка отступов списка 03 : 22
38. Настройка маркеров 03 : 20
39. Настройка нумерации 03 : 08
40. Дополнительные параметры нумерации 01 : 38
Раздел №7. Настройка страницы и печать
41. Размер страницы 02 : 20
42. Ориентация страницы 02 : 29
43. Настройка полей 03 : 12
44. Зеркальные поля 02 : 25
45. Автоматическая расстановка переносов 02 : 06
46. Расстановка переносов вручную 01 : 31
47. Неразрывный пробел и неразрывный дефис 02 : 27
48. Текстовая подложка 03 : 20
49. Подложка в виде рисунка 01 : 39
50. Колонки текста 02 : 44
51. Настройка ширины колонок 02 : 57
52. Разрыв колонки 02 : 21
53. Фон страницы. Градиентная заливка 03 : 38
54. Фон страницы. Другие способы заливки 02 : 10
55. Границы страницы 02 : 48
56. Предпросмотр и печать документа 03 : 06
57. Настройка печати 03 : 13
58. Дополнительные возможности печати 02 : 42

MS Word 2016, продвинутый курс

В этом курсе Вы узнаете:
Как настроить проверку правописания?
Как создавать многоуровневые списки?
Что такое табуляция, для чего она нужна и как ею правильно пользоваться?
Что такое колонтитулы и какую информацию можно в них добавить?
Какие объекты можно добавить в документ и как с ними работать?
Что такое SmartArt и в чем его польза?
Как создавать таблицы и диаграммы?
Как правильно проводить поиск по документу?
Содержание:
Раздел №1. Проверка правописания и автозамена
1. Автоматическая проверка правописания 05 : 01
2. Проверка орфографии и грамматики 02 : 35
3. Возможности автозамены 03 : 15
4. Добавление и удаление слов в списке автозамены 03 : 42
5. Отключение автозамены 05 : 06
6. Функция «Отобразить все знаки» 03 : 07
Раздел №2. Многоуровневые списки
7. Создание многоуровневых списков 03 : 43
8. Создание собственного многоуровневого списка 05 : 16
9. Определение нового стиля многоуровневого списка 06 : 40
Раздел №3. Табуляция
10. Позиции табуляции по умолчанию 03 : 50
11. Настройка собственных позиций табуляции 03 : 14
12. Виды табуляции 04 : 07
13. Диалоговое окно табуляции 04 : 26
14. Использование заполнителей 02 : 27
Раздел №4. Автотекст
15. Создание, сохранение и использование фрагментов ... 04 : 41
16. Редактирование и удаление фрагментов авто-текста 02 : 49
Раздел №5. Колонтитулы
Купить раздел грн.
17. Что такое колонтитулы 02 : 04
18. Добавление информации в колонтитулы 03 : 10
19. Редактирование, табуляция и положение колонтитул... 02 : 24
20. Добавление объектов в колонтитул 02 : 45
21. Нумерация страниц 02 : 35
22. Особый колонтитул для первой страницы 02 : 11
23. Разные колонтитулы на четных и нечетных страницах 03 : 23
Раздел №6. Работа с объектами
24. Выделение объектов 03 : 51
25. Изменение размера объектов 03 : 00
26. Перемещение объектов 01 : 51
27. Поворот объектов 02 : 33
28. Обтекание и положение объекта 04 : 22
29. Порядок объектов 01 : 36
30. Область выделения 02 : 51
31. Выравнивание объектов 04 : 34
32. Сетка 02 : 01
33. Группировка объектов 02 : 54
Раздел №7. Фигуры
34. Вставка фигуры 05 : 23
35. Изменение конфигурации фигур 02 : 03
36. Копирование, преобразование и удаление фигур 02 : 22
37. Блок-схемы и полотно 05 : 25
38. Форматирование фигур. Стили 01 : 53
39. Форматирование фигур. Заливка, контур, эффекты 04 : 29
40. Форматирование фигур. Дополнительные возможности 03 : 08
41. Добавление текста к фигурам 02 : 59
42. WordArt 02 : 55
Раздел №8. Изображения
43. Добавление изображения 03 : 25
44. Добавление скриншотов 02 : 26
45. Обрезка изображения 04 : 02
46. Удаление обрезанных областей 02 : 11
47. Удаление фона 02 : 32
48. Коррекция и цвет изображения 03 : 49
49. Эффекты и стили изображения 02 : 41
Раздел №9. SmartArt
50. Добавление SmartArt 02 : 52
51. Текст и картинки в SmartArt 02 : 37
52. Добавление и перемещение фигур 02 : 39
53. Работа с иерархией 03 : 54
54. Изменение макета 02 : 34
55. Изменение стиля всего объекта 02 : 13
56. Изменение стиля отдельных фигур 03 : 11
Раздел №10. Таблицы (базовые свойства)
57. Создание таблиц 03 : 51
58. Удаление таблиц 01 : 48
59. Ввод данных 03 : 02
60. Выделение ячеек 03 : 43
61. Добавление строк и столбцов 02 : 56
62. Удаление строк и столбцов 01 : 33
63. Изменение размера ячеек вручную 02 : 45
64. Автоподбор ширины столбцов 02 : 35
65. Другие способы настройки размера ячеек 01 : 38
66. Объединение ячеек 02 : 45
67. Разделение ячеек 06 : 28
68. Форматирование стиля таблиц 03 : 54
69. Изменение заливки и границ 04 : 13
70. Дополнительные возможности форматирования таблиц 03 : 35
71. Форматирование текста в таблицах 03 : 20
Раздел №11. Диаграммы
72. Создание диаграммы 05 : 03
73. Другие виды диаграмм 03 : 48
74. Использование данных Excel для диаграмм 02 : 24
75. Изменение типа диаграммы 01 : 48
76. Изменение данных в диаграмме 04 : 28
77. Форматирование диаграмм 04 : 07
78. Форматирование отдельных элементов диаграммы 03 : 11
79. Дополнительные параметры форматирования 04 : 28
Раздел №12. Поиск и замена в документе
80. Поиск по документу 04 : 31
81. Расширенный поиск 04 : 57
82. Команда «Заменить» 01 : 52

MS Word 2016, мастерский

В этом курсе Вы узнаете:
Что такое стили и как с ними работать?
Как упростить себе работу с большими таблицами?
Как проводить вычисления прямо в таблице Word?
Как настроить слияние, которое помогает создавать письма для рассылок?
Каким образом избежать путаницы при работе над документом с кем-то еще?
Как добавить ссылки в свой документ?
Как создать оглавление и список источников в Word?
С помощью каких инструментов можно упростить работу над большими документами?
Как защитить свой документ от просмотра и редактирования?
Содержание:
Раздел №1. Стили и темы
1. Что такое стиль 04 : 52
2. Стили заголовков 03 : 53
3. Панель навигации. Перемещение по документу 03 : 20
4. Панель навигации. Работа со структурой 03 : 33
5. Панель навигации. Дополнительные возможности 02 : 22
6. Изменение стилей 02 : 59
7. Создание нового стиля 04 : 25
8. Создание стиля на основе отформатированного текста 02 : 23
9. Типы стилей текста – применение 05 : 53
10. Сочетание стилей разных типов 03 : 38
11. Смена стилей и удаление форматирования 01 : 52
12. Тема документа 02 : 09
13. Настройка темы 01 : 53
14. Дополнительные возможности настройки темы 02 : 53
Раздел №2. Расширенные свойства таблиц
15. Использование табуляции в таблицах 02 : 41
16. Добавление формул в таблицу 03 : 29
17. Обновление результата в формуле и просмотр форму... 03 : 12
18. Редактирование и отключение формул 02 : 10
19. Формулы с аргументом в виде диапазона 03 : 36
20. Повторение заголовков колонок на нескольких стра... 02 : 49
21. Контроль разрыва таблицы 02 : 56
22. Сортировка столбцов по данным 04 : 09
Раздел №3. Настройка слияний
23. Что такое слияние? 02 : 39
24. Пошаговый мастер слияний 05 : 13
25. Слияние документа с существующим списком данных 03 : 36
26. Путь к источнику данных при слиянии 04 : 02
27. Изменение источника данных 02 : 11
28. Сортировка данных 03 : 08
29. Фильтрация данных 04 : 45
30. Поиск и удаление дубликатов в данных слияния 02 : 46
31. Редактирование данных слияния в Word 04 : 04
32. Динамическое слияние с полем "Если" 03 : 42
33. Блок адреса и строка приветствия 03 : 46
Раздел №4. Организация совместной работы над документом
34. Совместная работа над документом и изменение инф... 03 : 19
35. Сравнение изменений 04 : 04
36. Объединение исправлений от нескольких авторов 03 : 42
37. Запись исправлений и добавление примечаний в док... 03 : 56
38. Проверка исправлений и примечаний 03 : 33
Раздел №5. Добавление ссылок
39. Добавление подписей 04 : 16
40. Добавление перекрестных ссылок 04 : 37
41. Обновление перекрестных ссылок 02 : 01
42. Добавление закладок 03 : 45
43. Добавление гиперссылок 04 : 50
44. Добавление сносок 03 : 57
45. Добавление концевых сносок 01 : 38
46. Добавление источников 04 : 34
47. Управление источниками 03 : 49
48. Добавление и обновление списка литературы 04 : 16
Раздел №6. Облегчение управления большим документом
49. Добавление титульной страницы 04 : 08
50. Добавление оглавления 03 : 56
51. Обновление оглавления 02 : 23
52. Изменение внешнего вида оглавления 02 : 34
53. Добавление вспомогательных списков 03 : 50
54. Добавление алфавитного указателя 04 : 01
55. Добавление дополнительных элементов, перекрестны... 04 : 21
56. Создание алфавитного указателя с помощью списка ... 03 : 16
Раздел №7. Защита документа
57. Защита от просмотра и редактирования документа с... 04 : 02
58. Ограничения на редактирование документа 04 : 25
59. Защита отдельных частей документа 03 : 25
60. Запрет форматирования и пометка окончательного д... 03 : 46

MediaInfo:

General
Complete name : C:\Users\admin\Desktop\Wоrd_2016\3. Мастерский курс\1. Что такое стиль.MP4
Format : MPEG-4
Format profile : Base Media
Codec ID : isom (isom/iso2/avc1/mp41)
File size : 12.9 MiB
Duration : 4 min 52 s
Overall bit rate mode : Variable
Overall bit rate : 372 kb/s
Writing application : Lavf57.41.100
Video
ID : 1
Format : AVC
Format/Info : Advanced Video Codec
Format profile : [url=mailto:[email protected]][email protected][/url]
Format settings, CABAC : Yes
Format settings, ReFrames : 4 frames
Codec ID : avc1
Codec ID/Info : Advanced Video Coding
Duration : 4 min 52 s
Bit rate : 255 kb/s
Width : 1 280 pixels
Height : 720 pixels
Display aspect ratio : 16:9
Frame rate mode : Constant
Frame rate : 29.970 (29970/1000) FPS
Color space : YUV
Chroma subsampling : 4:2:0
Bit depth : 8 bits
Scan type : Progressive
Bits/(Pixel*Frame) : 0.009
Stream size : 8.90 MiB (69%)
Writing library : x264 core 148
Encoding settings : cabac=1 / ref=3 / deblock=1:0:0 / analyse=0x3:0x113 / me=hex / subme=7 / psy=1 / psy_rd=1.00:0.00 / mixed_ref=1 / me_range=16 / chroma_me=1 / trellis=1 / 8x8dct=1 / cqm=0 / deadzone=21,11 / fast_pskip=1 / chroma_qp_offset=-2 / threads=3 / lookahead_threads=1 / sliced_threads=0 / nr=0 / decimate=1 / interlaced=0 / bluray_compat=0 / constrained_intra=0 / bframes=3 / b_pyramid=2 / b_adapt=1 / b_bias=0 / direct=1 / weightb=1 / open_gop=0 / weightp=2 / keyint=250 / keyint_min=25 / scenecut=40 / intra_refresh=0 / rc_lookahead=40 / rc=crf / mbtree=1 / crf=22.0 / qcomp=0.60 / qpmin=0 / qpmax=69 / qpstep=4 / ip_ratio=1.40 / aq=1:1.00
Language : English
Audio
ID : 2
Format : AAC
Format/Info : Advanced Audio Codec
Format profile : LC
Codec ID : 40
Duration : 4 min 52 s
Duration_LastFrame : -1 ms
Bit rate mode : Variable
Bit rate : 108 kb/s
Maximum bit rate : 128 kb/s
Channel(s) : 2 channels
Channel positions : Front: L R
Sampling rate : 44.1 kHz
Frame rate : 43.066 FPS (1024 spf)
Compression mode : Lossy
Stream size : 3.75 MiB (29%)
Language : English
Default : Yes
Alternate group : 1
Скриншоты:
       

}{@R0N

Post 21-Jun-2019 14:08

[Quote]

Илья Нодия | Anti Master Class - Автор (режиссер): Илья Нодия
Производство: https://nodia.photo/
Жанр: Мастер-класс
Описание:
Бесплатный мастер-класс Ильи Нодиа по созданию атмосферных фото-историй.
В мастер-классе подробно рассмотрены все аспекты - от идеи до финальной обработки.
Продолжительность: 01:36:56
Качество видео: HDRip
Видео: AVC/H.264, 1920х1080, ~10.3 Mbps
Аудио: AAC, 2 ch, 414 Kbps

Mediainfo:

Format                                   : MPEG-4
Format profile : Base Media / Version 2
Codec ID : mp42 (mp42/mp41)
Overall bit rate mode : Variable
Overall bit rate : 10.3 Mb/s
Encoded date : UTC 2019-06-05 08:13:57
Tagged date : UTC 2019-06-05 08:14:34
TIM : 00:00:00:00
TSC : 25
TSZ : 1
Video
ID : 1
Format : AVC
Format/Info : Advanced Video Codec
Format profile : [url=mailto:[email protected]][email protected][/url]
Format settings : CABAC / 2 Ref Frames
Format settings, CABAC : Yes
Format settings, ReFrames : 2 frames
Format settings, GOP : M=3, N=25
Codec ID : avc1
Codec ID/Info : Advanced Video Coding
Bit rate mode : Variable
Bit rate : 10.0 Mb/s
Maximum bit rate : 12.0 Mb/s
Width : 1 920 pixels
Height : 1 080 pixels
Display aspect ratio : 16:9
Frame rate mode : Constant
Frame rate : 25.000 FPS
Color space : YUV
Chroma subsampling : 4:2:0
Bit depth : 8 bits
Scan type : Progressive
Bits/(Pixel*Frame) : 0.193
Codec configuration box : avcC
Audio
ID : 2
Format : AAC LC
Format/Info : Advanced Audio Codec Low Complexity
Codec ID : mp4a-40-2
Bit rate mode : Variable
Bit rate : 317 kb/s
Maximum bit rate : 414 kb/s
Channel(s) : 2 channels
Channel layout : L R
Sampling rate : 48.0 kHz
Frame rate : 46.875 FPS (1024 SPF)
Compression mode : Lossy

Дополнительная информация:

От автора:
Привет!
Если вы добрались до этих строк, то в ваших руках оказался полный набор материалов июньского Анти-МК.
В первой части видео я рассказываю про своё оборудование, о том как я готовлюсь к съемке, а затем беру вас на съемочную площадку, где работаю со вспышками, режиссирую сцены, работаю с моделями и всё такое.Во второй части вы увидите обработку двух ключевых кадров серии –от работы с цветом до монтажа. Мне бы хотелось, чтобы вы воспринимали это
не как технический урок с цифрами, ползунками и инструментами, а поняли саму последовательность действий.
Я так же оставил для вас .psd-файлы в слоях, которые вы можете посмотреть и разобрать, а затем повторить эти действия самостоятельно, используя .RAW-исходники остальных фотографий со съемки и сравнить с моим результатом.
Список оборудования на площадке:
Камеры:Sony A7R3 / Sony A7M3;
Объективы: Sigma 50mm f/1.4 DG HSM Art Sony E / Sony Carl Zeiss Sonnar T* 35mm f/2.8 ZA;
Вспышки: GodoxAD-600 BM;
Синхронизация:GodoxX1T-S;
Октабокс: Jinbei KC-140;
Штатив: Manfrotto055XPRO3;
Стойки: Falcon Eyes L-2900;
Рации:HyteraTC-508;
Скриншоты:
       

darkos_bot

Post 21-Jun-2019 12:52

[Quote]

john2994 писал(а):
Раздайте плиз
перезалил торрент, должно скачаться, но не забудьте включить DHT
Вот умник, вчера скачал - Сергей Змеев | Хозяин Судьбы 20.12 (2012) DVDRip [H.264], на раздаче не остался, но сегодня просит раздать, если все будут такие огородники, кто же тогда раздавать то будет? Новые поколения на трекерах блин, с таким зачем государствам бороться с торрент трекерами, они сами скоро умрут, ибо нарушается сам смысл их существования...
Не будешь сидировать, забаню по реальному айпишнику, и больше тут качать не сможешь...

john2994

Post 21-Jun-2019 12:37

[Quote]

Раздайте плиз

}{@R0N

Post 19-Jun-2019 17:41

[Quote]

itproger | Изучение C# от новичка до профи - Автор (режиссер): Гоша Дударь
Производство: itproger
Жанр: Программирование, C#
Описание:
Курс по C# рассчитан на новичков, которые хотят изучить язык. Курс состоит из трёх частей, в которых вы научитесь: писать код на C#, создавать консольные программы, разрабатывать полноценные программы под Windows с дизайном и подключением к БД, а также создавать веб сайты на ASP.NET и публиковать их в Интернете.
Продолжительность: 15:28:51
Качество видео: PCRec
Видео: AVC/H.264, 1920x1080, ~249-2944 Kbps
Аудио: AAC, 2 ch, 110-128 Kbps

MediaInfo:

Общее
Полное имя : .\#1 - Изучение языка C#\#7 - Работа с файлами и исключения\#7 - Работа с файлами и исключения.mp4
Формат : MPEG-4
Профиль формата : Base Media / Version 2
Идентификатор кодека : mp42 (mp41/mp42/isom)
Размер файла : 446 Мбайт
Продолжительность : 34 м. 0 с.
Режим общего битрейта : Переменный
Общий поток : 1834 Кбит/сек
Название фильма : C#
Movie_More : Введите тут описание своего видео C#
Дата кодирования : UTC 2019-01-26 09:38:11
Дата пометки : UTC 2019-01-26 09:53:57
thmb : яШяа
Видео
Идентификатор : 2
Формат : AVC
Формат/Информация : Advanced Video Codec
Профиль формата : [email protected]
Настройки формата : CABAC / 2 Ref Frames
Параметр CABAC формата : Да
Параметр RefFrames формата : 2 кадра
Параметр GOP формата : M=1, N=30
Идентификатор кодека : avc1
Идентификатор кодека/Информация : Advanced Video Coding
Продолжительность : 34 м. 0 с.
Вид битрейта : Переменный
Битрейт : 1716 Кбит/сек
Максимальный битрейт : 768 Кбит/сек
Ширина : 1920 пикселей
Высота : 1080 пикселей
Соотношение сторон : 16:9
Режим частоты кадров : Постоянный
Частота кадров : 29,970 (30000/1001) кадров/сек
Цветовое пространство : YUV
Субдискретизация насыщенности : 4:2:0
Битовая глубина : 8 бит
Тип развёртки : Прогрессивная
Бит/(Пиксели*Кадры) : 0.028
Размер потока : 417 Мбайт (94%)
Заголовок : Core Media Video
Дата кодирования : UTC 2019-01-26 09:38:11
Дата пометки : UTC 2019-01-26 09:53:57
Цветовой диапазон : Limited
Основные цвета : BT.709
Характеристики трансфера : BT.709
Коэффициенты матрицы : BT.709
Codec configuration box : avcC
Аудио
Идентификатор : 1
Формат : AAC LC
Формат/Информация : Advanced Audio Codec Low Complexity
Идентификатор кодека : mp4a-40-2
Продолжительность : 34 м. 0 с.
Продолжительность оригинала : 34 м. 0 с.
Вид битрейта : Постоянный
Битрейт : 114 Кбит/сек
Номинальный битрейт : 128 Кбит/сек
Каналы : 2 канала
Channel layout : L R
Частота : 48,0 КГц
Частота кадров : 46,875 кадров/сек (1024 SPF)
Метод сжатия : С потерями
Размер потока : 27,8 Мбайт (6%)
Размер потока оригинала : 27,8 Мбайт (6%)
Заголовок : Core Media Audio
Язык : Russian
Дата кодирования : UTC 2019-01-26 09:38:11
Дата пометки : UTC 2019-01-26 09:53:57

Дополнительная информация:

В раздаче имеются архивы! В них содержится дополнительные материалы.

Программа обучения:

Изучение языка C#
#1 - Введение в язык C#. Установка всего необходимого
#2 - Переменные и типы данных. Получение данных от пользователя
#3 - Условные операторы и операции
#4 - Массивы данных. Динамические массивы данных
#5 - Циклы, а также операторы в циклах. Цикл Foreach
#6 - Функции и их перегрузка. Шаблоны функций. Коллекции
#7 - Работа с файлами и исключения
#8 - Создание классов и объектов
#9 - Конструкторы, модификаторы, аксессоры
#10 - Наследование классов. Суперклассы. Вложенные классы
#11 - Абстрактные классы. Шаблоны классов
#12 - Интерфейсы и перечисления
#13 - Структуры и операторы as и is
#14 - Делегаты. Методы расширения LINQ
#15 - Работа с потоками данных
#16 - Сериализация данных-Создание программ
#1 - Создание игры "Пинг Понг"
#2 - Добавление дизайна и создание exe файла
#3 - Современный подход к созданию программ. Фреймворк WPF
#4 - Текстовый редактор с меню настройками
#5 - Улучшение текстового редактора и добавление функций
#6 - Текстовый редактор. Завершение
#7 - Переключение между вкладками
#8 - Программа авторизации с SQL базой данных-C# ASP.NET
#1 - Введение в ASP.NET. Создание проекта
#2 - Создание нового контроллера и новой страницы
#3 - Регистрация на сайте и авторизация на сайте
#4 - Добавление, сохранение и вывод данных из БД
#5 - Публикация сайта в Интернете
Скриншоты:
       

darkos_bot

Post 18-Jun-2019 09:41

[Quote]

WebForMySelf | Фреймворк NuxtJS. Руководство по Full-Stack разработке (2019) [unpacked] - Автор (издатель): WebForMySelf, Владилен Минин
Жанр: Программирование, JavaScript, Vue.js
Системные требования:
• операционная система Windows 2000/XP/Vista/7/8.1/10
• процессор 800 MHz
• оперативная память 512 МБ
• звуковая карта (можно встроенную в материнскую плату)
• видеокарта (можно встроенную в материнскую плату)

Формат: unpacked
Описание:
После прохождения видеокурса вы не просто узнаете, как быстро и качественно создавать одностраничные динамичные веб-приложения практически под любые задачи. Будет показано, как делать их изначально универсальными и SEO-оптимизированными. Этим видеокурс отличается от других информационных материалов.
Продолжительность: 15:24:08
Качество видео: PCRec
Видео: AVC/H.264, 1280x720-1832x1010, ~129-3026 Kbps
Аудио: AAC, 2 ch, 124-125 Kbps

MediaInfo:

Общее
Полное имя : .\videokurs\bonus1\4.mp4
Формат : MPEG-4
Профиль формата : Base Media / Version 2
Идентификатор кодека : mp42 (isom/mp42)
Размер файла : 10,2 Мбайт
Продолжительность : 3 м. 7 с.
Режим общего битрейта : Переменный
Общий поток : 457 Кбит/сек
Дата кодирования : UTC 2019-03-29 10:58:28
Дата пометки : UTC 2019-03-29 10:58:28
Видео
Идентификатор : 1
Формат : AVC
Формат/Информация : Advanced Video Codec
Профиль формата : [url=mailto:[email protected]][email protected][/url]
Настройки формата : 3 Ref Frames
Параметр CABAC формата : Нет
Параметр RefFrames формата : 3 кадра
Идентификатор кодека : avc1
Идентификатор кодека/Информация : Advanced Video Coding
Продолжительность : 3 м. 7 с.
Битрейт : 328 Кбит/сек
Ширина : 1280 пикселей
Высота : 720 пикселей
Соотношение сторон : 16:9
Режим частоты кадров : Постоянный
Частота кадров : 30,000 кадров/сек
Стандарт вещания : NTSC
Цветовое пространство : YUV
Субдискретизация насыщенности : 4:2:0
Битовая глубина : 8 бит
Тип развёртки : Прогрессивная
Бит/(Пиксели*Кадры) : 0.012
Размер потока : 7,34 Мбайт (72%)
Язык : English
Дата кодирования : UTC 2019-03-29 10:58:28
Дата пометки : UTC 2019-03-29 10:58:28
Цветовой диапазон : Limited
Codec configuration box : avcC
Аудио
Идентификатор : 2
Формат : AAC LC
Формат/Информация : Advanced Audio Codec Low Complexity
Идентификатор кодека : mp4a-40-2
Продолжительность : 3 м. 7 с.
Продолжительность оригинала : 3 м. 7 с.
Вид битрейта : Переменный
Битрейт : 126 Кбит/сек
Максимальный битрейт : 355 Кбит/сек
Каналы : 2 канала
Channel layout : L R
Частота : 44,1 КГц
Частота кадров : 43,066 кадра/сек (1024 SPF)
Метод сжатия : С потерями
Размер потока : 2,81 Мбайт (27%)
Размер потока оригинала : 2,81 Мбайт (27%)
Язык : English
Дата кодирования : UTC 2019-03-29 10:58:28
Дата пометки : UTC 2019-03-29 10:58:28
Общее
Полное имя : .\videokurs\bonus2\3.mp4
Формат : MPEG-4
Профиль формата : Base Media / Version 2
Идентификатор кодека : mp42 (mp41/mp42/isom)
Размер файла : 222 Мбайт
Продолжительность : 17 м. 9 с.
Режим общего битрейта : Переменный
Общий поток : 1810 Кбит/сек
Дата кодирования : UTC 2019-01-10 15:06:37
Дата пометки : UTC 2019-01-10 15:18:34
Видео
Идентификатор : 1
Формат : AVC
Формат/Информация : Advanced Video Codec
Профиль формата : [email protected]
Настройки формата : 2 Ref Frames
Параметр CABAC формата : Нет
Параметр RefFrames формата : 2 кадра
Параметр GOP формата : M=2, N=30
Идентификатор кодека : avc1
Идентификатор кодека/Информация : Advanced Video Coding
Продолжительность : 17 м. 9 с.
Вид битрейта : Переменный
Битрейт : 1680 Кбит/сек
Максимальный битрейт : 768 Кбит/сек
Ширина : 1832 пикселя
Высота : 1010 пикселей
Соотношение сторон : 16:9
Режим частоты кадров : Постоянный
Частота кадров : 30,000 кадров/сек
Цветовое пространство : YUV
Субдискретизация насыщенности : 4:2:0
Битовая глубина : 8 бит
Тип развёртки : Прогрессивная
Бит/(Пиксели*Кадры) : 0.030
Размер потока : 206 Мбайт (93%)
Заголовок : Core Media Video
Дата кодирования : UTC 2019-01-10 15:06:37
Дата пометки : UTC 2019-01-10 15:18:34
Цветовой диапазон : Limited
Основные цвета : BT.601 NTSC
Характеристики трансфера : BT.709
Коэффициенты матрицы : BT.601
Codec configuration box : avcC
Аудио
Идентификатор : 2
Формат : AAC LC
Формат/Информация : Advanced Audio Codec Low Complexity
Идентификатор кодека : mp4a-40-2
Продолжительность : 17 м. 9 с.
Продолжительность оригинала : 17 м. 9 с.
Вид битрейта : Постоянный
Битрейт : 128 Кбит/сек
Каналы : 2 канала
Channel layout : L R
Частота : 44,1 КГц
Частота кадров : 43,066 кадра/сек (1024 SPF)
Метод сжатия : С потерями
Размер потока : 15,3 Мбайт (7%)
Размер потока оригинала : 15,3 Мбайт (7%)
Заголовок : Core Media Audio
Дата кодирования : UTC 2019-01-10 15:06:37
Дата пометки : UTC 2019-01-10 15:18:34

Дополнительная информация:

В раздаче имеются архивы! В них содержится дополнительные материалы.

Программа видеокурса:

Состав курса:
Блок 1. Введение Данный блок является вводным, где вы подробно узнаете про то, что вас ждет в курсе и какие инструменты потребуются для изучения курса.
Блок 2. Nuxt.js. Теория Данный блок посвящен теории фреймворка Nuxt.js. В нем вы познакомитесь с Nuxt.js и узнаете про то, что такое Server Side Rendering с JavaScript-фреймворками. В блоке вы узнаете про все основные возможности в Nuxt.js, которые расширяют Vue.js новым, более удобным функционалом.
Блок 3. Front-End. Создание блога В данном блоке вы увидите, как создается клиентская часть для будущего приложения. В блоке будет создана только основная часть блога, без панели администратора с использованием UI-фреймворка Element-UI.
Блок 4. Front-End. Панель администратора В блоке вы увидите, как создается клиентская часть для панели администратора, где будет возможность создавать новые посты, редактировать существующие, смотреть статистику, добавлять новых пользователей. В блоке будут реализованы такие элементы, как: загрузка картинок, валидация форм, защита роутов и создание контента постов в формате HTML и MD.
Блок 5. Back-End В этом блоке будет показана реализация серверной части для приложения. Вы увидите, как создается масштабируемая, гибкая архитектура бекенда для будущего блога. Будут разобраны такие элементы, как: работа с базами данных, защите ключей, разделенные роуты от публичного API и закрытого API, авторизация через JWT-токен, загрузка файлов и многое другое.
Блок 6. Интеграция На момент данного блока в приложении будет две реализованные части: Front-End и Back-End, которые необходимо связать, что и является интеграцией. В блоке вы увидите, как интегрировать все существующие страницы в админке и основном блоге, как сделать авторизацию и поддерживать сессию.
Блок 7. Аналитика и графики В блоке вы увидите, как реализовать страницу в панели администратора, отвечающую за аналитику внутри блога. Будет показана реализация двух графиков, показывающих аналитику по количеству просмотров и количеству комментариев у постов приложения. Разработка будет вестись как на стороне клиента, так и на серверной части.
Блок 8. Последние штрихи Данный блок покажет вам некоторые моменты, которые улучшат приложение, например: создание общего фильтра для отображения даты и времени, исправление консольных предупреждений, добавление Title для каждой страницы, использование ENV-переменных. В конце блока вы увидите, как превратить весь блог в PWA-приложение с офлайн доступом и Service Workers.
Блок 9. Деплой приложения В данном блоке уже завершенное приложение будет подготовлено для деплоя на удаленный сервер. Вы пошагово увидите, что необходимо сделать, чтобы запустить приложение на серверах Heroku.
Бонусы:
Бонус 1. SEO
Бонус 2. Node.js
Бонус 3. MongoDB
Бонус 4. WebPack 4+
Скриншоты:
       

darkos_bot

Post 18-Jun-2019 09:40

[Quote]

WebForMySelf | Технология CSS Grid. Руководство по адаптивной верстке (2019) [unpacked] - Автор (издатель): WebForMySelf, Денис Булыга
Жанр: CSS, верстка, HTML
Системные требования:
  • операционная система Windows 2000/XP/Vista/7/8.1/10
  • процессор 800 MHz
  • оперативная память 512 МБ
  • звуковая карта (можно встроенную в материнскую плату)
  • видеокарта (можно встроенную в материнскую плату)

Формат: unpacked
Описание:
CSS Grid — это мощная новая технология в верстке. Она позволяет быстро создавать динамические, отзывчивые, современные макеты на чистом CSS. При этом код чище и проще в поддержке, по сравнению с традиционными методами верстки.
Продолжительность: 13:05:36 + 22:17:25 бонусы
Качество видео: PCRec
Видео: AVC/H.264, 1280x720, ~155-454 Kbps
Аудио: AAC, 2 ch, 126 Kbps

MediaInfo

[code]General
Complete name : .\[WebForMyself] Технология CSS Grid. Руководство по адаптивной верстке (2019)\videokurs\part1\1.mp4
Format : MPEG-4
Format profile : Base Media / Version 2
Codec ID : mp42 (isom/mp42)
File size : 15.2 MiB
Duration : 5 min 3 s
Overall bit rate mode : Variable
Overall bit rate : 422 kb/s
Encoded date : UTC 2019-04-16 15:00:04
Tagged date : UTC 2019-04-16 15:00:04
Video
ID : 1
Format : AVC
Format/Info : Advanced Video Codec
Format profile : [url=mailto:[email protected]][email protected][/url]
Format settings : 3 Ref Frames
Format settings, CABAC : No
Format settings, ReFrames : 3 frames
Format settings, GOP : M=1, N=60
Codec ID : avc1
Codec ID/Info : Advanced Video Coding
Duration : 5 min 3 s
Bit rate : 294 kb/s
Width : 1 280 pixels
Height : 720 pixels
Display aspect ratio : 16:9
Frame rate mode : Constant
Frame rate : 12.000 FPS
Color space : YUV
Chroma subsampling : 4:2:0
Bit depth : 8 bits
Scan type : Progressive
Bits/(Pixel*Frame) : 0.027
Stream size : 10.6 MiB (70%)
Language : English
Encoded date : UTC 2019-04-16 15:00:05
Tagged date : UTC 2019-04-16 15:00:05
Color range : Limited
Codec configuration box : avcC
Audio
ID : 2
Format : AAC LC
Format/Info : Advanced Audio Codec Low Complexity
Codec ID : mp4a-40-2
Duration : 5 min 3 s
Bit rate mode : Variable
Bit rate : 126 kb/s
Maximum bit rate : 341 kb/s
Channel(s) : 2 channels
Channel layout : L R
Sampling rate : 44.1 kHz
Frame rate : 43.066 FPS (1024 SPF)
Compression mode : Lossy
Stream size : 4.54 MiB (30%)
Language : English
Encoded date : UTC 2019-04-16 15:00:05
Tagged date : UTC 2019-04-16 15:00:05

Продолжение описания:

Grid Layout — это новая модель макета, которая обладает мощными способностями контролировать размеры и расположение блоков, а также их содержимого.
Она представляет собой набор горизонтальных и вертикальных линий, которые образуют сетку, состоящую из рядов и колонок. Технология основана на разделении пространства для макета на столбцы и строки, а также на использовании предсказуемого поведения размеров.
Grid позволяет точно позиционировать и масштабировать блоки контента в областях сетки, получаемых при пересечении этих столбцов и строк. Таким образом, получаем очень гибкое поведение верстки при адаптации.

Подробная программа видеокурса

Блок 1. Верстка макета Landing Page:
Количество уроков: 27
Продолжительность: 6 часов 36 минут
В первой части курса вы познакомитесь с макетом Landing Page.
Эта часть включает в себя 27 уроков общей продолжительностью более 6 часов.
Вы начнете с обзора того, что предстоит сверстать и увидите все составляющие макета. Далее будет показано несколько способов, как из макета Photoshop возможно экспортировать изображения для верстки.
Вы увидите возможности автоматизации, пошаговую установку и настройку необходимых плагинов и, конечно же, настройку сборки при помощи Gulp 4, которую вы в дальнейшем сможете использовать для своей работы. Увидите описание HTML-разметки каждого из блоков, стилизацию и адаптацию их под различные разрешения экранов, чтобы верстка выглядела одинаково на различных устройствах.
В итоге Вы увидите полноценную верстку Landing Page.

Уроки

Урок 1. Обзор PSD-макета и готовой верстки Landing Page
Урок 2. Экспорт изображений для верстки из Adobe Photoshop CC 2018
Урок 3. Установка Node Js, Gulp CLI и инициализация проекта
Урок 4. Начало создания автоматизированной сборки при помощи Gulp 4
Урок 5. Создание дополнительных задач по автоматизации
Урок 6. Подготовка к верстке и детальный обзор проекта
Урок 7. Создание HTML-разметки для шапки сайта
Урок 8. Полная стилизация шапки сайта
Урок 9. Создание разметки для блока баннера
Урок 10. Стилизация баннера и написание собственного миксина
Урок 11. HTML-структура блока с преимуществами
Урок 12. Полная стилизация преимуществ
Урок 13. HTML-разметка блока с работами
Урок 14. Написание стилей для блока работ
Урок 15. Доступность интерактивных элементов и адаптация блока работ
Урок 16. Написание структуры для информационного блока
Урок 17. Полная стилизация информационного блока
Урок 18. Создание разметки для блока скиллов
Урок 19. Стилизация блока со скиллами
Урок 20. Анимация линий блока прогресса
Урок 21. HTML-структура блока новостей
Урок 22. Полная стилизация блока с новостями
Урок 23. HTML-разметка блока карусели
Урок 24. Стилизация карусели и подключение плагина OwlCarousel
Урок 25. HTML-разметка блока контактов
Урок 26. Полная стилизация блока контактов
Урок 27. Полная реализация подвала
-Блок 2. Верстка главной страницы сайта студии:
Количество уроков: 25
Продолжительность: 6 часов 25 минут
Во второй части курса показана верстка главной страницы сайта студии.
Данная часть включает в себя 25 уроков общей продолжительностью более 6 часов.
Этот блок является более сложным по сравнению с предыдущим, т.к. его реализация будет полностью «резиновой», используя при этом адаптивную типографику, SVG-спрайты, ретинизацию изображений и многие другие возможности, о которых вы узнаете в данном блоке.
Начнем с обзора макета, после чего будет рассмотрен еще один способ экспорта графики, а именно SVG из Adobe Illustrator. Далее подготовка к верстке, создание проекта и установка в него необходимых зависимостей, и шаг за шагом реализация имеющихся блоков.
В результате, используя уже готовую сборку проекта при помощи Gulp 4 из предыдущего блока курса, вы полностью увидите процесс верстки главной страницы сайта студии.

Уроки

Урок 1. Обзор макета
Урок 2. Экспорт SVG из Adobe Illustrator
Урок 3. Подготовка к верстке
Урок 4. HTML-разметка шапки сайта
Урок 5. Стилизация шапки сайта
Урок 6. Адаптив шапки сайта
Урок 7. Улучшение типографики
Урок 8. Создание разметки для блока меню
Урок 9. Стилизация блока меню
Урок 10. Доработка меню
Урок 11. HTML-разметка блока проектов
Урок 12. Стилизация блока проектов. Часть 1
Урок 13. Стилизация блока проектов. Часть 2
Урок 14. Стилизация блока проектов. Часть 3
Урок 15. Адаптация блока проектов
Урок 16. HTML-разметка блока студио
Урок 17. Стилизация блока студио. Часть 1
Урок 18. Стилизация блока студио. Часть 2
Урок 19. Адаптация блока студио
Урок 20. HTML-разметка блока с новостями
Урок 21. Стилизация блока новостей
Урок 22. Адаптация блока новостей
Урок 23. Разметка подвала
Урок 24. Полная стилизация подвала сайта
Урок 25. Подключение Google maps
Скриншоты:
       

darkos_bot

Post 17-Jun-2019 22:56

[Quote]

Skillbox | Excel c 0 до PRO (2015-2016) PCRec [H.264/1080p-LQ] - Автор (режиссер): Олег Самойленко
Производство: Skillbox
Жанр: Офисные программы
Описание:
Практический 4-х месячный курс для тех, кто хочет научиться превосходно использовать Excel на работе или в личных целях.
Продолжительность: 16:15:02
Качество видео: PCRec
Видео: AVC/H.264, 1920x1080, ~711-1157 Kbps
Аудио: AAC, 2 ch, 179-195 Kbps

MediaInfo:

Общее
Полное имя : .\Базовый\Блок 1\1.2 Интерфейс Excel, структура рабочая книга-лист-строка, столбец-ячейка\1-2.mp4
Формат : MPEG-4
Профиль формата : Base Media
Идентификатор кодека : isom (isom/iso2/avc1/mp41)
Размер файла : 86,3 Мбайт
Продолжительность : 9 м. 8 с.
Общий поток : 1319 Кбит/сек
Программа кодирования : Lavf58.12.100
Видео
Идентификатор : 1
Формат : AVC
Формат/Информация : Advanced Video Codec
Профиль формата : [email protected]
Настройки формата : CABAC / 2 Ref Frames
Параметр CABAC формата : Да
Параметр RefFrames формата : 2 кадра
Параметр GOP формата : M=1, N=25
Идентификатор кодека : avc1
Идентификатор кодека/Информация : Advanced Video Coding
Продолжительность : 9 м. 8 с.
Битрейт : 1117 Кбит/сек
Ширина : 1920 пикселей
Высота : 1080 пикселей
Соотношение сторон : 16:9
Режим частоты кадров : Постоянный
Частота кадров : 29,970 (30000/1001) кадров/сек
Цветовое пространство : YUV
Субдискретизация насыщенности : 4:2:0
Битовая глубина : 8 бит
Тип развёртки : Прогрессивная
Бит/(Пиксели*Кадры) : 0.018
Размер потока : 73,1 Мбайт (85%)
Codec configuration box : avcC
Аудио
Идентификатор : 2
Формат : AAC LC
Формат/Информация : Advanced Audio Codec Low Complexity
Идентификатор кодека : mp4a-40-2
Продолжительность : 9 м. 8 с.
Вид битрейта : Постоянный
Битрейт : 192 Кбит/сек
Каналы : 2 канала
Channel layout : L R
Частота : 44,1 КГц
Частота кадров : 43,066 кадра/сек (1024 SPF)
Метод сжатия : С потерями
Размер потока : 12,7 Мбайт (15%)
Default : Да
AlternateGroup/String : 1
Скриншоты:
       

darkos_bot

Post 17-Jun-2019 22:54

[Quote]

Типичный верстальщик | Базовый и Продвинутый курс для верстальщиков (2019) PCRec [H.264/720p-LQ] - Автор (режиссер): Анна Блок
Производство: Типичный верстальщик
Жанр: HTML, CSS
Описание:
В течении месяца на базовом курсе мы верстаем сайт, используя технологии HTML/CSS. Именно он и станет первой работой для Вашего портфолио! А Во время продвинутого - мы будем верстать сайт на практике при помощи Gulp и SCSS.
Продолжительность: 14:30:14
Качество видео: PCRec
Видео: AVC/H.264, 1280x720, ~87-552 Kbps
Аудио: AAC, 2 ch, 127-128 Kbps

MediaInfo:

Общее
Полное имя : .\02 Продвинутый курс\008 Переходы, трансформации, анимации\008 Переходы, трансформации, анимации.mp4
Формат : MPEG-4
Профиль формата : Base Media / Version 2
Идентификатор кодека : mp42 (isom/mp42)
Размер файла : 25,0 Мбайт
Продолжительность : 15 м. 57 с.
Режим общего битрейта : Переменный
Общий поток : 219 Кбит/сек
Дата кодирования : UTC 2019-02-15 07:05:16
Дата пометки : UTC 2019-02-15 07:05:16
gsst : 0
gstd : 957242
Видео
Идентификатор : 1
Формат : AVC
Формат/Информация : Advanced Video Codec
Профиль формата : [url=mailto:[email protected]][email protected][/url]
Настройки формата : CABAC / 3 Ref Frames
Параметр CABAC формата : Да
Параметр RefFrames формата : 3 кадра
Идентификатор кодека : avc1
Идентификатор кодека/Информация : Advanced Video Coding
Продолжительность : 15 м. 57 с.
Битрейт : 87,5 Кбит/сек
Ширина : 1280 пикселей
Высота : 720 пикселей
Соотношение сторон : 16:9
Режим частоты кадров : Постоянный
Частота кадров : 30,000 кадров/сек
Цветовое пространство : YUV
Субдискретизация насыщенности : 4:2:0
Битовая глубина : 8 бит
Тип развёртки : Прогрессивная
Бит/(Пиксели*Кадры) : 0.003
Размер потока : 9,98 Мбайт (40%)
Заголовок : ISO Media file produced by Google Inc. Created on: 02/14/2019.
Дата кодирования : UTC 2019-02-15 07:05:16
Дата пометки : UTC 2019-02-15 07:05:16
Цветовой диапазон : Limited
Основные цвета : BT.709
Характеристики трансфера : BT.709
Коэффициенты матрицы : BT.709
Codec configuration box : avcC
Аудио
Идентификатор : 2
Формат : AAC LC
Формат/Информация : Advanced Audio Codec Low Complexity
Идентификатор кодека : mp4a-40-2
Продолжительность : 15 м. 57 с.
Вид битрейта : Переменный
Битрейт : 128 Кбит/сек
Каналы : 2 канала
Channel layout : L R
Частота : 44,1 КГц
Частота кадров : 43,066 кадра/сек (1024 SPF)
Метод сжатия : С потерями
Размер потока : 14,6 Мбайт (58%)
Заголовок : ISO Media file produced by Google Inc. Created on: 02/14/2019.
Язык : English
Дата кодирования : UTC 2019-02-15 07:05:16
Дата пометки : UTC 2019-02-15 07:05:16

Программа базового курса:

Стартовая лекция.
- Разбор основ программы Adobe Photoshop;
- Работа с изображениями;
Начало работы. Основы HTML
- Подготовка проекта к верстке;
- Структура html-документа (html, head, body) ;
- Обзор популярных тегов HTML;
- Обзор семантических тегов HTML.
Основы HTML
- Идентификаторы и классы;
- Aтрибуты для input и textarea;
- Отличия между button и a;
- Ссылки для социальных сетей;
- Работа с почтой и скайпом;
- Работа с git.
Подключение CSS, работа с текстом
- Подключение CSS к документу HTML;
- Структура CSS-файлов;
- Способы подключения шрифтов на страницу;
- Форматирование текста при помощи CSS;
- Стили для работы со шрифтами;
- Разные типы записи цвета в CSS документе;
Размещение объектов CSS
- Селекторы, которые стоит знать и применять;
- Типы позиционирования элементов;
- Установка favicon на страницу.
Стилизация элементов CSS
- Стилизация ссылок и кнопок;
- Работа со списками;
- Работа с after и before;
Виды сеток CSS
- Центрирование объектов в документе;
- Отступы padding и margin;
- Flexbox CSS;
- CSS Grid;
Фон и изображения CSS
- Цвет фона;
- Загрузка изображения через CSS;
- Повтор изображения;
- Создание градиента в CSS;
- Фильтры в CSS.
Рамки и обводки CSS
- Создание рамок CSS;
- Создание радиусов CSS;
- Создание теней;
- Создание внешних рамок CSS;
Оживляем сайт с CSS
- Переходы в CSS;
- Трансформации в CSS;
- Создание анимаций при помощи CSS3
Адаптивность CSS
- Проверка HTML и CSS на валидность;
- Медиа-запросы;
- Основные правила создания адаптивного сайта;
- Отличия резиновой верстки от адаптивной.
Векторные изображения
- Сохранение SVG-изображений в Illustrator;
- Создание SVG через теги;
- Base64;
- Cоздание паттернов SVG.
Верстка email-писем
- Правилам верстки email;
- Создание на примере;
- Сервисы, для выгрузки своего шаблона;
- Кроссбраузерная верстка.
Основы jQuery
- Библиотеки JavaScript;
- Добавление библиотеки jQuery на страницу;
- Основные селекторы;
- Фильтры jQuery;
- Отобразить и спрятать объект с jQuery.
Основы jQuery
- Обзор плагина jQuery UI;
- События наведения и смещения указателя мыши;
- Распространенные задачи, решаемые с помощью jQuery.
Популярные плагины для работы
- Слайдеры;
- Галерея изображений.
CSS-препроцессоры
- Подробный обзор SASS;
- Краткий обзор LESS;
- Краткий обзор Stylus;
- Какой препроцессор выбрать для работы?
Создание сайта на бесплатном хостинге Github
- Краткое описание систем контроля версий. Для чего они нужны?
- Регистрация на сайте Github;
- Создание репозитория;
- Наполнение репозитория файлами.
CSS-фреймворки
- Что такое CSS-фреймворки?
- Какие CSS-фреймворки существуют на сегодняшний день?
- Bootstrap: какую версию выбрать?
- Обзор элементов Bootstrap.
Про работу и заказчиков
- Как найти свой первый заказ или устроиться на работу, если ты новичок;
- Выясним, что лучше подойдет именно тебе: офис, удаленная работа или фриланс;
- Самоорганизация и работа в команде: рассмотрим популярные сайты и приложения по управлению проектами;
- Список актуальных фриланс-бирж.

Программа продвинутого курса:

Работа с макетом
Детальный обзор учебного макета
Работа с изображениями (PNG и SVG);
Разметка сайта
Методология БЭМ
Создание разметки сайта HTML5
Работа с Git для публикации кода
Настройка окружения и сборщики проектов
Установка Node.js;
Обзор сборщиков (Gulp, Grunt);
Установка Gulp 4 для проекта.
CSS препроцессоры
Обзор CSS-препроцессоров (SASS, Less, Stylus);
Программы компиляции и плагин VS Code;
Использование на практике SCSS.
Система контроля версий (Git)
Основы Git;
Работы с Git;
Создание Git репозитория;
Ветвления Git.
Canvas, работа с SVG
Основы Canvas
Обзор основных параметров
Основы SVG
Самостоятельное построение SVG изображение без посторонних программ
Оптимизация SVG-изображений из графических программ
Flexbox и Grid CSS
Основы Flexbox
Основы Grid CSS
Что уместнее использовать в 2019 году?
Анимации и переходы для оживления сайта
Основы использования @keyframes
Создание плавных переходов
Работа с SVG
Интерактивные карты Google и Yandex
Как установить интерактивную карту на сайт?
Какую карту выбрать?
Стилизация карт
Работа с API карт
Счетчики аналитики, sitemap
Что такое счетчики аналитики и зачем они нужны?
Методы установки счетчиков
Настройка счетчиков
Что такое Sitemap?
Генерация файла Sitemap
Основы PHP и mySQL
Основы PHP
Основы mySQL
Форма отправки
Валидация форм
Оптимизация работы сайта
Валидация файлов HTML и CSS
Определение скорости загрузки сайта
Исправление ошибок
Оптимизация изображений и кода
Оплата на сайт
Как установить оплату на сайте?
Автоматическая генерация кнопок для оплаты
Список сайтов, предоставляющие услуги онлайн-касс
WordPress
Что такое Wordpress и кому подходит?
Структура файлов
Создание собственного шаблона
Обзор полезных плагинов
Основы JavaScript
Основные термины и синтаксис
Что такое console.log
Как работать с консолью
Переменные и значения
Основы JavaScript
Массивы
Циклы
Условные операторы
Операторы сравнения
Логические операторы
jQuery, jQuery UI и дополнительные плагины
Основы jQuery
Работа с плагином jQuery UI
Для чего стоит использовать jQuery?
Создание слайдера для сайта на практике.
Адаптивность
Что такое @media
Создание media запросов
Что такое Mobile First верстка?
Выбор площадки для работы
Офис: плюсы и минусы
Удаленная работа: плюсы и минусы
Фриланс: плюсы и минусы
Обзор площадок
Откуда стоит начать свой поиск заказчиков?
Поиск работы
Обзор крупнейшей площадки по поиску работы;
Обзор региональных площадок;
Linkedn: как оформить свой профиль, чтобы HR сами находили вас.
Скриншоты:
       

darkos_bot

Post 17-Jun-2019 22:52

[Quote]

ProfIT | Redis - основы и практическое использование (2019) PCRec [H.264] - Автор (режиссер): Степанцев Альберт
Производство: ProfIT
Жанр: Базы данных
Описание:
На семинаре преподаватель расскажет о популярной NoSQL системе управления данными и об опыте ее практического применения.
Продолжительность: 01:28:50
Качество видео: PCRec
Видео: AVC/H.264, 1728x1080, ~720 Kbps
Аудио: AAC, 2 ch, 137 Kbps

MediaInfo:

Общее
Полное имя : .\Redis.mp4
Формат : MPEG-4
Профиль формата : Base Media / Version 2
Идентификатор кодека : mp42 (mp42/mp41/isom/avc1)
Размер файла : 548 Мбайт
Продолжительность : 1 ч. 28 м.
Режим общего битрейта : Переменный
Общий поток : 862 Кбит/сек
Дата кодирования : UTC 2019-03-28 19:38:01
Дата пометки : UTC 2019-03-28 19:38:01
Видео
Идентификатор : 1
Формат : AVC
Формат/Информация : Advanced Video Codec
Профиль формата : [url=mailto:[email protected]][email protected][/url]
Настройки формата : CABAC / 5 Ref Frames
Параметр CABAC формата : Да
Параметр RefFrames формата : 5 кадров
Идентификатор кодека : avc1
Идентификатор кодека/Информация : Advanced Video Coding
Продолжительность : 1 ч. 28 м.
Битрейт : 720 Кбит/сек
Ширина : 1728 пикселей
Высота : 1080 пикселей
Соотношение сторон : 16:10
Режим частоты кадров : Постоянный
Частота кадров : 38,118 кадров/сек
Цветовое пространство : YUV
Субдискретизация насыщенности : 4:2:0
Битовая глубина : 8 бит
Тип развёртки : Прогрессивная
Бит/(Пиксели*Кадры) : 0.010
Размер потока : 457 Мбайт (83%)
Библиотека кодирования : x264 core 157 r10 d4099dd
Настройки программы : cabac=1 / ref=5 / deblock=1:0:0 / analyse=0x3:0x113 / me=hex / subme=8 / psy=1 / psy_rd=1.00:0.00 / mixed_ref=1 / me_range=16 / chroma_me=1 / trellis=2 / 8x8dct=1 / cqm=0 / deadzone=21,11 / fast_pskip=1 / chroma_qp_offset=-2 / threads=34 / lookahead_threads=5 / sliced_threads=0 / nr=0 / decimate=1 / interlaced=0 / bluray_compat=0 / stitchable=1 / constrained_intra=0 / bframes=3 / b_pyramid=2 / b_adapt=2 / b_bias=0 / direct=3 / weightb=1 / open_gop=0 / weightp=2 / keyint=infinite / keyint_min=38 / scenecut=40 / intra_refresh=0 / rc_lookahead=50 / rc=crf / mbtree=1 / crf=20.0 / qcomp=0.60 / qpmin=5 / qpmax=69 / qpstep=4 / vbv_maxrate=5500 / vbv_bufsize=15000 / crf_max=0.0 / nal_hrd=none / filler=0 / ip_ratio=1.40 / aq=1:1.00
Дата кодирования : UTC 2019-03-28 19:38:01
Дата пометки : UTC 2019-03-28 19:38:01
Цветовой диапазон : Limited
Основные цвета : BT.709
Характеристики трансфера : BT.709
Коэффициенты матрицы : BT.709
Codec configuration box : avcC
Аудио
Идентификатор : 2
Формат : AAC LC
Формат/Информация : Advanced Audio Codec Low Complexity
Идентификатор кодека : mp4a-40-2
Продолжительность : 1 ч. 28 м.
Вид битрейта : Переменный
Битрейт : 137 Кбит/сек
Каналы : 2 канала
Channel layout : L R
Частота : 48,0 КГц
Частота кадров : 46,875 кадров/сек (1024 SPF)
Метод сжатия : С потерями
Размер потока : 87,1 Мбайт (16%)
Дата кодирования : UTC 2019-03-28 19:38:01
Дата пометки : UTC 2019-03-28 19:38:01
Скриншоты:
       

darkos_bot

Post 17-Jun-2019 22:47

[Quote]

ProfIT | Система типов в современном PHP (2018) PCRec [H.264] - Автор (режиссер): Степанцев Альберт
Производство: ProfIT
Жанр: программирование, PHP
Описание:
Вебинар посвящен теме, которая традиционно вызывает затруднения у начинающих разработчиков на языке PHP. Отчасти потому, что официальный мануал рассказывает о типах и типизации слишком лаконично, отчасти - потому что информация разбросана по разным разделам.
Продолжительность: 02:15:27
Качество видео: PCRec
Видео: AVC/H.264, 1920x1040, ~441 Kbps
Аудио: AAC, 2 ch, 235 Kbps

MediaInfo:

Общее
Полное имя : .\Система типов.mp4
Формат : MPEG-4
Профиль формата : Base Media / Version 2
Идентификатор кодека : mp42 (mp42/mp41/isom/avc1)
Размер файла : 659 Мбайт
Продолжительность : 2 ч. 15 м.
Режим общего битрейта : Переменный
Общий поток : 680 Кбит/сек
Дата кодирования : UTC 2018-01-31 20:22:35
Дата пометки : UTC 2018-01-31 20:22:35
Видео
Идентификатор : 1
Формат : AVC
Формат/Информация : Advanced Video Codec
Профиль формата : [email protected]
Настройки формата : CABAC / 4 Ref Frames
Параметр CABAC формата : Да
Параметр RefFrames формата : 4 кадра
Идентификатор кодека : avc1
Идентификатор кодека/Информация : Advanced Video Coding
Продолжительность : 2 ч. 15 м.
Битрейт : 441 Кбит/сек
Ширина : 1920 пикселей
Высота : 1040 пикселей
Соотношение сторон : 1,85:1
Режим частоты кадров : Постоянный
Частота кадров : 25,000 кадров/сек
Цветовое пространство : YUV
Субдискретизация насыщенности : 4:2:0
Битовая глубина : 8 бит
Тип развёртки : Прогрессивная
Бит/(Пиксели*Кадры) : 0.009
Размер потока : 427 Мбайт (65%)
Библиотека кодирования : x264 core 155 r10 b00bcaf
Настройки программы : cabac=1 / ref=4 / deblock=1:0:0 / analyse=0x3:0x113 / me=hex / subme=8 / psy=1 / psy_rd=1.00:0.00 / mixed_ref=1 / me_range=16 / chroma_me=1 / trellis=2 / 8x8dct=1 / cqm=0 / deadzone=21,11 / fast_pskip=1 / chroma_qp_offset=-2 / threads=32 / lookahead_threads=5 / sliced_threads=0 / nr=0 / decimate=1 / interlaced=0 / bluray_compat=0 / stitchable=1 / constrained_intra=0 / bframes=3 / b_pyramid=2 / b_adapt=2 / b_bias=0 / direct=3 / weightb=1 / open_gop=0 / weightp=2 / keyint=infinite / keyint_min=25 / scenecut=40 / intra_refresh=0 / rc_lookahead=50 / rc=crf / mbtree=1 / crf=20.0 / qcomp=0.60 / qpmin=5 / qpmax=69 / qpstep=4 / vbv_maxrate=5500 / vbv_bufsize=15000 / crf_max=0.0 / nal_hrd=none / filler=0 / ip_ratio=1.40 / aq=1:1.00
Дата кодирования : UTC 2018-01-31 20:22:35
Дата пометки : UTC 2018-01-31 20:22:35
Цветовой диапазон : Limited
Основные цвета : BT.709
Характеристики трансфера : BT.709
Коэффициенты матрицы : BT.709
Codec configuration box : avcC
Аудио
Идентификатор : 2
Формат : AAC LC
Формат/Информация : Advanced Audio Codec Low Complexity
Идентификатор кодека : mp4a-40-2
Продолжительность : 2 ч. 15 м.
Вид битрейта : Переменный
Битрейт : 235 Кбит/сек
Каналы : 2 канала
Channel layout : L R
Частота : 48,0 КГц
Частота кадров : 46,875 кадров/сек (1024 SPF)
Метод сжатия : С потерями
Размер потока : 228 Мбайт (35%)
Дата кодирования : UTC 2018-01-31 20:22:35
Дата пометки : UTC 2018-01-31 20:22:35
Скриншоты:
       

darkos_bot

Post 17-Jun-2019 22:46

[Quote]

Дмитрий Лаврик | Продвинутая вёрстка (2019) PCRec [H.264/1080p-LQ] - Автор (режиссер): Дмитрий Лаврик
Жанр: HTML, CSS, Gulp
Описание:
Хочешь верстать быстро, уверенно, адаптивно, кроссбраузерно и современно? Этот курс Дмитрия Лаврика именно для этого и создан. Ты только глянь на его лицо! Он так и хочет научить тебя делать все по нормальному плюс толкнуть тебе нашумевшую сетку smartgrid, которая уже по ушам проехалась всему интернету!
Продолжительность: 13:15:02
Качество видео: PCRec
Видео: AVC/H.264, 1920x1080, ~307-592 Kbps
Аудио: AAC, 2 ch, 125 Kbps

MediaInfo:

Общее
Полное имя : E:\Download\курсы\Release\[Дмитрий Лаврик] Продвинутая вёрстка (SmartGrid 2) [2019]\Урок #1\grid-1-1.mp4
Формат : MPEG-4
Профиль формата : Base Media / Version 2
Идентификатор кодека : mp42 (isom/mp42)
Размер файла : 222 Мбайт
Продолжительность : 1 ч. 11 м.
Режим общего битрейта : Переменный
Общий поток : 436 Кбит/сек
Дата кодирования : UTC 2019-04-04 18:16:04
Дата пометки : UTC 2019-04-04 18:16:04
Видео
Идентификатор : 1
Формат : AVC
Формат/Информация : Advanced Video Codec
Профиль формата : [email protected]
Настройки формата : 3 Ref Frames
Параметр CABAC формата : Нет
Параметр RefFrames формата : 3 кадра
Идентификатор кодека : avc1
Идентификатор кодека/Информация : Advanced Video Coding
Продолжительность : 1 ч. 11 м.
Продолжительность оригинала : 1 ч. 11 м.
Битрейт : 308 Кбит/сек
Ширина : 1920 пикселей
Высота : 1080 пикселей
Соотношение сторон : 16:9
Режим частоты кадров : Переменный
Частота кадров : 30,000 кадров/сек
Минимальная частота кадров : 30,000 кадров/сек
Максимальная частота кадров : 30,030 кадров/сек
Стандарт вещания : NTSC
Цветовое пространство : YUV
Субдискретизация насыщенности : 4:2:0
Битовая глубина : 8 бит
Тип развёртки : Прогрессивная
Бит/(Пиксели*Кадры) : 0.005
Размер потока : 156 Мбайт (71%)
Размер потока оригинала : 156 Мбайт (71%)
Язык : English
Дата кодирования : UTC 2019-04-04 18:16:04
Дата пометки : UTC 2019-04-04 18:16:04
Цветовой диапазон : Limited
mdhd_Duration : 4265767
Codec configuration box : avcC
Аудио
Идентификатор : 2
Формат : AAC LC
Формат/Информация : Advanced Audio Codec Low Complexity
Идентификатор кодека : mp4a-40-2
Продолжительность : 1 ч. 11 м.
Продолжительность оригинала : 1 ч. 11 м.
Вид битрейта : Переменный
Битрейт : 126 Кбит/сек
Максимальный битрейт : 170 Кбит/сек
Каналы : 2 канала
Channel layout : L R
Частота : 44,1 КГц
Частота кадров : 43,066 кадра/сек (1024 SPF)
Метод сжатия : С потерями
Размер потока : 63,9 Мбайт (29%)
Размер потока оригинала : 63,9 Мбайт (29%)
Язык : English
Дата кодирования : UTC 2019-04-04 18:16:04
Дата пометки : UTC 2019-04-04 18:16:04
mdhd_Duration : 4265808
Скриншоты:
       
 

The time now is: Today 03:36

All times are GMT + 3 Hours