Today is a free download without charge Download

Search found 500 matches

Author Message

Clavik

Post Today 20:27

[Quote]

Невероятное / Unbelievable (2019) WEB-DLRip [H.264/1080p-LQ] (сезон 1, серии 1-8 из 8)«Based on True Events No One Believed»- Производство: США | CBS Television Studios, Timberman-Beverly Productions
Жанр: детектив, криминал
Режиссер: Лиза Холоденко, Майкл Диннер, Сюзанна Грант
Актеры: Тони Коллетт, Мерритт Уивер, Кейтлин Девер, Ванесса Белл Кэллоуэй, Дейл Дикки, Джон Хартманн, Остин Хеберт, Лиза Лапира, Кай Леннокс, Даниэль Макдональд и др.
Описание:
Сериал повествуют о 18-ти летней Мари Адлер, которая обратилась в полицию с заявлением об изнасиловании. Полиция проводит проверку и выясняет, что нет следов взлома дома, нет следов чужого ДНК на месте преступления. Следствие не верит Мари и в итоге приходит к выводу, что девушка все выдумала, и предъявляет ей обвинение в лжесвидетельстве... Спустя два года в разных городах в штате Колорадо происходят жестокие нападения на женщин. Расследование ведут женщины — детективы Грейс Расмуссен и Карен Дюваль. Они выясняют, что их дела схожи с делом Мари... Что же на самом деле скрывается за делом об изнасиловании Мари Адлер?

Дата мировой премьеры: 13 сентября 2019
Продолжительность: ~00:55:00 серия
Качество видео: WEB-DLRip
Перевод: Дублированный (VSI Moscow)
Субтитры: Русские (Forced, Full), английские, немецкие, французские, итальянские и др.
Видео: AVC/H.264, 1920х1080 (16:9), ~6961 kbps
Аудио 1: AC3, 6 ch, 448 kbps - русский
Аудио 2: AC3, 6 ch, 640 kbps - английский

MediaInfo:

General
Unique ID : 193222695089276059515098256803476252107 (0x915D56628496436A877AF61CD503A5CB)
Complete name : D:\Unbelievable_2019_WEB-DL_1080p_VSI_Moscow\Unbelievable_2019_WEB-DL_1080p_VSI_Moscow_01.mkv
Format : Matroska
Format version : Version 2
File size : 3.38 GiB
Duration : 58 min 52 s
Overall bit rate mode : Variable
Overall bit rate : 8 213 kb/s
Encoded date : UTC 2019-09-14 13:50:43
Writing application : mkvmerge v6.9.1 ('Blue Panther') 32bit built on Apr 18 2014 18:15:44
Writing library : libebml v1.3.0 + libmatroska v1.4.1
Cover : Yes
Attachments : Cover_Unbelievable.jpg
Video
ID : 1
Format : AVC
Format/Info : Advanced Video Codec
Format profile : [email protected]
Format settings : CABAC / 4 Ref Frames
Format settings, CABAC : Yes
Format settings, ReFrames : 4 frames
Codec ID : V_MPEG4/ISO/AVC
Duration : 58 min 52 s
Bit rate mode : Variable
Bit rate : 6 961 kb/s
Maximum bit rate : 20.0 Mb/s
Width : 1 920 pixels
Height : 1 080 pixels
Display aspect ratio : 16:9
Frame rate mode : Constant
Frame rate : 23.976 (24000/1001) FPS
Color space : YUV
Chroma subsampling : 4:2:0
Bit depth : 8 bits
Scan type : Progressive
Bits/(Pixel*Frame) : 0.140
Stream size : 2.86 GiB (85%)
Writing library : x264 core 148 r2715 7e75228
Encoding settings : cabac=1 / ref=4 / deblock=1:0:0 / analyse=0x3:0x111 / me=umh / subme=10 / psy=1 / psy_rd=1.00:0.00 / mixed_ref=1 / me_range=120 / chroma_me=1 / trellis=2 / 8x8dct=1 / cqm=0 / deadzone=21,11 / fast_pskip=1 / chroma_qp_offset=-2 / threads=8 / lookahead_threads=2 / sliced_threads=0 / nr=0 / decimate=1 / interlaced=0 / bluray_compat=0 / stitchable=1 / constrained_intra=0 / bframes=16 / b_pyramid=2 / b_adapt=2 / b_bias=0 / direct=3 / weightb=1 / open_gop=0 / weightp=2 / keyint=240 / keyint_min=121 / scenecut=0 / intra_refresh=0 / rc_lookahead=240 / rc=crf / mbtree=1 / crf=16.0 / qcomp=0.50 / qpmin=6 / qpmax=51 / qpstep=4 / vbv_maxrate=20000 / vbv_bufsize=25000 / crf_max=0.0 / nal_hrd=vbr / filler=0 / ip_ratio=1.40 / aq=1:0.80
Language : English
Default : Yes
Forced : No
Audio #1
ID : 2
Format : AC-3
Format/Info : Audio Coding 3
Commercial name : Dolby Digital
Codec ID : A_AC3
Duration : 58 min 52 s
Bit rate mode : Constant
Bit rate : 448 kb/s
Channel(s) : 6 channels
Channel layout : L R C LFE Ls Rs
Sampling rate : 48.0 kHz
Frame rate : 31.250 FPS (1536 SPF)
Bit depth : 16 bits
Compression mode : Lossy
Stream size : 189 MiB (5%)
Title : Dub
Language : Russian
Service kind : Complete Main
Default : Yes
Forced : No
Audio #2
ID : 3
Format : AC-3
Format/Info : Audio Coding 3
Commercial name : Dolby Digital
Codec ID : A_AC3
Duration : 58 min 52 s
Bit rate mode : Constant
Bit rate : 640 kb/s
Channel(s) : 6 channels
Channel layout : L R C LFE Ls Rs
Sampling rate : 48.0 kHz
Frame rate : 31.250 FPS (1536 SPF)
Bit depth : 16 bits
Compression mode : Lossy
Stream size : 270 MiB (8%)
Language : English
Service kind : Complete Main
Default : No
Forced : No
Text #1
ID : 4
Format : UTF-8
Codec ID : S_TEXT/UTF8
Codec ID/Info : UTF-8 Plain Text
Title : Forced
Language : Russian
Default : Yes
Forced : Yes
Text #2
ID : 5
Format : UTF-8
Codec ID : S_TEXT/UTF8
Codec ID/Info : UTF-8 Plain Text
Language : Russian
Default : No
Forced : No
Text #3
ID : 6
Format : UTF-8
Codec ID : S_TEXT/UTF8
Codec ID/Info : UTF-8 Plain Text
Language : English
Default : No
Forced : No
Text #4
ID : 7
Format : UTF-8
Codec ID : S_TEXT/UTF8
Codec ID/Info : UTF-8 Plain Text
Language : German
Default : No
Forced : No
Text #5
ID : 8
Format : UTF-8
Codec ID : S_TEXT/UTF8
Codec ID/Info : UTF-8 Plain Text
Language : French
Default : No
Forced : No
Text #6
ID : 9
Format : UTF-8
Codec ID : S_TEXT/UTF8
Codec ID/Info : UTF-8 Plain Text
Language : Italian
Default : No
Forced : No
Text #7
ID : 10
Format : UTF-8
Codec ID : S_TEXT/UTF8
Codec ID/Info : UTF-8 Plain Text
Language : Spanish
Default : No
Forced : No
Text #8
ID : 11
Format : UTF-8
Codec ID : S_TEXT/UTF8
Codec ID/Info : UTF-8 Plain Text
Language : Dutch
Default : No
Forced : No
Text #9
ID : 12
Format : UTF-8
Codec ID : S_TEXT/UTF8
Codec ID/Info : UTF-8 Plain Text
Language : Portuguese
Default : No
Forced : No
Text #10
ID : 13
Format : UTF-8
Codec ID : S_TEXT/UTF8
Codec ID/Info : UTF-8 Plain Text
Language : Turkish
Default : No
Forced : No
Text #11
ID : 14
Format : UTF-8
Codec ID : S_TEXT/UTF8
Codec ID/Info : UTF-8 Plain Text
Language : Greek
Default : No
Forced : No

Доп. инфо. / Трейлер:

Работа со звуком: ZgurVas & Atla22
Сбор материала: Atla22--Этот сериал обещает рассказать не выдуманную историю, основанную на реальных событиях. В 2008 году 18-летняя школьница Мари Адлер заявляет, что, находясь одна дома, подверглась сексуальному насилию: неизвестный связал ей руки шнурками от ее кроссовок, пригрозил, что использует нож и убьет ее, если она будет кричать. Полиция проводит проверку и выясняет, что нет следов насильственного проникновения, нет следов взлома дома, нет следов чужого ДНК на месте преступления. Никто из соседей не видел и не слышал ничего подозрительного. Полиция ей не верит и продолжает допрашивать, хотя она уверена, что ей это не приснилось. В итоге полицейские приходят к выводу, что девушка все выдумала, и предъявляют обвинение в лжесвидетельстве. Мари соглашается на сделку, тем самым юридически признавая, что ничего не было. Однако правда, в которую не верит даже ее приемная мать, тяжелым грузом лежит на плечах Мари, и подросток задумывается о самоубийстве.
Спустя два года в разных городах в штате Колорадо происходят жестокие нападения на разных женщин. В обоих случаях расследование ведут женщины — детективы Грейс Расмуссен и Карен Дюваль. Пообщавшись, они выясняют, что их дела странным образом схожи. Просмотрев старые материалы, они находят несколько других случаев, у которых есть много общего: неизвестный проникает в дом ранним утром, когда жертва еще спит, связывает ее и насилует, но не оставляет никаких следов. Он носит черную шапку, закрывающую лицо, чтобы жертва не смогла опознать преступника. Из-за того, что преступления совершались в разных городах и штатах и все жертвы не похожи друг на друга, никто не догадывался, что по стране ездит серийный насильник. Преступник нападает лишь один раз в каждом городе, и из-за отсутствия улик и информации о других подобных изнасилованиях полиция каждого города рано или поздно закрывала дела. Детективы Расмуссен и Дюваль осознают, что было совершено, по крайней мере, восемь изнасилований, и преступник продолжает охотиться на беззащитных женщин.
Скриншоты:
       

Орлов Владимир

Post 11-Sep-2019 02:46

[Quote]

-═╬ Киллджойс ╬═-- Информация о фильме
✦ Название: Килджой / Киллджойс / Кайфоломы
✦ Оригинальное название: Killjoys
✦ Год выхода: 2019
✦ Жанр: фантастика
✦ Режиссер: Крис Грисмер, Паоло Барзмен, Энди Микита--✦ В ролях: Том Эллисон, Тамсен МакДонаф, Аарон Эшмор, Роб Стюарт, Ханна Джон-Кэймен, Люк МакФарлейн, Сара Пауэр, Нора МакЛеллан, Морган Келли, Данка Щепанович, Фрэнк Мур
--О фильме:
Сериал рассказывает о трио охотников за головами Джоне, Д’Эвинсе и Датче. Их команда промышляет охотой на преступников в далёкой галактике Квад, где вот-вот грянет классовая война. Герои поклялись друг другу, что не будут поддерживать ни одну из сторон конфликта, где бы они не оказались.
-- --✦ Страна: Канада
✦ Студия: Temple Street Productions Limited
✦ Продолжительность: 8 x ~ 00:43:00
✦ Перевод: профессиональный (многоголосый, закадровый) - LostFilm
-- --Информация о файле:
✦ Кодек: XviD | Avi
✦ Качество: WEB-DL (720p) | чистый видеоряд |
✦ Видео: ~ MPEG-4 AVC, ~ 5300 Kбит/с, 1280x720
✦ Аудио Ru: AC3, 2 ch, 384 Кбит/с
✦ Аудио En:
EAC3, 6 ch, 640 Кбит/с
✦ Субтитры: Английские

✘ Скриншоты ✘

           

✘ Раздача ведется путем добавления новых серий ✘

Когда раздача ведётся путём добавления новых серий, при каждом добавлении создётся новый торрент. Чтобы начать докачку новой серии, пользователям необходимо сделать следующее:
(1) остановить скачивание,
(2) удалить старый торрент у себя из клиента (старые серии удалять не надо),
(3) скачать новый торрент и запустить его у себя в клиенте вместо старого, при этом указать клиенту путь в старую папку, куда и должно происходить скачивание новых серий.
Ваш клиент при этом должен произвести хеширование (проверку) старой папки (если не производит сам - помогите ему сделать это), и будет докачивать только те серии, которых у вас ещё нет. Старые серии при этом не удаляются, а продолжают раздаваться!
Eсли вы уже удалили старые серии, то предотвратить повторную закачку старых серий можно, отжав галочку в соответсвующих местах при запуске нового торрента. По возможности, желательно не удалять старые серии как можно дольше, чтобы релизёр не столько продолжал раздавать старые серии, а смог сконцентрироваться на новых.

Clavik

Post 08-Sep-2019 22:48

[Quote]

Террор / The Terror (2018) WEB-DLRip - Производство: США / EMJAG Productions, Entertainment 360, Scott Free Productions
Жанр: ужасы, драма
Режиссер: Тим Милантс, Эдвард Бергер, Серджо Мимика-Геззан
Актеры: Джаред Харрис, Киран Хайндс, Тобайас Мензис, Крис Корригэн, Иэн Харт, Кристос Лоутон, Мэттью МакНалти, Адам Нагаитис, Нив Нилсен, Пол Рэди и др.
Описание:
В 1845 году экспедиция под командованием опытного полярного исследователя сэра Джона Франклина отправляется на судах «Террор» и «Эребус» к северному побережью Канады на поиск северо-западного прохода из Атлантического океана в Тихий — и бесследно исчезает. Поиски ее затянулись на несколько десятилетий, сведения о ее судьбе собирались буквально по крупицам, и до сих пор картина происшедшего пестрит белыми пятнами.

Возраст: 18+ (зрителям, достигшим 18 лет. )
Релиз от: LostFilm
Продолжительность: ~00:46:00 серия
Качество видео: WEB-DLRip
Перевод: Многоголосый закадровый, профессиональный - LostFilm
Реклама: присутствуют заставка и логотип LostFilm
Видео: AVC/H.264, 1920x1080 (16:9), ~5242 kbps
Аудио 1: AC-3, 48,0 kHz, 2 ch, 384 kbps — русский, многоголосый закадровый
Аудио 2: AC-3, 48,0 kHz, 2 ch, 384 kbps — английский

Mediainfo:

Общее
Уникальный идентификатор : 207564728790865727654361351996218859684 (0x9C27833D88DF5F38BCA7F099A858E0A4)
Полное имя : F:\Torrents\Террор.The Terror.LostFilm.1080h.Сезон 1\The.Terror.S01E01.1080p.rus.LostFilm.TV.mkv
Формат : Matroska
Версия формата : Version 4 / Version 2
Размер файла : 1,94 Гбайт
Продолжительность : 46 м. 17 с.
Общий поток : 6007 Кбит/сек
Дата кодирования : UTC 2018-03-29 15:02:36
Программа кодирования : mkvmerge v9.5.0 ('Quiet Fire') 64bit
Библиотека кодирования : libebml v1.3.4 + libmatroska v1.4.5
Видео
Идентификатор : 1
Формат : AVC
Формат/Информация : Advanced Video Codec
Профиль формата : [url=mailto:[email protected]][email protected][/url]
Настройки формата : CABAC / 4 Ref Frames
Параметр CABAC формата : Да
Параметр RefFrames формата : 4 кадра
Идентификатор кодека : V_MPEG4/ISO/AVC
Продолжительность : 46 м. 17 с.
Битрейт : 5242 Кбит/сек
Ширина : 1920 пикселей
Высота : 1080 пикселей
Соотношение сторон : 16:9
Режим частоты кадров : Постоянный
Частота кадров : 23,976 (24000/1001) кадра/сек
Частота кадров в оригинале : 23,976 (23976/1000) кадра/сек
Цветовое пространство : YUV
Субдискретизация насыщенности : 4:2:0
Битовая глубина : 8 бит
Тип развёртки : Прогрессивная
Бит/(Пиксели*Кадры) : 0.105
Размер потока : 1,69 Гбайт (87%)
Библиотека кодирования : x264 core 112 r1834 a51816a
Настройки программы : cabac=1 / ref=4 / deblock=1:-3:-2 / analyse=0x3:0x113 / me=hex / subme=7 / psy=1 / psy_rd=1.00:0.00 / mixed_ref=1 / me_range=16 / chroma_me=1 / trellis=1 / 8x8dct=1 / cqm=0 / deadzone=21,11 / fast_pskip=1 / chroma_qp_offset=-2 / threads=12 / sliced_threads=0 / nr=0 / decimate=1 / interlaced=0 / constrained_intra=0 / bframes=5 / b_pyramid=2 / b_adapt=1 / b_bias=0 / direct=1 / weightb=1 / open_gop=0 / weightp=2 / keyint=250 / keyint_min=25 / scenecut=40 / intra_refresh=0 / rc_lookahead=40 / rc=2pass / mbtree=1 / bitrate=5242 / ratetol=1.0 / qcomp=0.60 / qpmin=0 / qpmax=51 / qpstep=4 / cplxblur=20.0 / qblur=0.5 / vbv_maxrate=10000 / vbv_bufsize=256000 / ip_ratio=1.40 / aq=1:1.00 / nal_hrd=none
Default : Да
Forced : Нет
Аудио #1
Идентификатор : 2
Формат : AC-3
Формат/Информация : Audio Coding 3
Идентификатор кодека : A_AC3
Продолжительность : 46 м. 17 с.
Вид битрейта : Постоянный
Битрейт : 384 Кбит/сек
Каналы : 2 канала
Расположение каналов : Front: L R
Частота : 48,0 КГц
Частота кадров : 31,250 кадров/сек (1536 SPF)
Битовая глубина : 16 бит
Метод сжатия : С потерями
Размер потока : 127 Мбайт (6%)
ServiceKind/String : Complete Main
Default : Да
Forced : Нет
Аудио #2
Идентификатор : 3
Формат : AC-3
Формат/Информация : Audio Coding 3
Идентификатор кодека : A_AC3
Продолжительность : 46 м. 17 с.
Вид битрейта : Постоянный
Битрейт : 384 Кбит/сек
Каналы : 2 канала
Расположение каналов : Front: L R
Частота : 48,0 КГц
Частота кадров : 31,250 кадров/сек (1536 SPF)
Битовая глубина : 16 бит
Метод сжатия : С потерями
Размер потока : 127 Мбайт (6%)
ServiceKind/String : Complete Main
Default : Нет
Forced : Нет

Список серий:

1 серия: Рывок / Go for Broke
2 серия: Резня / Gore
3 серия: Лестница / The Ladder
4 серия: Наказан, как мальчишка / Punished, as a Boy
5 серия: Не промажьте, ребята / First Shot a Winner, Lads
6 серия: Милосердие / A Mercy
7 серия: Страшный ужин / Horrible from Supper
8 серия: Лагерь «Террора» пуст / Terror Camp Clear
9 серия: О даль морская, о простор / The C, the C, the Open C
10 серия: Нас больше нет / We Are Gone
Скриншоты:
       

Clavik

Post 01-Sep-2019 17:55

[Quote]

Карнивал Роу / Carnival Row (2019) WEB-DL [H.264/720p-LQ] - Производство: США / Amazon Studios, Legendary Television, Stillking Films
Жанр: фэнтези, триллер, детектив
Режиссер: Джон Эмиел, Анна Ферстер, Энди Годдард
Актеры: Орландо Блум, Кара Делевинь, Карла Кроум, Арти Фрушан, Индира Варма, Вадж Али, Мейв Дермоди, Эндрю Гауэр, Дэвид Гяси, Джэми Харрис и др.
Описание:
Действие сериала разворачивается в неовикторианском мегаполисе, где укрываются мифические существа, стекаясь туда из своих разоренных войной земель.

Дата мировой премьеры: 30 августа 2019
Продолжительность: ~00:60:00 серия
Качество видео: WEB-DL
Перевод: Многоголосый закадровый, профессиональный - HDRezka Studio
Субтитры: русские, английские
Видео: AVC/H.264, 1280x720 (16:9), ~2315 Kbps
Аудио #1: AC3, 2 ch, 192 Kbps - русский, многоголосый закадровый
Аудио #2: AC3, 6 ch, 640 Kbps - английский

MediaInfo:

Общее
Уникальный идентификатор : 148668318584454816179710919081603732690 (0x6FD87A0604FE00CA5ABC5C2749F594D2)
Полное имя : G:\Carnival.Row.S01\Carnival.Row.S01E01.mkv
Формат : Matroska
Версия формата : Version 4
Размер файла : 1,33 Гбайт
Продолжительность : 1 ч. 0 м.
Общий поток : 3148 Кбит/сек
Дата кодирования : UTC 2019-08-31 15:52:05
Программа кодирования : mkvmerge v33.1.0 ('Primrose') 64-bit
Библиотека кодирования : libebml v1.3.7 + libmatroska v1.5.0
Видео
Идентификатор : 1
Формат : AVC
Формат/Информация : Advanced Video Codec
Профиль формата : [url=mailto:[email protected]][email protected][/url]
Настройки формата : CABAC / 4 Ref Frames
Параметр CABAC формата : Да
Параметр RefFrames формата : 4 кадра
Идентификатор кодека : V_MPEG4/ISO/AVC
Продолжительность : 1 ч. 0 м.
Вид битрейта : Постоянный
Битрейт : 2313 Кбит/сек
Номинальный битрейт : 6000 Кбит/сек
Ширина : 1280 пикселей
Высота : 720 пикселей
Соотношение сторон : 16:9
Режим частоты кадров : Постоянный
Частота кадров : 23,976 (24000/1001) кадра/сек
Цветовое пространство : YUV
Субдискретизация насыщенности : 4:2:0
Битовая глубина : 8 бит
Тип развёртки : Прогрессивная
Бит/(Пиксели*Кадры) : 0.105
Размер потока : 1003 Мбайт (73%)
Default : Да
Forced : Нет
Цветовой диапазон : Limited
Основные цвета : BT.709
Характеристики трансфера : BT.709
Коэффициенты матрицы : BT.709
Аудио #1
Идентификатор : 2
Формат : AC-3
Формат/Информация : Audio Coding 3
Коммерческое название : Dolby Digital
Идентификатор кодека : A_AC3
Продолжительность : 1 ч. 0 м.
Вид битрейта : Постоянный
Битрейт : 192 Кбит/сек
Каналы : 2 канала
ChannelLayout : L R
Частота : 48,0 КГц
Частота кадров : 31,250 кадров/сек (1536 SPF)
Битовая глубина : 16 бит
Метод сжатия : С потерями
Размер потока : 83,2 Мбайт (6%)
Заголовок : HDrezka Studio
Язык : Russian
ServiceKind/String : Complete Main
Default : Да
Forced : Нет
Аудио #2
Идентификатор : 3
Формат : E-AC-3
Формат/Информация : Enhanced AC-3
Коммерческое название : Dolby Digital Plus
Идентификатор кодека : A_EAC3
Продолжительность : 1 ч. 0 м.
Вид битрейта : Постоянный
Битрейт : 640 Кбит/сек
Каналы : 6 каналов
ChannelLayout : L R C LFE Ls Rs
Частота : 48,0 КГц
Частота кадров : 31,250 кадров/сек (1536 SPF)
Метод сжатия : С потерями
Размер потока : 277 Мбайт (20%)
Заголовок : Original english
Язык : English
ServiceKind/String : Complete Main
Default : Нет
Forced : Нет
Текст #1
Идентификатор : 4
Формат : UTF-8
Идентификатор кодека : S_TEXT/UTF8
Идентификатор кодека/Информация : UTF-8 Plain Text
Продолжительность : 57 м. 31 с.
Битрейт : 63 бит/сек
ElementCount : 1002
Размер потока : 26,9 Кбайт (0%)
Язык : English
Default : Нет
Forced : Нет
Текст #2
Идентификатор : 5
Формат : UTF-8
Идентификатор кодека : S_TEXT/UTF8
Идентификатор кодека/Информация : UTF-8 Plain Text
Продолжительность : 58 м. 20 с.
Битрейт : 63 бит/сек
ElementCount : 1016
Размер потока : 27,0 Кбайт (0%)
Заголовок : SDH
Язык : English
Default : Нет
Forced : Нет
Текст #3
Идентификатор : 6
Формат : UTF-8
Идентификатор кодека : S_TEXT/UTF8
Идентификатор кодека/Информация : UTF-8 Plain Text
Продолжительность : 58 м. 19 с.
Битрейт : 88 бит/сек
ElementCount : 747
Размер потока : 37,9 Кбайт (0%)
Язык : Russian
Default : Нет
Forced : Нет
Скриншоты:
       

Clavik

Post 31-Aug-2019 00:02

[Quote]

13 причин почему / 13 Reasons Why (2019) WEBRip [H.264/720p-LQ] (сезон 3, серия 1-13 из 13) [AD] - Производство: США / July Moon Productions, Kicked to the Curb Productions, Anonymous Content
Жанр: драма, детектив
Режиссер: Джессика Ю, Кайл Патрик Альварез, Грегг Араки
Актеры: Дилан Миннетт, Кэтрин Лэнгфорд, Кейт Уолш, Кристиан Наварро, Майлс Хейзер, Алиша Боэ, Брэндон Флинн, Дерек Люк, Джастин Прентис, Девин Друид и др.
Описание:
Однажды Клэй Дженсен находит на пороге своего дома коробку с аудиокассетами, записанными Ханной Бейкер. Он был влюблен в эту девушку в школе, пока она однажды не покончила жизнь самоубийством. В своих записях Ханна указала 13 причин, которые толкнули её на это. И Клэй — одна из них.

Возраст: 16+ (зрителям, достигшим 16 лет)
Релиз от: JimmyJ
Продолжительность: ~00:55:00 серия
Качество видео: WEBRip
Перевод: Двуголосый закадровый, любительский - JimmyJ
Реклама: присутствуют видео, аудио, текстовые вставки рекламы
Видео: AVC/H.264, 1280x720 (16:9), ~2200 Kbps
Аудио: AC3, 2 ch, 256 Kbps

MediaInfo:

General
Unique ID : 232944542601248907788955583271524430511 (0xAF3F7CABE229EC1A686B1D7B4D34F2AF)
Complete name : E:\Torrent\JimmyJ\13.Reasons.Why.S03.720p.WEBRip.JimmyJ\13.Reasons.Why.S03E01.720p.WEBRip.JimmyJ.mkv
Format : Matroska
Format version : Version 4
File size : 1 007 MiB
Duration : 57 min 15 s
Overall bit rate : 2 459 kb/s
Writing application : XviD4PSP 8.0.77
Writing library : Lavf58.20.100
ErrorDetectionType : Per level 1
ENCODING_INFO : MATROSKA,WEBM > MKV 720p
Video
ID : 1
Format : AVC
Format/Info : Advanced Video Codec
Format profile : [url=mailto:[email protected]][email protected][/url]
Format settings : CABAC / 1 Ref Frames
Format settings, CABAC : Yes
Format settings, Reference : 1 frame
Codec ID : V_MPEG4/ISO/AVC
Duration : 57 min 15 s
Bit rate : 2 200 kb/s
Width : 1 280 pixels
Height : 720 pixels
Display aspect ratio : 16:9
Frame rate mode : Constant
Frame rate : 23.976 (24000/1001) FPS
Color space : YUV
Chroma subsampling : 4:2:0
Bit depth : 8 bits
Scan type : Progressive
Bits/(Pixel*Frame) : 0.100
Stream size : 882 MiB (88%)
Writing library : x264 core 157 r2958 57baac4
Encoding settings : cabac=1 / ref=1 / deblock=0:-6:-6 / analyse=0x3:0 / me=dia / subme=0 / psy=1 / psy_rd=1.00:0.00 / mixed_ref=0 / me_range=4 / chroma_me=1 / trellis=0 / 8x8dct=1 / cqm=0 / deadzone=21,11 / fast_pskip=1 / chroma_qp_offset=0 / threads=7 / lookahead_threads=1 / sliced_threads=0 / nr=0 / decimate=1 / interlaced=0 / bluray_compat=0 / constrained_intra=0 / bframes=0 / weightp=0 / keyint=240 / keyint_min=24 / scenecut=0 / intra_refresh=0 / rc=2pass / mbtree=0 / bitrate=2200 / ratetol=1.0 / qcomp=0.60 / qpmin=0 / qpmax=69 / qpstep=4 / cplxblur=20.0 / qblur=0.5 / ip_ratio=1.40 / aq=0
Language : English
Default : Yes
Forced : No
Color range : Limited
Color primaries : BT.709
Transfer characteristics : BT.709
Matrix coefficients : BT.709
ENCODING_INFO : H264 > X264 VBR-2P 2200kbps Ultra Fast
Audio
ID : 2
Format : AC-3
Format/Info : Audio Coding 3
Commercial name : Dolby Digital
Codec ID : A_AC3
Duration : 57 min 15 s
Bit rate mode : Constant
Bit rate : 256 kb/s
Channel(s) : 2 channels
Channel layout : L R
Sampling rate : 48.0 kHz
Frame rate : 31.250 FPS (1536 SPF)
Bit depth : 16 bits
Compression mode : Lossy
Stream size : 105 MiB (10%)
Title : DVO JimmyJ
Language : Russian
Service kind : Complete Main
Default : Yes
Forced : No
ENCODING_INFO : AC3 > AC3 CBR 256kbps
Скриншоты:
       

Clavik

Post 25-Aug-2019 12:09

[Quote]

Роковой патруль / Doom Patrol (2019) WEB-DLRip [H.264/1080p-LQ] (сезон 1)- Производство: США | DC Comics
Жанр: фантастика, боевик, драма, комедия, детектив, приключения
Режиссер: Дермотт Даунс, Кэрол Бенкер, Роб Харди
Актеры: Дайан Герреро, Эйприл Боулби, Алан Тьюдик, Мэтт Бомер, Брендан Фрейзер, Тимоти Далтон, Райли Шэнэхэн, Мэттью Зук, Джоиван Уэйд, Фил Моррис и др.
Описание:
Иногда трагедии обрывают человеческие жизни, а иногда меняют их до неузнаваемости. Так произошло и с Клиффом Стилом, лихим раллистом, который попал в страшнейшую автокатастрофу. Весь мир поспешил счесть Стила мертвым, однако доктору Найлзу Колдеру удалось спасти мозг гонщика и пересадить его в «тело» робота. Когда Клифф пришел в сознание, он с удивлением обнаружил, что Колдер, он же Шеф, собрал под крышей своего дома целую команду таких же несчастных, как он...

Возраст: 16+ (зрителям, достигшим 16 лет)
Дата мировой премьеры: 15 февраля 2019
Продолжительность: ~00:50:00 серия
Качество видео: WEB-DLRip
Перевод: Многоголосый закадровый, профессиональный (LostFilm)
Субтитры: русские, английские
Видео: AVC/H.264, 1920x872 (2.2:1), ~4810 kbps
Аудио 1: AC3, 2 ch, 192 kbps - русский
Аудио 2: AC3, 2 ch, 192 kbps - английский

Mediainfo:

General
Unique ID : 182881540569185316471601251481786050112 (0x8995B41A44141771AC6D13D34804E640)
Complete name : D:\Doom_Patrol_S01_2019_WEB-DL_1080p_LF\Doom_Patrol_S01_2019_WEB-DL_1080p_LF_01.mkv
Format : Matroska
Format version : Version 2
File size : 2.17 GiB
Duration : 58 min 31 s
Overall bit rate mode : Variable
Overall bit rate : 5 299 kb/s
Movie name : Pilot
Encoded date : UTC 2019-02-19 20:09:10
Writing application : mkvmerge v6.9.1 ('Blue Panther') 32bit built on Apr 18 2014 18:15:44
Writing library : libebml v1.3.0 + libmatroska v1.4.1
Video
ID : 1
Format : AVC
Format/Info : Advanced Video Codec
Format profile : [email protected]
Format settings : CABAC / 4 Ref Frames
Format settings, CABAC : Yes
Format settings, ReFrames : 4 frames
Codec ID : V_MPEG4/ISO/AVC
Duration : 58 min 31 s
Bit rate mode : Variable
Bit rate : 4 810 kb/s
Maximum bit rate : 15.0 Mb/s
Width : 1 920 pixels
Height : 872 pixels
Display aspect ratio : 2.2:1
Frame rate mode : Constant
Frame rate : 23.976 (24000/1001) FPS
Color space : YUV
Chroma subsampling : 4:2:0
Bit depth : 8 bits
Scan type : Progressive
Bits/(Pixel*Frame) : 0.120
Stream size : 1.97 GiB (91%)
Writing library : x264 core 157 r2935 545de2f
Encoding settings : cabac=1 / ref=4 / deblock=1:-1:-1 / analyse=0x3:0x113 / me=umh / subme=9 / psy=1 / psy_rd=1.00:0.15 / mixed_ref=1 / me_range=24 / chroma_me=1 / trellis=2 / 8x8dct=1 / cqm=0 / deadzone=21,11 / fast_pskip=0 / chroma_qp_offset=-3 / threads=18 / lookahead_threads=3 / sliced_threads=0 / nr=0 / decimate=1 / interlaced=0 / bluray_compat=0 / constrained_intra=0 / bframes=8 / b_pyramid=2 / b_adapt=2 / b_bias=0 / direct=3 / weightb=1 / open_gop=0 / weightp=2 / keyint=120 / keyint_min=61 / scenecut=40 / intra_refresh=0 / rc_lookahead=120 / rc=crf / mbtree=1 / crf=20.0 / qcomp=0.60 / qpmin=0 / qpmax=69 / qpstep=4 / vbv_maxrate=15000 / vbv_bufsize=31250 / crf_max=0.0 / nal_hrd=vbr / filler=0 / ip_ratio=1.40 / aq=3:1.00
Language : English
Default : Yes
Forced : No
Color range : Limited
Color primaries : BT.709
Transfer characteristics : BT.709
Matrix coefficients : BT.709
Audio #1
ID : 2
Format : AC-3
Format/Info : Audio Coding 3
Commercial name : Dolby Digital
Codec ID : A_AC3
Duration : 58 min 31 s
Bit rate mode : Constant
Bit rate : 192 kb/s
Channel(s) : 2 channels
Channel layout : L R
Sampling rate : 48.0 kHz
Frame rate : 31.250 FPS (1536 SPF)
Bit depth : 16 bits
Compression mode : Lossy
Stream size : 80.4 MiB (4%)
Language : Russian
Service kind : Complete Main
Default : Yes
Forced : No
Audio #2
ID : 3
Format : AC-3
Format/Info : Audio Coding 3
Commercial name : Dolby Digital
Codec ID : A_AC3
Duration : 58 min 31 s
Bit rate mode : Constant
Bit rate : 192 kb/s
Channel(s) : 2 channels
Channel layout : L R
Sampling rate : 48.0 kHz
Frame rate : 31.250 FPS (1536 SPF)
Bit depth : 16 bits
Compression mode : Lossy
Stream size : 80.4 MiB (4%)
Language : English
Service kind : Complete Main
Default : No
Forced : No
Text #1
ID : 4
Format : UTF-8
Codec ID : S_TEXT/UTF8
Codec ID/Info : UTF-8 Plain Text
Language : Russian
Default : No
Forced : No
Text #2
ID : 5
Format : UTF-8
Codec ID : S_TEXT/UTF8
Codec ID/Info : UTF-8 Plain Text
Title : SDH
Language : English
Default : No
Forced : No

Дополнительная информация:

...Вскоре у профессора, подарившего каждому из них вторую жизнь и суперспособности, появляются опасные враги. И вместо тихого отшельнического образа жизни пятеро уродцев получают возможность проявить свои силы на полную и защитить от всесильных злодеев Шефа, город и все живое...
«Роковой патруль» — второй оригинальный сериал совсем еще юного потокового сервиса DC Universe. Несмотря на свою более чем 50-летнюю историю, команда фрик-супергероев никогда не становилась объектом особого интереса телевизионщиков и смогла появиться на экранах только в одном эпизоде «Титанов». Адаптировал комикс для ТВ Джереми Карвер — один из постоянных сценаристов и продюсеров «Сверхъестественного», а также уже закрытых, но запомнившихся нашим зрителям сериалов «Быть человеком» и «Радиоволна». Продюсерские функции взяли на себя настоящие ударники телепроизводства — Джефф Джонс, написавший большую часть эпизодов «Флэша», и Грег Берланти, разработавший ставшую уже культовой телевселенную «Стрелы». Боссы DC Universe не поскупились и на актерский состав, подписав на главные роли Тимоти Далтона, Эйприл Боулби, Мэтта Бомера и Брендана Фрейзера, что увеличивает шансы шоу о жутких подопечных профессора Найлза Колдера стать главным хитом платформы.
 
Источник
Скриншоты:
       

Clavik

Post 25-Aug-2019 01:00

[Quote]

Роковой патруль / Doom Patrol (2019) WEB-DLRip [H.264] (сезон 1) Profix Media- Производство: США / DC Comics
Жанр: фантастика, боевик, драма, приключения
Режиссер: Дермотт Даунс, Крис Мэнли, Салли Ричардсон-Уитфилд
Актеры: Дайан Герерро, Эйприл Боулби, Алан Тьюдик, Мэтт Бомер, Брендан Фрейзер, Тимоти Далтон и др.
Описание:
Сюжет повествует о супергероях, обретших сверхспособности в результате изувечивших их роковых случайностей. В состав необычной команды под руководством сумасшедшего учёного Найлза Колдера (также известного как Шеф) входят Роботмен, Негативный Человек, Безумная Джейн и Эластичная Женщина. Сломленные и искалеченные, эти люди находят применение своим способностям, защищая Землю от самых невероятных угроз. Роковой патруль — команда изгоев, воюющих за спасение мира, которому нет до них никакого дела.

Возраст: 16+ (зрителям, достигшим 16 лет)
Дата мировой премьеры: 15 февраля 2019
Продолжительность: ~00:58:00 серия
Качество видео: WEB-DLRip [H.264]
Перевод: Многоголосый закадровый, профессиональный (Студия "Profix Media")
Субтитры: русские, английские
Внимание! В русских субтитрах присутствует ненормативная лексика
Видео: AVC/H.264, 720x320, ~850 Kbps
Аудио 1: AAC, 2 ch, 192 Kbps - русский, многоголосый закадровый
Аудио 2: AAC, 2 ch, 192 Kbps - английский

Mediainfo:

General
Unique ID : 313044744739241063769844972831092226256 (0xEB82398B5AD79C613976344407DFB8D0)
Complete name : E:\Кино\РАЗДАЧА\Doom.Patrol.S01.Profix.Media\Doom.Patrol.S01E01.Profix.Media.mkv
Format : Matroska
Format version : Version 4
File size : 517 MiB
Duration : 58 min 13 s
Overall bit rate : 1 241 kb/s
Encoded date : UTC 2019-02-24 16:58:42
Writing application : mkvmerge v31.0.0 ('Dolores In A Shoestand') 64-bit
Writing library : libebml v1.3.6 + libmatroska v1.4.9
Video
ID : 5
Format : AVC
Format/Info : Advanced Video Codec
Format profile : [email protected]
Format settings : CABAC / 4 Ref Frames
Format settings, CABAC : Yes
Format settings, ReFrames : 4 frames
Codec ID : V_MPEG4/ISO/AVC
Duration : 58 min 13 s
Bit rate : 851 kb/s
Width : 720 pixels
Height : 320 pixels
Display aspect ratio : 2.25:1
Frame rate mode : Constant
Frame rate : 23.976 (23976/1000) FPS
Color space : YUV
Chroma subsampling : 4:2:0
Bit depth : 8 bits
Scan type : Progressive
Bits/(Pixel*Frame) : 0.154
Stream size : 354 MiB (69%)
Writing library : x264 core 152 r2851bm ba24899
Encoding settings : cabac=1 / ref=3 / deblock=1:0:0 / analyse=0x3:0x113 / me=hex / subme=7 / psy=1 / psy_rd=1.00:0.00 / mixed_ref=1 / me_range=16 / chroma_me=1 / trellis=1 / 8x8dct=1 / cqm=0 / deadzone=21,11 / fast_pskip=1 / chroma_qp_offset=-2 / threads=6 / lookahead_threads=1 / sliced_threads=0 / nr=0 / decimate=1 / interlaced=0 / bluray_compat=0 / constrained_intra=0 / bframes=3 / b_pyramid=2 / b_adapt=1 / b_bias=0 / direct=1 / weightb=1 / open_gop=0 / weightp=2 / keyint=250 / keyint_min=23 / scenecut=40 / intra_refresh=0 / rc_lookahead=40 / rc=crf / mbtree=1 / crf=18.0 / qcomp=0.60 / qpmin=0 / qpmax=69 / qpstep=4 / ip_ratio=1.40 / aq=1:1.00
Default : Yes
Forced : No
Audio #1
ID : 1
Format : AAC LC
Format/Info : Advanced Audio Codec Low Complexity
Codec ID : A_AAC-2
Duration : 58 min 13 s
Bit rate : 192 kb/s
Channel(s) : 2 channels
Channel layout : L R
Sampling rate : 44.1 kHz
Frame rate : 43.066 FPS (1024 SPF)
Compression mode : Lossy
Stream size : 80.6 MiB (16%)
Language : Russian
Default : Yes
Forced : No
Audio #2
ID : 2
Format : AAC LC
Format/Info : Advanced Audio Codec Low Complexity
Codec ID : A_AAC-2
Duration : 58 min 13 s
Bit rate : 192 kb/s
Channel(s) : 2 channels
Channel layout : L R
Sampling rate : 44.1 kHz
Frame rate : 43.066 FPS (1024 SPF)
Compression mode : Lossy
Stream size : 80.5 MiB (16%)
Language : English
Default : No
Forced : No
Text #1
ID : 3
Format : UTF-8
Codec ID : S_TEXT/UTF8
Codec ID/Info : UTF-8 Plain Text
Duration : 55 min 48 s
Bit rate : 81 b/s
Count of elements : 813
Stream size : 33.1 KiB (0%)
Language : Russian
Default : Yes
Forced : No
Text #2
ID : 4
Format : UTF-8
Codec ID : S_TEXT/UTF8
Codec ID/Info : UTF-8 Plain Text
Duration : 55 min 30 s
Bit rate : 53 b/s
Count of elements : 831
Stream size : 21.7 KiB (0%)
Language : English
Default : No
Forced : No
Скриншоты:
       

Clavik

Post 25-Aug-2019 00:08

[Quote]

Теория большого взрыва / The Big Bang Theory (2007-2018) HDTVRip Кураж-Бамбей
«Smart Is The New Sexy»
- Производство: США / Chuck Lorre Productions, Warner Bros. Television
Жанр: комедия, мелодрама
Режиссер: Марк Сендроуски, Питер Чакос
Актеры: Джонни Галэки, Джим Парсонс, Кейли Куоко, Саймон Хелберг, Кунал Найяр, Майем Биалик, Мелисса Рауш, Кэрол Энн Сьюзи, Кевин Суссман, Арти Манн, Кэти Леклерк
Описание:
Два блестящих физика, Леонард и Шелдон, «великие умы», которые понимают, как «работает вселенная». Но их гениальность ничуть не помогает им общаться с людьми, особенно с женщинами. Всё начинает меняться, когда напротив них поселяется красавица Пенни. Когда Леонард и Шелдон встречают Пенни, Леонард сразу же начинает интересоваться ею. Он видит в общении с Пенни огромную перспективу…, вплоть до любви, однако Шелдон понимает, что мечтам его друга не суждено сбыться. Стоит также отметить пару странных друзей этих физиков: Воловец, который любит употреблять фразы на разных языках, включая русский, и Раджеш Кутрапали, теряющий дар речи при виде женщин.

Возраст: 16+ (зрителям, достигшим 16 лет)
Продолжительность: ~00:20:00 серия
Качество видео: HDTVRip
Перевод: Одноголосый закадровый, профессиональный - Кураж-Бамбей
Видео: Xvid, 720х400, ~1320 Kbps
Аудио: AC3, 2 ch, 192 Kbps

Mediainfo:

Общее
Полное имя : The.Big.Bang.Theory.s01e01.перевод.kuraj-bambey.рип.tahiy.avi
Формат : AVI
Формат/Информация : Audio Video Interleave
Размер файла : 251 Мбайт
Продолжительность : 22 м. 57 с.
Общий поток : 1529 Кбит/сек
Название фильма : Теория большого взрыва - = Rip by tahiy = -
Программа кодирования : VirtualDubMod 1.5.10.3 | www.virtualdub-fr.org || (build 2550/release)
Видео
Идентификатор : 0
Формат : MPEG-4 Visual
Профиль формата : Advanced [email protected]
Настройки формата : BVOP1
Параметр BVOP формата : 1
Параметр QPel формата : Нет
Параметр GMC формата : Без точки перехода
Параметр матрицы формата : Default (MPEG)
Идентификатор кодека : XVID
Идентификатор кодека/Подсказка : XviD
Продолжительность : 22 м. 57 с.
Битрейт : 1328 Кбит/сек
Ширина : 720 пикселей
Высота : 400 пикселей
Соотношение сторон : 16:9
Частота кадров : 23,976 (24000/1001) кадра/сек
Цветовое пространство : YUV
Субдискретизация насыщенности : 4:2:0
Битовая глубина : 8 бит
Тип развёртки : Прогрессивная
Метод сжатия : С потерями
Бит/(Пиксели*Кадры) : 0.192
Размер потока : 218 Мбайт (87%)
Библиотека кодирования : XviD 73
Аудио
Идентификатор : 1
Формат : AC-3
Формат/Информация : Audio Coding 3
Коммерческое название : Dolby Digital
Идентификатор кодека : 2000
Продолжительность : 22 м. 57 с.
Вид битрейта : Постоянный
Битрейт : 192 Кбит/сек
Каналы : 2 канала
Channel layout : L R
Частота : 48,0 КГц
Частота кадров : 31,250 кадров/сек (1536 SPF)
Битовая глубина : 16 бит
Метод сжатия : С потерями
Размер потока : 31,5 Мбайт (13%)
Выравнивание : Разделение по промежуткам
Продолжительность промежутка : 42 мс. (1,00 видеокадр)
Время предзагрузки промежутка : 500 мс.
ServiceKind/String : Complete Main

Дополнительная информация:

Награды:
Премия Гильдии актеров, 2017 год
Номинации (1):
Лучший актерский состав комедийного сериала
Жорж, 2016 год
Победитель (1):
Лучший зарубежный сериал (комедия)
Эмми, 2016 год
Номинации (2):
Лучший приглашенный актёр в комедийном сериале (Боб Ньюхарт)
Лучшая приглашенная актриса в комедийном сериале (Кристин Барански, Лори Меткаф)
Премия Гильдии актеров, 2016 год
Номинации (2):
Лучший актер комедийного сериала (Джим Парсонс)
Лучший актерский состав комедийного сериала
Жорж, 2015 год
Победитель (1):
Лучший зарубежный сериал (комедия)
Эмми, 2015 год
Номинации (2):
Лучшая женская роль второго плана в комедийном сериале (Майем Биалик)
Лучшая приглашенная актриса в комедийном сериале (Кристин Барански)
Премия Гильдии актеров, 2015 год
Номинации (2):
Лучший актер комедийного сериала (Джим Парсонс)
Лучший актерский состав комедийного сериала
Золотой глобус, 2014 год
Номинации (2):
Лучший сериал (комедия или мюзикл)
Лучшая мужская роль на ТВ (комедия или мюзикл) (Джим Парсонс)
Жорж, 2014 год
Победитель (1):
Лучший зарубежный сериал (комедия)
Эмми, 2014 год
Победитель (1):
Лучшая мужская роль в комедийном сериале (Джим Парсонс)
Номинации (3):
Лучший комедийный сериал
Лучшая женская роль второго плана в комедийном сериале (Майем Биалик)
Лучший приглашенный актёр в комедийном сериале (Боб Ньюхарт)
Премия Гильдии актеров, 2014 год
Номинации (3):
Лучший актер комедийного сериала (Джим Парсонс)
Лучшая актриса комедийного сериала (Майем Биалик)
Лучший актерский состав комедийного сериала
Золотой глобус, 2013 год
Номинации (2):
Лучшая мужская роль на ТВ (комедия или мюзикл) (Джим Парсонс)
Лучший сериал (комедия или мюзикл)
Эмми, 2013 год
Победитель (2):
Лучшая мужская роль в комедийном сериале (Джим Парсонс)
Лучший приглашенный актёр в комедийном сериале (Боб Ньюхарт)
Номинации (2):
Лучшая женская роль второго плана в комедийном сериале (Майем Биалик)
Лучший комедийный сериал
Премия Гильдии актеров, 2013 год
Номинации (2):
Лучший актерский состав комедийного сериала
Лучший актер комедийного сериала (Джим Парсонс)
Золотой глобус, 2012 год
Номинации (1):
Лучшая мужская роль на ТВ (комедия или мюзикл) (Джонни Галэки)
Эмми, 2012 год
Номинации (3):
Лучший комедийный сериал
Лучшая мужская роль в комедийном сериале (Джим Парсонс)
Лучшая женская роль второго плана в комедийном сериале (Майем Биалик)
Премия Гильдии актеров, 2012 год
Номинации (1):
Лучший актерский состав комедийного сериала
Золотой глобус, 2011 год
Победитель (1):
Лучшая мужская роль на ТВ (комедия или мюзикл) (Джим Парсонс)
Номинации (1):
Лучший сериал (комедия или мюзикл)
Эмми, 2011 год
Победитель (1):
Лучшая мужская роль в комедийном сериале (Джим Парсонс)
Номинации (2):
Лучший комедийный сериал
Лучшая мужская роль в комедийном сериале (Джонни Галэки)
Эмми, 2010 год
Победитель (1):
Лучшая мужская роль в комедийном сериале (Джим Парсонс)
Номинации (1):
Лучшая приглашенная актриса в комедийном сериале (Кристин Барански)
Эмми, 2009 год
Номинации (2):
Лучшая мужская роль в комедийном сериале (Джим Парсонс)
Лучшая приглашенная актриса в комедийном сериале (Кристин Барански)
Скриншоты:
       

Дополнительные скриншоты:

       

Clavik

Post 24-Aug-2019 21:53

[Quote]

Открытое море / Alta Mar (2019) WEB-DLRip (сезон 1, серии 1-8 из 8) AMS [AD] - Производство: Испания
Жанр: драма, криминал, детектив
Режиссер: Лино Эскалера, Карлос Седес
Актеры: Ивана Бакеро, Алехандра Ониэва, Элой Асорин, Чики Фернандес, Тамар Новас, Даниэль Лунд, Наталия Родригес, Лаура Пратс, Игнасио Монтес и др.
Описание:
В 1940 году из Европы в Южную Америку отправляется трансатлантический лайнер, который везет счастливых людей, бегущих от войны в новый дивный мир. Среди пассажиров две сестры Каролина и Ева, а также офицер Николас Сала, оказавшийся не в том месте и не в то время.
Через какое-то время на борту появляется труп неизвестного пассажира, которого не было в списке, более того его никто не может вспомнить. Начинается расследование, в ходе которого обнаруживаются «скелеты» как в каждой каюте, так и самого судна.

Продолжительность: ~00:45:00 серия
Качество видео: WEB-DLRip
Перевод: Многоголосый закадровый, профессиональный - AMS (Adiós Muchachos Studio)
Реклама: присутствуют аудио вставки рекламы
Видео: XviD, 720x400 (16:9), ~2090 Kbps
Аудио #1: AC3, 48,0 kHz, 6 ch, 384 Kbps - русский, многоголосый закадровый
Аудио #2: AC3, 48,0 kHz, 6 ch, 384 Kbps - испанский

Mediainfo:

General
Complete name : /Alta.mar.[High.Seas].S01E01.400p.WEB-DLRip.AMS.avi
Format : AVI
Format/Info : Audio Video Interleave
File size : 1 017 MiB
Duration : 49mn 22s
Overall bit rate : 2 879 Kbps
Movie name : Alta Mar 1x01 - MVO AMS
Writing application : Lavf57.71.100
Video
ID : 0
Format : MPEG-4 Visual
Format profile : Advanced [email protected]
Format settings, BVOP : 2
Format settings, QPel : No
Format settings, GMC : No warppoints
Format settings, Matrix : Default (MPEG)
Codec ID : XVID
Codec ID/Hint : XviD
Duration : 49mn 22s
Bit rate : 2 094 Kbps
Width : 720 pixels
Height : 368 pixels
Display aspect ratio : 1.957
Frame rate : 25.000 fps
Color space : YUV
Chroma subsampling : 4:2:0
Bit depth : 8 bits
Scan type : Progressive
Compression mode : Lossy
Bits/(Pixel*Frame) : 0.316
Stream size : 740 MiB (73%)
Title : Alta Mar 1x01 - MVO AMS
Writing library : XviD 67
Audio #1
ID : 1
Format : AC-3
Format/Info : Audio Coding 3
Mode extension : CM (complete main)
Format settings, Endianness : Big
Codec ID : 2000
Duration : 49mn 22s
Bit rate mode : Constant
Bit rate : 384 Kbps
Channel(s) : 6 channels
Channel positions : Front: L C R, Side: L R, LFE
Sampling rate : 48.0 KHz
Frame rate : 31.250 fps (1536 spf)
Bit depth : 16 bits
Compression mode : Lossy
Stream size : 136 MiB (13%)
Alignment : Aligned on interleaves
Interleave, duration : 32 ms (0.80 video frame)
Title : MVO AMS
Audio #2
ID : 2
Format : AC-3
Format/Info : Audio Coding 3
Mode extension : CM (complete main)
Format settings, Endianness : Big
Codec ID : 2000
Duration : 49mn 22s
Bit rate mode : Constant
Bit rate : 384 Kbps
Channel(s) : 6 channels
Channel positions : Front: L C R, Side: L R, LFE
Sampling rate : 48.0 KHz
Frame rate : 31.250 fps (1536 spf)
Bit depth : 16 bits
Compression mode : Lossy
Stream size : 136 MiB (13%)
Alignment : Aligned on interleaves
Interleave, duration : 32 ms (0.80 video frame)
Title : Original
Скриншоты:
       

Clavik

Post 24-Aug-2019 21:50

[Quote]

Сумеречная зона / The Twilight Zone (2019) WEBRip [H.264/720p-LQ] (сезон 1, серия 1-10 из 10) [PR, AD] - Производство: США / CBS Television Studios, Genre Films, Monkeypaw Productions
Жанр: ужасы, фантастика, фэнтези, триллер, драма, детектив
Режиссер: Оуэн Харрис, Матиас Хендл, Саймон Кинберг
Актеры: Джордан Пил, Роб Карпентер, Шалин Фердинанд, Йен Хоуз, Адам Стэффорд, Таисса Фармига, Крис О’Дауд, ДеВанда Уайз, Айк Баринхолц и др.
Описание:
Перезагрузка классического сериала “Сумеречная зона” 1959 года. Вы отправляетесь в путешествие в другое измерение, измерение не только зрения и слуха, но и разума. Путешествие в удивительную страну, границы которой — это границы воображения. Этот указатель впереди — ваша следующая остановка, Сумеречная зона!

Релиз от: JimmyJ
Продолжительность: ~00:45:00
Качество видео: WEBRip 720p
Перевод: Двуголосый любительский (JimmyJ)
Субтитры: Отсутствуют
Реклама: присутствуют видео, аудио, текстовые вставки рекламы
Видео: AVC/H.264, 1280х720, ~3100 Kbps
Аудио: AC3, 2 ch, 256 Kbps

Mediainfo:

Общее
Уникальный идентификатор : 202727468091531691237777091960053823263 (0x9883E3DFDE9D8E8304CA9D3D8945F71F)
Полное имя : E:\Torrent\JimmyJ\The.Twilight.Zone.2019.S01.720p.WEBRip.JimmyJ\The.Twilight.Zone.2019.S01E01.720p.WEBRip.JimmyJ.mkv
Формат : Matroska
Версия формата : Version 4
Размер файла : 1,37 Гбайт
Продолжительность : 56 м. 30 с.
Общий поток : 3471 Кбит/сек
Программа кодирования : XviD4PSP 8.0.49
Библиотека кодирования : Lavf58.20.100
ErrorDetectionType : Per level 1
ENCODING_INFO : MATROSKA,WEBM > MKV 720p
Видео
Идентификатор : 1
Формат : AVC
Формат/Информация : Advanced Video Codec
Профиль формата : [url=mailto:[email protected]][email protected][/url]
Настройки формата : CABAC / 4 Ref Frames
Параметр CABAC формата : Да
Параметр RefFrames формата : 4 кадра
Идентификатор кодека : V_MPEG4/ISO/AVC
Продолжительность : 56 м. 30 с.
Битрейт : 3146 Кбит/сек
Номинальный битрейт : 3500 Кбит/сек
Ширина : 1280 пикселей
Высота : 720 пикселей
Соотношение сторон : 16:9
Режим частоты кадров : Постоянный
Частота кадров : 24,000 кадра/сек
Цветовое пространство : YUV
Субдискретизация насыщенности : 4:2:0
Битовая глубина : 8 бит
Тип развёртки : Прогрессивная
Бит/(Пиксели*Кадры) : 0.142
Размер потока : 1,24 Гбайт (91%)
Библиотека кодирования : x264 core 157 r2969 d4099dd
Настройки программы : cabac=1 / ref=3 / deblock=1:-2:-2 / analyse=0x3:0x133 / me=hex / subme=7 / psy=1 / psy_rd=1.00:0.20 / mixed_ref=1 / me_range=16 / chroma_me=1 / trellis=1 / 8x8dct=1 / cqm=0 / deadzone=21,11 / fast_pskip=1 / chroma_qp_offset=-3 / threads=7 / lookahead_threads=1 / sliced_threads=0 / nr=0 / decimate=1 / interlaced=0 / bluray_compat=0 / constrained_intra=0 / bframes=3 / b_pyramid=2 / b_adapt=2 / b_bias=0 / direct=3 / weightb=1 / open_gop=0 / weightp=2 / keyint=240 / keyint_min=24 / scenecut=40 / intra_refresh=0 / rc_lookahead=40 / rc=cbr / mbtree=1 / bitrate=3500 / ratetol=1.0 / qcomp=0.60 / qpmin=0 / qpmax=69 / qpstep=4 / vbv_maxrate=3500 / vbv_bufsize=2500 / nal_hrd=none / filler=0 / ip_ratio=1.40 / aq=1:1.00
Язык : English
Default : Да
Forced : Нет
Цветовой диапазон : Limited
Основные цвета : BT.709
Характеристики трансфера : BT.709
Коэффициенты матрицы : BT.709
ENCODING_INFO : H264 > X264 CBR 3500kbps HQ
Аудио
Идентификатор : 2
Формат : AC-3
Формат/Информация : Audio Coding 3
Коммерческое название : Dolby Digital
Идентификатор кодека : A_AC3
Продолжительность : 56 м. 30 с.
Вид битрейта : Постоянный
Битрейт : 256 Кбит/сек
Каналы : 2 канала
ChannelLayout : L R
Частота : 48,0 КГц
Частота кадров : 31,250 кадров/сек (1536 SPF)
Битовая глубина : 16 бит
Метод сжатия : С потерями
Размер потока : 103 Мбайт (7%)
Заголовок : DVO JimmyJ
Язык : Russian
ServiceKind/String : Complete Main
Default : Да
Forced : Нет
ENCODING_INFO : AC3 > AC3 CBR 256kbps
Скриншоты:
       

Clavik

Post 24-Aug-2019 21:49

[Quote]

Сумеречная зона / The Twilight Zone (2019) WEBRip (сезон 1, серия 1-10 из 10) [AD] - Производство: США / CBS Television Studios, Genre Films, Monkeypaw Productions
Жанр: ужасы, фантастика, фэнтези, триллер, драма, детектив
Режиссер: Оуэн Харрис, Матиас Хендл, Саймон Кинберг
Актеры: Джордан Пил, Роб Карпентер, Шалин Фердинанд, Йен Хоуз, Адам Стэффорд, Таисса Фармига, Крис О’Дауд, ДеВанда Уайз, Айк Баринхолц и др.
Описание:
Перезагрузка классического сериала “Сумеречная зона” 1959 года. Вы отправляетесь в путешествие в другое измерение, измерение не только зрения и слуха, но и разума. Путешествие в удивительную страну, границы которой — это границы воображения. Этот указатель впереди — ваша следующая остановка, Сумеречная зона!

Релиз от: JimmyJ
Продолжительность: ~00:45:00
Качество видео: WEBRip
Перевод: Двуголосый любительский (JimmyJ)
Субтитры: Отсутствуют
Реклама: присутствуют видео, аудио, текстовые вставки рекламы
Видео: XviD, 720х400, ~1800 Kbps
Аудио: MP3, 2 ch, 192 Kbps

Mediainfo:

Общее
Полное имя : E:\Torrent\JimmyJ\The.Twilight.Zone.2019.S01.WEBRip.JimmyJ\The.Twilight.Zone.2019.S01E01.WEBRip.JimmyJ.avi
Формат : AVI
Формат/Информация : Audio Video Interleave
Размер файла : 808 Мбайт
Продолжительность : 56 м. 30 с.
Общий поток : 2000 Кбит/сек
Программа кодирования : Lavf58.20.100
Видео
Идентификатор : 0
Формат : MPEG-4 Visual
Профиль формата : Advanced [email protected]
Настройки формата : BVOP1
Параметр BVOP формата : 1
Параметр QPel формата : Нет
Параметр GMC формата : Без точки перехода
Параметр матрицы формата : Default (H.263)
Идентификатор кодека : XVID
Идентификатор кодека/Подсказка : XviD
Продолжительность : 56 м. 30 с.
Битрейт : 1795 Кбит/сек
Ширина : 720 пикселей
Высота : 400 пикселей
Соотношение сторон : 16:9
Частота кадров : 24,000 кадра/сек
Цветовое пространство : YUV
Субдискретизация насыщенности : 4:2:0
Битовая глубина : 8 бит
Тип развёртки : Прогрессивная
Метод сжатия : С потерями
Бит/(Пиксели*Кадры) : 0.260
Размер потока : 726 Мбайт (90%)
Библиотека кодирования : XviD 67
Аудио
Идентификатор : 1
Формат : MPEG Audio
Версия формата : Version 1
Профиль формата : Layer 3
Настройки формата : Joint stereo / MS Stereo
Идентификатор кодека : 55
Идентификатор кодека/Подсказка : MP3
Продолжительность : 56 м. 30 с.
Вид битрейта : Постоянный
Битрейт : 192 Кбит/сек
Каналы : 2 канала
Частота : 48,0 КГц
Метод сжатия : С потерями
Размер потока : 77,6 Мбайт (10%)
Выравнивание : Соединение по промежуткам
Продолжительность промежутка : 24 мс. (0,58 видеокадр)
Заголовок : DVO JimmyJ
Библиотека кодирования : LAME3.100
Скриншоты:
       

Clavik

Post 24-Aug-2019 13:07

[Quote]

очень интересный

Clavik

Post 24-Aug-2019 13:05

[Quote]

Чернобыль / Chernobyl (2019) WEB-DLRip [H.264/720p-LQ] (сезон 1, серии 1-5 из 5) Novamedia - Производство: Великобритания, США / HBO, Sky Television, Sister Pictures, Mighty Mint
Жанр: Драма, Исторический
Режиссер: Йохан Ренк
Актеры: Джаред Харрис, Стеллан Скарсгард, Эмили Уотсон, Джошуа Лис, Росс Армстронг, Фил Барантини, Джесси Бакли, Джеймс Космо, Дэниэл Стоунер, Карл Дейвис
Описание:
История об аварии на Чернобыльской АЭС в 1986 году, эвакуации жителей Припяти и ликвидации последствий. «Чернобыль» драматизирует истинную историю одной из худших техногенных катастроф в истории и рассказывает о храбрых мужчинах и женщинах, которые пожертвовали собой, чтобы спасти Европу от невообразимой катастрофы.

Продолжительность: ~00:59:00 серия
Качество видео: WEB-DLRip
Перевод: Многоголосый закадровый, профессиональный - студия Новамедиа по заказу Amedia
Субтитры: русские (full, forced), английские (full, SDH)
Видео: AVC/H.264, 1280x720 (16:9), ~ 4380 Kbps
Аудио 1: AC3, 2 ch, 192 kbps - русский многоголосый (Новамедиа)
Аудио 2: E-AC3, 6 ch, 640 kbps - английский

Mediainfo:

General
Unique ID : 191955974683552503905806997884228528959 (0x9069603F39226ED0B0A8D88F9CD2EB3F)
Complete name : F:\СЕРИАЛЫ\CHERNOBYL\Chernobyl.S01.720p.AMZN.WEB-DL.DDP5.1.H.264-EniaHD\Chernobyl.S01E01.1.23.45.720p.AMZN.WEB-DL.DDP5.1.H.264-EniaHD.mkv
Format : Matroska
Format version : Version 2
File size : 2.19 GiB
Duration : 58 min 51 s
Overall bit rate : 5 322 kb/s
Movie name : 1:23:45
Encoded date : UTC 2019-05-07 07:48:11
Writing application : mkvmerge v6.9.1 ('Blue Panther') 32bit built on Apr 18 2014 18:15:44
Writing library : libebml v1.3.0 + libmatroska v1.4.1
Video
ID : 1
Format : AVC
Format/Info : Advanced Video Codec
Format profile : [url=mailto:[email protected]][email protected][/url]
Format settings : CABAC / 4 Ref Frames
Format settings, CABAC : Yes
Format settings, ReFrames : 4 frames
Codec ID : V_MPEG4/ISO/AVC
Duration : 58 min 51 s
Bit rate mode : Constant
Bit rate : 4 384 kb/s
Nominal bit rate : 6 000 kb/s
Width : 1 280 pixels
Height : 720 pixels
Display aspect ratio : 16:9
Frame rate mode : Constant
Frame rate : 23.976 (24000/1001) FPS
Color space : YUV
Chroma subsampling : 4:2:0
Bit depth : 8 bits
Scan type : Progressive
Bits/(Pixel*Frame) : 0.198
Stream size : 1.80 GiB (82%)
Language : English
Default : Yes
Forced : No
Color range : Limited
Color primaries : BT.709
Transfer characteristics : BT.709
Matrix coefficients : BT.709
Audio #1
ID : 2
Format : AC-3
Format/Info : Audio Coding 3
Codec ID : A_AC3
Duration : 58 min 51 s
Bit rate mode : Constant
Bit rate : 192 kb/s
Channel(s) : 2 channels
Channel positions : Front: L R
Sampling rate : 48.0 kHz
Frame rate : 31.250 FPS (1536 SPF)
Bit depth : 16 bits
Compression mode : Lossy
Stream size : 80.8 MiB (4%)
Language : Russian
Service kind : Complete Main
Default : Yes
Forced : No
Audio #2
ID : 3
Format : AC-3
Format/Info : Audio Coding 3
Codec ID : A_AC3
Duration : 58 min 51 s
Bit rate mode : Constant
Bit rate : 640 kb/s
Channel(s) : 6 channels
Channel positions : Front: L C R, Side: L R, LFE
Sampling rate : 48.0 kHz
Frame rate : 31.250 FPS (1536 SPF)
Bit depth : 16 bits
Compression mode : Lossy
Stream size : 269 MiB (12%)
Language : English
Service kind : Complete Main
Default : No
Forced : No
Text #1
ID : 4
Format : UTF-8
Codec ID : S_TEXT/UTF8
Codec ID/Info : UTF-8 Plain Text
Title : Forced
Language : Russian
Default : Yes
Forced : Yes
Text #2
ID : 5
Format : UTF-8
Codec ID : S_TEXT/UTF8
Codec ID/Info : UTF-8 Plain Text
Language : Russian
Default : No
Forced : No
Text #3
ID : 6
Format : UTF-8
Codec ID : S_TEXT/UTF8
Codec ID/Info : UTF-8 Plain Text
Title : SDH
Language : English
Default : No
Forced : No

Список серий:

01. 1:23:45
02. Пожалуйста, сохраняйте спокойствие / Please Remain Calm
03. Откройся широко, о Земля! / Open Wide, O Earth
04. Счастье всего человечества / The Happiness of All Mankind
05. Вечная память / Vichnaya Pamyat
Скриншоты:
       

Clavik

Post 24-Aug-2019 13:06

[Quote]

Чернобыль / Chernobyl (2019) WEB-DLRip (сезон 1, серии 1-5 из 5) Novamedia - Производство: Великобритания, США / HBO, Sky Television, Sister Pictures, Mighty Mint
Жанр: Драма, Исторический
Режиссер: Йохан Ренк
Актеры: Джаред Харрис, Стеллан Скарсгард, Эмили Уотсон, Джошуа Лис, Росс Армстронг, Фил Барантини, Джесси Бакли, Джеймс Космо, Дэниэл Стоунер, Карл Дейвис
Описание:
История об аварии на Чернобыльской АЭС в 1986 году, эвакуации жителей Припяти и ликвидации последствий. «Чернобыль» драматизирует истинную историю одной из худших техногенных катастроф в истории и рассказывает о храбрых мужчинах и женщинах, которые пожертвовали собой, чтобы спасти Европу от невообразимой катастрофы.

Продолжительность: ~00:59:00 серия
Качество видео: WEB-DLRip
Перевод: Многоголосый профессиональный - студия Новамедиа по заказу Amedia
Субтитры: русские (full, forced), английские (full, SDH)
Видео: XviD, 704x352 (16:9), ~ 1600 Kbps
Аудио 1: MP3, 2 ch, 128 Kbps - русский многоголосый (Новамедиа)
Аудио 2: MP3, 2 ch, 128 Kbps - английский

Mediainfo:

General
Complete name : F:\СЕРИАЛЫ\CHERNOBYL\Chernobyl.S01.AMZN.WEB-DLRip-EniaHD\Chernobyl.S01E01.1.23.45.AMZN.WEB-DLRip-EniaHD.avi
Format : AVI
Format/Info : Audio Video Interleave
File size : 787 MiB
Duration : 58 min 51 s
Overall bit rate : 1 869 kb/s
Writing application : VirtualDubMod 1.5.10.2 (build 2540/release)
Writing library : VirtualDubMod build 2540/release
Video
ID : 0
Format : MPEG-4 Visual
Format profile : Advanced [email protected]
Format settings : BVOP2 / Custom Matrix
Format settings, BVOP : 2
Format settings, QPel : No
Format settings, GMC : No warppoints
Format settings, Matrix : Custom
Codec ID : XVID
Codec ID/Hint : XviD
Duration : 58 min 51 s
Bit rate : 1 599 kb/s
Width : 704 pixels
Height : 352 pixels
Display aspect ratio : 2.000
Frame rate : 23.976 (24000/1001) FPS
Color space : YUV
Chroma subsampling : 4:2:0
Bit depth : 8 bits
Scan type : Progressive
Compression mode : Lossy
Bits/(Pixel*Frame) : 0.269
Stream size : 673 MiB (86%)
Writing library : XviD 73
Audio #1
ID : 1
Format : MPEG Audio
Format version : Version 1
Format profile : Layer 3
Format settings : Joint stereo
Codec ID : 55
Codec ID/Hint : MP3
Duration : 58 min 51 s
Bit rate mode : Constant
Bit rate : 128 kb/s
Channel(s) : 2 channels
Sampling rate : 48.0 kHz
Compression mode : Lossy
Stream size : 53.9 MiB (7%)
Alignment : Split accross interleaves
Interleave, duration : 42 ms (1.00 video frame)
Interleave, preload duratio : 500 ms
Audio #2
ID : 2
Format : MPEG Audio
Format version : Version 1
Format profile : Layer 3
Format settings : Joint stereo
Codec ID : 55
Codec ID/Hint : MP3
Duration : 58 min 51 s
Bit rate mode : Constant
Bit rate : 128 kb/s
Channel(s) : 2 channels
Sampling rate : 48.0 kHz
Compression mode : Lossy
Stream size : 53.9 MiB (7%)
Alignment : Split accross interleaves
Interleave, duration : 42 ms (1.00 video frame)
Interleave, preload duratio : 500 ms

Список серий:

01. 1:23:45
02. Пожалуйста, сохраняйте спокойствие / Please Remain Calm
03. Откройся широко, о Земля! / Open Wide, O Earth
04. Счастье всего человечества / The Happiness of All Mankind
05. Вечная память / Vichnaya Pamyat
Скриншоты:
       

Clavik

Post 24-Aug-2019 13:02

[Quote]

супер
 

The time now is: Today 23:28

All times are GMT + 3 Hours