Today is a free download without charge Download

Search found 472 matches

Author Message

Theseus

Post Yesterday 14:30

[Quote]

Хеллбой / Hellboy- Год выхода: 2019
Страна: США
Жанр: Фэнтези, боевик, приключения
Продолжительность: 02:01:02
Перевод 1: Профессиональный дублированный | iTunes
Перевод 2: Профессиональный многоголосый | СВ Студия
Субтитры: Русские (полные, полные [ненорматив], форсированные) , английские-Режиссер: Нил Маршалл-В ролях: Дэвид Харбор, Милла Йовович, Иэн Макшейн, Саша Лейн, Дэниел Дэ Ким, Томас Хейден Чёрч, Пенелопа Митчелл, Софи Оконедо, Брин Глисон, Алистер Петри, Лайла Морс, Стивен Грэм-О фильме: Близится час битвы Хеллбоя с Кровавой королевой, жаждущей отомстить всему человечеству за века в заточении. Оказавшись в эпицентре столкновения миров людей и монстров, Хеллбою придется пройти через ад, чтобы предотвратить надвигающийся апокалипсис..- -Качество: UHD BDRemux 2160p
Контейнер: MKV
Видео кодек: H.265
Аудио кодек: AC3, Dolby TrueHD
Видео: MPEG-H HEVC HDR Video, 3840x2160 (16:9), 23.976 fps, 66 Mb/s
Аудио 1: AC-3, 48.0 kHz, 6 ch, 384 kb/s | RUS (iTunes)
Аудио 2: AC-3, 48.0 kHz, 2 ch, 192 kb/s | RUS (СВ Студия)
Аудио 3: Dolby TrueHD, 48.0 kHz, 8 ch, 5255 kb/s | ENG
Аудио 4: AC-3, 48.0 kHz, 6 ch, 448 kb/s | ENG-

MI

Код:
General
Unique ID : 182381356667656472335949750971777619885 (0x89355F21DC4C4C8BF26358049CBF17AD)
Complete name : Hellboy.2019.BDREMUX..2160p.HDR.seleZen.mkv
Format : Matroska
Format version : Version 4
File size : 61.3 GiB
Duration : 2 h 1 min
Overall bit rate mode : Variable
Overall bit rate : 72.5 Mb/s
Movie name : Hellboy 2019 4K from селезень
Encoded date : UTC 2019-07-15 13:48:30
Writing application : mkvmerge v22.0.0 ('At The End Of The World') 64-bit
Writing library : libebml v1.3.5 + libmatroska v1.4.8
Video
ID : 1
Format : HEVC
Format/Info : High Efficiency Video Coding
Format profile : Main [email protected]@High
HDR format : SMPTE ST 2086, HDR10 compatible
Codec ID : V_MPEGH/ISO/HEVC
Duration : 2 h 1 min
Bit rate : 66.1 Mb/s
Width : 3 840 pixels
Height : 2 160 pixels
Display aspect ratio : 16:9
Frame rate mode : Constant
Frame rate : 23.976 (24000/1001) FPS
Color space : YUV
Chroma subsampling : 4:2:0 (Type 2)
Bit depth : 10 bits
Bits/(Pixel*Frame) : 0.332
Stream size : 55.9 GiB (91%)
Language : English
Default : Yes
Forced : No
Color range : Limited
Color primaries : BT.2020
Transfer characteristics : PQ
Matrix coefficients : BT.2020 non-constant
Mastering display color pri : Display P3
Mastering display luminance : min: 0.0001 cd/m2, max: 4000 cd/m2
Maximum Content Light Level : 3947 cd/m2
Maximum Frame-Average Light : 542 cd/m2
Audio #1
ID : 2
Format : AC-3
Format/Info : Audio Coding 3
Commercial name : Dolby Digital
Codec ID : A_AC3
Duration : 2 h 1 min
Bit rate mode : Constant
Bit rate : 384 kb/s
Channel(s) : 6 channels
Channel layout : L R C LFE Ls Rs
Sampling rate : 48.0 kHz
Frame rate : 31.250 FPS (1536 SPF)
Bit depth : 16 bits
Compression mode : Lossy
Stream size : 332 MiB (1%)
Title : Dub [iTunes]
Language : Russian
Service kind : Complete Main
Default : Yes
Forced : Yes
Audio #2
ID : 3
Format : AC-3
Format/Info : Audio Coding 3
Commercial name : Dolby Digital
Codec ID : A_AC3
Duration : 2 h 0 min
Bit rate mode : Constant
Bit rate : 192 kb/s
Channel(s) : 2 channels
Channel layout : L R
Sampling rate : 48.0 kHz
Frame rate : 31.250 FPS (1536 SPF)
Bit depth : 16 bits
Compression mode : Lossy
Stream size : 166 MiB (0%)
Title : MVO [СВ Студия]
Language : Russian
Service kind : Complete Main
Default : No
Forced : No
Audio #3
ID : 4
Format : MLP FBA 16-ch
Format/Info : Meridian Lossless Packing FBA with 16-channel presentation
Commercial name : Dolby TrueHD with Dolby Atmos
Codec ID : A_TRUEHD
Duration : 2 h 1 min
Bit rate mode : Variable
Bit rate : 5 255 kb/s
Maximum bit rate : 9 408 kb/s
Channel(s) : 8 channels
Channel layout : L R C LFE Ls Rs Lb Rb
Sampling rate : 48.0 kHz
Frame rate : 1 200.000 FPS (40 SPF)
Compression mode : Lossless
Stream size : 4.44 GiB (7%)
Title : Original
Language : English
Default : No
Forced : No
Number of dynamic objects : 15
Bed channel count : 1 channel
Bed channel configuration : LFE
Audio #4
ID : 5
Format : AC-3
Format/Info : Audio Coding 3
Commercial name : Dolby Digital
Codec ID : A_AC3
Duration : 2 h 1 min
Bit rate mode : Constant
Bit rate : 448 kb/s
Channel(s) : 6 channels
Channel layout : L R C LFE Ls Rs
Sampling rate : 48.0 kHz
Frame rate : 31.250 FPS (1536 SPF)
Bit depth : 16 bits
Compression mode : Lossy
Stream size : 388 MiB (1%)
Language : English
Service kind : Complete Main
Default : No
Forced : No
Text #1
ID : 6
Format : UTF-8
Codec ID : S_TEXT/UTF8
Codec ID/Info : UTF-8 Plain Text
Duration : 1 h 48 min
Bit rate : 1 b/s
Count of elements : 21
Stream size : 1.01 KiB (0%)
Title : Forced
Language : Russian
Default : Yes
Forced : Yes
Text #2
ID : 7
Format : UTF-8
Codec ID : S_TEXT/UTF8
Codec ID/Info : UTF-8 Plain Text
Duration : 2 h 0 min
Bit rate : 85 b/s
Count of elements : 1543
Stream size : 75.7 KiB (0%)
Title : Full [Enigma] (cens.)
Language : Russian
Default : No
Forced : No
Text #3
ID : 8
Format : UTF-8
Codec ID : S_TEXT/UTF8
Codec ID/Info : UTF-8 Plain Text
Duration : 2 h 0 min
Bit rate : 84 b/s
Count of elements : 1547
Stream size : 74.4 KiB (0%)
Title : Full [FOCS] (no cens.)
Language : Russian
Default : No
Forced : No
Text #4
ID : 9
Format : UTF-8
Codec ID : S_TEXT/UTF8
Codec ID/Info : UTF-8 Plain Text
Duration : 2 h 0 min
Bit rate : 53 b/s
Count of elements : 1528
Stream size : 46.7 KiB (0%)
Title : Full
Language : English
Default : No
Forced : No
Text #5
ID : 10
Format : UTF-8
Codec ID : S_TEXT/UTF8
Codec ID/Info : UTF-8 Plain Text
Duration : 2 h 0 min
Bit rate : 59 b/s
Count of elements : 1899
Stream size : 52.9 KiB (0%)
Title : SDH
Language : English
Default : No
Forced : No
Menu
00:00:00.000 : en:Chapter 01
00:08:54.284 : en:Chapter 02
00:14:41.714 : en:Chapter 03
00:22:34.853 : en:Chapter 04
00:30:12.602 : en:Chapter 05
00:35:48.730 : en:Chapter 06
00:43:50.461 : en:Chapter 07
00:53:17.611 : en:Chapter 08
01:01:09.791 : en:Chapter 09
01:09:24.786 : en:Chapter 10
01:17:32.606 : en:Chapter 11
01:26:07.579 : en:Chapter 12
01:28:37.896 : en:Chapter 13
01:37:58.456 : en:Chapter 14
01:45:49.969 : en:Chapter 15
01:51:06.660 : en:Chapter 16

Трейлер

-     - -

Theseus

Post Yesterday 14:29

[Quote]

Хеллбой / Hellboy- Год выхода: 2019
Страна: США
Жанр: Фэнтези, боевик, приключения
Продолжительность: 02:01:02
Перевод 1: Профессиональный дублированный | iTunes
Перевод 2: Профессиональный многоголосый | СВ Студия
Субтитры: Русские (полные, полные [ненорматив], форсированные) , английские-Режиссер: Нил Маршалл-В ролях: Дэвид Харбор, Милла Йовович, Иэн Макшейн, Саша Лейн, Дэниел Дэ Ким, Томас Хейден Чёрч, Пенелопа Митчелл, Софи Оконедо, Брин Глисон, Алистер Петри, Лайла Морс, Стивен Грэм-О фильме: Близится час битвы Хеллбоя с Кровавой королевой, жаждущей отомстить всему человечеству за века в заточении. Оказавшись в эпицентре столкновения миров людей и монстров, Хеллбою придется пройти через ад, чтобы предотвратить надвигающийся апокалипсис..- -Качество: BDRip 1080p
Формат: MKV
Видео кодек: x.264
Аудио кодек: AC3
Видео: AVC, 1920x800 (2.40:1), 23.976 fps, 9702 kb/s
Аудио 1: AC-3, 48.0 kHz, 6 ch, 384 kb/s | RUS (iTunes)
Аудио 2: AC-3, 48.0 kHz, 2 ch, 192 kb/s | RUS (СВ Студия)
Аудио 3: AC-3, 48.0 kHz, 6 ch, 640 kb/s | ENG-

Трейлер

-    - -

Theseus

Post Yesterday 14:27

[Quote]

Хеллбой / Hellboy- Год выхода: 2019
Страна: США
Жанр: Фэнтези, боевик, приключения
Продолжительность: 02:01:02
Перевод 1: Профессиональный дублированный | iTunes
Перевод 2: Профессиональный многоголосый | СВ Студия
Субтитры: Русские (полные, полные [ненорматив], форсированные) , английские-Режиссер: Нил Маршалл-В ролях: Дэвид Харбор, Милла Йовович, Иэн Макшейн, Саша Лейн, Дэниел Дэ Ким, Томас Хейден Чёрч, Пенелопа Митчелл, Софи Оконедо, Брин Глисон, Алистер Петри, Лайла Морс, Стивен Грэм-О фильме: Близится час битвы Хеллбоя с Кровавой королевой, жаждущей отомстить всему человечеству за века в заточении. Оказавшись в эпицентре столкновения миров людей и монстров, Хеллбою придется пройти через ад, чтобы предотвратить надвигающийся апокалипсис..- -Качество: BDRip 720p
Формат: MKV
Видео кодек: x.264
Аудио кодек: AC3
Видео: AVC, 1280x536 (2.40:1), 23.976 fps, 4528 kb/s
Аудио 1: AC-3, 48.0 kHz, 6 ch, 384 kb/s | RUS (iTunes)
Аудио 2: AC-3, 48.0 kHz, 2 ch, 192 kb/s | RUS (СВ Студия)
Аудио 3: AC-3, 48.0 kHz, 6 ch, 640 kb/s | ENG-

Трейлер

-    - -

Theseus

Post Yesterday 14:06

[Quote]

Алита: Боевой ангел / Alita: Battle Angel- Год выхода: 2019
Страна: США
Жанр: фантастика, боевик, триллер, мелодрама, приключения
Продолжительность: 02:01:57
Перевод: Профессиональный дублированный (Лицензия) , Профессиональный многоголосый (СВ Студия, HDRezka Studio)
Субтитры: Русские (Forced, 2 x full), украинские (Full), английские-Режиссер: Роберт Родригес-В ролях: Роза Салазар, Кристоф Вальц, Дженнифер Коннелли, Махершала Али, Эд Скрейн, Джеки Эрл Хейли, Киан Джонсон, Хорхе Лендеборг мл., Лана Кондор, Идара Виктор-О фильме: Действие фильма происходит через 300 лет после Великой войны в XXVI веке. Доктор Идо находит останки женщины-киборга. После починки киборг ничего не помнит, но обнаруживает, что в состоянии пользоваться боевыми приемами киборгов. Начинаются поиски утерянных воспоминаний.- -Качество: UHD BDRemux 2160p
Контейнер: MKV
Видео кодек: H.265
Аудио кодек: AC3, DTS, Dolby TrueHD
Видео: MPEG-H HEVC HDR Video, 3840x2160 (16:9), 23.976 fps, 41.4 Mb/s
Аудио #1: DTS, 48.0 kHz, 6 ch, 768 kb/s, CBR (Russian) | Дублированный
Аудио #2: AC-3, 48.0 kHz, 6 ch, 448 kb/s, CBR (Russian) | Дублированный
Аудио #3: AC-3, 48.0 kHz, 2 ch, 192 kb/s, CBR (Russian) | СВ Студия
Аудио #4: AC-3, 48.0 kHz, 2 ch, 192 kb/s, CBR (Russian) | HDRezka Studio
Аудио #5: AC-3, 48.0 kHz, 6 ch, 448 kb/s, CBR (Ukrainian) | Дублированный
Аудио #6: TrueHD TrueHD+Atmos / TrueHD, / 48.0 kHz, Object Based / 8 ch, 5 013 kb/s, VBR (English) |
Аудио #7: AC-3, 48.0 kHz, 6 ch, 640 kb/s, CBR (English) |-

MediaInfo

Код:
Общее
Уникальный идентификатор : 307693240739314183649427536327427055725 (0xE77B9006B8541DCBCF0D1912FFC1606D)
Полное имя : Alita.Battle.Angel.2019.Lic.LOCAL.UHD.BDRemux.2160p.HEVC.HDR.IVA(RUS.UKR.ENG).ExKinoRay.mkv
Формат : Matroska
Версия формата : Version 4
Размер файла : 41,9 Гбайт
Продолжительность : 2 ч. 1 м.
Режим общего битрейта : Переменный
Общий поток : 49,2 Мбит/сек
Название фильма : Алита: Боевой ангел / Alita: Battle Angel (2019) UHD BDRemux | HDR, 4K | IVA(RUS.UKR.ENG) | ExKinoRay
Дата кодирования : UTC 2019-07-15 18:53:44
Программа кодирования : mkvmerge v35.0.0 ('All The Love In The World') 64-bit
Библиотека кодирования : libebml v1.3.9 + libmatroska v1.5.2
Обложка : Yes
Attachments : cover
Видео
Идентификатор : 1
Формат : HEVC
Формат/Информация : High Efficiency Video Coding
Профиль формата : Main [email protected]@High
HDR_Format : SMPTE ST 2094 App 4, Version 1, HDR10+ Profile A compatible
Идентификатор кодека : V_MPEGH/ISO/HEVC
Продолжительность : 2 ч. 1 м.
Битрейт : 41,4 Мбит/сек
Ширина : 3840 пикселей
Высота : 2160 пикселей
Соотношение сторон : 16:9
Режим частоты кадров : Постоянный
Частота кадров : 23,976 (24000/1001) кадра/сек
Цветовое пространство : YUV
Субдискретизация насыщенности : 4:2:0 (Type 2)
Битовая глубина : 10 бит
Бит/(Пиксели*Кадры) : 0.208
Размер потока : 35,2 Гбайт (84%)
Заголовок : UHD.BDRemux.2160p.HEVC.HDR
Язык : Russian
Default : Да
Forced : Нет
Цветовой диапазон : Limited
Основные цвета : BT.2020
Характеристики трансфера : PQ
Коэффициенты матрицы : BT.2020 non-constant
MasteringDisplay_ColorPrimaries : Display P3
MasteringDisplay_Luminance : min: 0.0001 cd/m2, max: 1000 cd/m2
MaxCLL : 182 cd/m2
MaxFALL : 63 cd/m2
Аудио #1
Идентификатор : 2
Формат : DTS
Формат/Информация : Digital Theater Systems
Идентификатор кодека : A_DTS
Продолжительность : 2 ч. 1 м.
Вид битрейта : Постоянный
Битрейт : 768 Кбит/сек
Каналы : 6 каналов
ChannelLayout : C L R Ls Rs LFE
Частота : 48,0 КГц
Частота кадров : 93,750 кадра/сек (512 SPF)
Битовая глубина : 24 бит
Метод сжатия : С потерями
Размер потока : 670 Мбайт (2%)
Заголовок : Dub [License]
Язык : Russian
Default : Да
Forced : Да
Аудио #2
Идентификатор : 3
Формат : AC-3
Формат/Информация : Audio Coding 3
Коммерческое название : Dolby Digital
Идентификатор кодека : A_AC3
Продолжительность : 2 ч. 1 м.
Вид битрейта : Постоянный
Битрейт : 448 Кбит/сек
Каналы : 6 каналов
ChannelLayout : L R C LFE Ls Rs
Частота : 48,0 КГц
Частота кадров : 31,250 кадров/сек (1536 SPF)
Битовая глубина : 16 бит
Метод сжатия : С потерями
Размер потока : 391 Мбайт (1%)
Заголовок : Dub [License]
Язык : Russian
ServiceKind : Complete Main
Default : Нет
Forced : Нет
Аудио #3
Идентификатор : 4
Формат : AC-3
Формат/Информация : Audio Coding 3
Коммерческое название : Dolby Digital
Идентификатор кодека : A_AC3
Продолжительность : 2 ч. 1 м.
Вид битрейта : Постоянный
Битрейт : 192 Кбит/сек
Каналы : 2 канала
ChannelLayout : L R
Частота : 48,0 КГц
Частота кадров : 31,250 кадров/сек (1536 SPF)
Битовая глубина : 16 бит
Метод сжатия : С потерями
Размер потока : 167 Мбайт (0%)
Заголовок : MVO [СВ Студия]
Язык : Russian
ServiceKind : Complete Main
Default : Нет
Forced : Нет
Аудио #4
Идентификатор : 5
Формат : AC-3
Формат/Информация : Audio Coding 3
Коммерческое название : Dolby Digital
Идентификатор кодека : A_AC3
Продолжительность : 2 ч. 1 м.
Вид битрейта : Постоянный
Битрейт : 192 Кбит/сек
Каналы : 2 канала
ChannelLayout : L R
Частота : 48,0 КГц
Частота кадров : 31,250 кадров/сек (1536 SPF)
Битовая глубина : 16 бит
Метод сжатия : С потерями
Размер потока : 167 Мбайт (0%)
Заголовок : MVO [HDRezka Studio]
Язык : Russian
ServiceKind : Complete Main
Default : Нет
Forced : Нет
Аудио #5
Идентификатор : 6
Формат : AC-3
Формат/Информация : Audio Coding 3
Коммерческое название : Dolby Digital
Идентификатор кодека : A_AC3
Продолжительность : 2 ч. 1 м.
Вид битрейта : Постоянный
Битрейт : 448 Кбит/сек
Каналы : 6 каналов
ChannelLayout : L R C LFE Ls Rs
Частота : 48,0 КГц
Частота кадров : 31,250 кадров/сек (1536 SPF)
Битовая глубина : 16 бит
Метод сжатия : С потерями
Размер потока : 391 Мбайт (1%)
Заголовок : Dub [License]
Язык : Ukrainian
ServiceKind : Complete Main
Default : Нет
Forced : Нет
Аудио #6
Идентификатор : 7
Формат : MLP FBA 16-ch
Формат/Информация : Meridian Lossless Packing FBA with 16-channel presentation
Коммерческое название : Dolby TrueHD with Dolby Atmos
Идентификатор кодека : A_TRUEHD
Продолжительность : 2 ч. 1 м.
Вид битрейта : Переменный
Битрейт : 5013 Кбит/сек
Каналы : 8 каналов
ChannelLayout : L R C LFE Ls Rs Lb Rb
Частота : 48,0 КГц
Частота кадров : 1200,000 кадров/сек (40 SPF)
Метод сжатия : Без потерь
Размер потока : 4,30 Гбайт (10%)
Заголовок : Original
Язык : English
Default : Нет
Forced : Нет
NumberOfDynamicObjects : 13
BedChannelCount : 1 канал
BedChannelConfiguration : LFE
Аудио #7
Идентификатор : 8
Формат : AC-3
Формат/Информация : Audio Coding 3
Коммерческое название : Dolby Digital
Идентификатор кодека : A_AC3
Продолжительность : 2 ч. 1 м.
Вид битрейта : Постоянный
Битрейт : 640 Кбит/сек
Каналы : 6 каналов
ChannelLayout : L R C LFE Ls Rs
Частота : 48,0 КГц
Частота кадров : 31,250 кадров/сек (1536 SPF)
Битовая глубина : 16 бит
Метод сжатия : С потерями
Размер потока : 558 Мбайт (1%)
Заголовок : Original, AC3 Core
Язык : English
ServiceKind : Complete Main
Default : Нет
Forced : Нет
Текст #1
Идентификатор : 9
Формат : UTF-8
Идентификатор кодека : S_TEXT/UTF8
Идентификатор кодека/Информация : UTF-8 Plain Text
Продолжительность : 2 с. 544 мс.
Битрейт : 251 бит/сек
ElementCount : 1
Размер потока : 80,0 байт (0%)
Заголовок : Forced
Язык : Russian
Default : Да
Forced : Да
Текст #2
Идентификатор : 10
Формат : UTF-8
Идентификатор кодека : S_TEXT/UTF8
Идентификатор кодека/Информация : UTF-8 Plain Text
Продолжительность : 2 ч. 1 м.
Битрейт : 50 бит/сек
ElementCount : 1052
Размер потока : 44,9 Кбайт (0%)
Заголовок : Full [License]
Язык : Russian
Default : Нет
Forced : Нет
Текст #3
Идентификатор : 11
Формат : UTF-8
Идентификатор кодека : S_TEXT/UTF8
Идентификатор кодека/Информация : UTF-8 Plain Text
Продолжительность : 1 ч. 56 м.
Битрейт : 64 бит/сек
ElementCount : 1318
Размер потока : 55,4 Кбайт (0%)
Заголовок : Full [FOCS]
Язык : Russian
Default : Нет
Forced : Нет
Текст #4
Идентификатор : 12
Формат : UTF-8
Идентификатор кодека : S_TEXT/UTF8
Идентификатор кодека/Информация : UTF-8 Plain Text
Продолжительность : 2 ч. 1 м.
Битрейт : 48 бит/сек
ElementCount : 1254
Размер потока : 43,4 Кбайт (0%)
Заголовок : Full [License]
Язык : Ukrainian
Default : Нет
Forced : Нет
Текст #5
Идентификатор : 13
Формат : UTF-8
Идентификатор кодека : S_TEXT/UTF8
Идентификатор кодека/Информация : UTF-8 Plain Text
Продолжительность : 1 ч. 55 м.
Битрейт : 41 бит/сек
ElementCount : 1347
Размер потока : 34,9 Кбайт (0%)
Заголовок : Full
Язык : English
Default : Нет
Forced : Нет
Текст #6
Идентификатор : 14
Формат : UTF-8
Идентификатор кодека : S_TEXT/UTF8
Идентификатор кодека/Информация : UTF-8 Plain Text
Продолжительность : 1 ч. 56 м.
Битрейт : 46 бит/сек
ElementCount : 1590
Размер потока : 39,5 Кбайт (0%)
Заголовок : SDH
Язык : English
Default : Нет
Forced : Нет
Меню
00:00:00.000 : ru:00:00:00.000
00:03:28.625 : ru:00:03:28.625
00:07:51.680 : ru:00:07:51.680
00:10:07.982 : ru:00:10:07.982
00:13:06.703 : ru:00:13:06.703
00:15:06.739 : ru:00:15:06.739
00:18:04.542 : ru:00:18:04.542
00:22:58.711 : ru:00:22:58.711
00:25:35.325 : ru:00:25:35.325
00:31:40.899 : ru:00:31:40.899
00:33:29.216 : ru:00:33:29.216
00:36:32.816 : ru:00:36:32.816
00:38:30.892 : ru:00:38:30.892
00:42:05.481 : ru:00:42:05.481
00:45:58.214 : ru:00:45:58.214
00:48:31.450 : ru:00:48:31.450
00:52:57.007 : ru:00:52:57.007
00:55:14.353 : ru:00:55:14.353
01:00:39.761 : ru:01:00:39.761
01:02:56.564 : ru:01:02:56.564
01:05:16.788 : ru:01:05:16.788
01:10:50.496 : ru:01:10:50.496
01:13:37.288 : ru:01:13:37.288
01:16:35.216 : ru:01:16:35.216
01:18:52.227 : ru:01:18:52.227
01:22:48.297 : ru:01:22:48.297
01:24:55.340 : ru:01:24:55.340
01:28:25.217 : ru:01:28:25.217
01:33:18.551 : ru:01:33:18.551
01:36:08.763 : ru:01:36:08.763
01:41:54.692 : ru:01:41:54.692
01:45:23.442 : ru:01:45:23.442
01:48:16.490 : ru:01:48:16.490
01:51:43.655 : ru:01:51:43.655
01:54:43.668 : ru:01:54:43.668
01:56:51.504 : ru:01:56:51.504

Трейлер

-     - -

Theseus

Post Yesterday 13:59

[Quote]

Алита: Боевой ангел / Alita: Battle Angel- Год выхода: 2019
Страна: США
Жанр: фантастика, боевик, триллер, мелодрама, приключения
Продолжительность: 02:01:57
Перевод: Профессиональный дублированный | Лицензия
Субтитры: Русские, английские, украинские, эстонские, латышские, литовские, тамильские, телугу, японские-Режиссер: Роберт Родригес-В ролях: Роза Салазар, Кристоф Вальц, Дженнифер Коннелли, Махершала Али, Эд Скрейн, Джеки Эрл Хейли, Киан Джонсон, Хорхе Лендеборг мл., Лана Кондор, Идара Виктор-О фильме: Действие фильма происходит через 300 лет после Великой войны в XXVI веке. Доктор Идо находит останки женщины-киборга. После починки киборг ничего не помнит, но обнаруживает, что в состоянии пользоваться боевыми приемами киборгов. Начинаются поиски утерянных воспоминаний.- -Качество: Blu-Ray 1080p
Контейнер: BDMV
Видео кодек: H.264
Аудио кодек: AC3, DTS, DTS-HD
Видео: MPEG-4 AVC, 1920x1080 (16:9), 23.976 fps, 23.5 Mb/s
Аудио 1 DTS-HD Master Audio English 7.1 / 48 kHz / 4893 kbps
Аудио 2 Dolby Digital Audio English 2.0 / 48 kHz / 224 kbps
Аудио 3 DTS Audio Russian 5.1 / 48 kHz / 768 kbps
Аудио 4 Dolby Digital Audio Hindi 5.1 / 48 kHz / 384 kbps
Аудио 5 Dolby Digital Audio Tamil 5.1 / 48 kHz / 448 kbps
Аудио 6 Dolby Digital Audio Telugu 5.1 / 48 kHz / 448 kbps
Аудио 7 Dolby Digital Audio Ukrainian 5.1 / 48 kHz / 448 kbps
Аудио 8 DTS Audio Japanese 5.1 / 48 kHz / 768 kbps-

BDInfo

Код:
DISC INFO:
Disc Title: Alita.Battle.Angel.2019.BluRay.1080p.AVC.DTS-HD.MA7.1-CHDBits
Disc Size: 47,536,178,561 bytes
Protection: AACS
Extras: BD-Java
BDInfo: 0.7.5.3 (compatible layout created by DVDFab 11.0.3.8)
PLAYLIST REPORT:
Name: 00800.MPLS
Length: 2:01:57.309 (h:m:s.ms)
Size: 31,226,683,392 bytes
Total Bitrate: 34.14 Mbps
(*) Indicates included stream hidden by this playlist.
VIDEO:
Codec Bitrate Deion
----- ------- -----------
MPEG-4 AVC Video 23537 kbps 1080p / 23.976 fps / 16:9 / High Profile 4.1 /
AUDIO:
Codec Language Bitrate Deion
----- -------- ------- -----------
DTS-HD Master Audio English 4893 kbps 7.1 / 48 kHz / 4893 kbps / 24-bit (DTS Core: 5.1-ES / 48 kHz / 1509 kbps / 24-bit)
Dolby Digital Audio English 224 kbps 2.0 / 48 kHz / 224 kbps
DTS Audio Russian 768 kbps 5.1 / 48 kHz / 768 kbps / 24-bit
Dolby Digital Audio Hindi 448 kbps 5.1 / 48 kHz / 448 kbps
Dolby Digital Audio Tamil 448 kbps 5.1 / 48 kHz / 448 kbps
Dolby Digital Audio Telugu 448 kbps 5.1 / 48 kHz / 448 kbps
Dolby Digital Audio Ukrainian 448 kbps 5.1 / 48 kHz / 448 kbps
* DTS Audio Japanese 768 kbps 5.1 / 48 kHz / 768 kbps / 24-bit
SUBTITLES:
Codec Language Bitrate Deion
----- -------- ------- -----------
Presentation Graphics English 29.752 kbps
Presentation Graphics Russian 22.724 kbps
Presentation Graphics Estonian 24.03 kbps
Presentation Graphics Hindi 21.838 kbps
Presentation Graphics Latvian 23.409 kbps
Presentation Graphics Lithuanian 23.001 kbps
Presentation Graphics Tamil 26.222 kbps
Presentation Graphics Telugu 20.722 kbps
Presentation Graphics Ukrainian 22.657 kbps
* Presentation Graphics Japanese 15.202 kbps
* Presentation Graphics Japanese 0.083 kbps

Трейлер

-     - -

Theseus

Post Yesterday 13:56

[Quote]

Алита: Боевой ангел / Alita: Battle Angel- Год выхода: 2019
Страна: США
Жанр: фантастика, боевик, триллер, мелодрама, приключения
Продолжительность: 02:01:57
Перевод 1: Профессиональный дублированный | Лицензия
Перевод 2: Профессиональный многоголосый | СВ Студия
Перевод 3: Профессиональный многоголосый | HDRezka Studio
Перевод 4: Профессиональный дублированный (Украинский) | Лицензия
Субтитры: Русские, украинские, английские-Режиссер: Роберт Родригес-В ролях: Роза Салазар, Кристоф Вальц, Дженнифер Коннелли, Махершала Али, Эд Скрейн, Джеки Эрл Хейли, Киан Джонсон, Хорхе Лендеборг мл., Лана Кондор, Идара Виктор-О фильме: Действие фильма происходит через 300 лет после Великой войны в XXVI веке. Доктор Идо находит останки женщины-киборга. После починки киборг ничего не помнит, но обнаруживает, что в состоянии пользоваться боевыми приемами киборгов. Начинаются поиски утерянных воспоминаний.- -Качество: BDRemux 1080p
Контейнер: MKV
Видео кодек: H.264
Аудио кодек: AC3, DTS, DTS-HD
Видео: AVC, 1920x1080 (16:9), 23.976 fps, 23.5 Mb/s
Аудио 1: DTS, 48.0 kHz, 6 ch, 768 kb/s | RUS (Лицензия)
Аудио 2: AC-3, 48.0 kHz, 2 ch, 192 kb/s | RUS (СВ Студия)
Аудио 3: AC-3, 48.0 kHz, 2 ch, 192 kb/s | RUS (HDRezka Studio)
Аудио 4: AC-3, 48.0 kHz, 6 ch, 448 kb/s | UKR (Лицензия)
Аудио 5: DTS-HD MA, 48.0 kHz, 8 ch, 4893 kb/s | ENG (Оригинал)-

MediaInfo

Код:
General
Unique ID : 127592875668140043291911861149898627781 (0x5FFD7E76639E619B186DC3F04BBBDAC5)
Complete name : FAlita.Battle.Angel.2019.Lic.LOCAL.BDREMUX.1080p.seleZen.mkv
Format : Matroska
Format version : Version 4
File size : 25.6 GiB
Duration : 2 h 1 min
Overall bit rate mode : Variable
Overall bit rate : 30.0 Mb/s
Movie name : Alita Battle Angel 2019 from селезень
Encoded date : UTC 2019-07-14 08:25:31
Writing application : mkvmerge v22.0.0 ('At The End Of The World') 64-bit
Writing library : libebml v1.3.5 + libmatroska v1.4.8
Video
ID : 1
Format : AVC
Format/Info : Advanced Video Codec
Format profile : [email protected]
Format settings : CABAC / 2 Ref Frames
Format settings, CABAC : Yes
Format settings, Reference : 2 frames
Codec ID : V_MPEG4/ISO/AVC
Duration : 2 h 1 min
Bit rate mode : Variable
Bit rate : 23.5 Mb/s
Width : 1 920 pixels
Height : 1 080 pixels
Display aspect ratio : 16:9
Frame rate mode : Constant
Frame rate : 23.976 (24000/1001) FPS
Color space : YUV
Chroma subsampling : 4:2:0
Bit depth : 8 bits
Scan type : Progressive
Bits/(Pixel*Frame) : 0.473
Stream size : 20.0 GiB (78%)
Language : English
Default : Yes
Forced : No
Audio #1
ID : 2
Format : DTS
Format/Info : Digital Theater Systems
Codec ID : A_DTS
Duration : 2 h 1 min
Bit rate mode : Constant
Bit rate : 768 kb/s
Channel(s) : 6 channels
Channel layout : C L R Ls Rs LFE
Sampling rate : 48.0 kHz
Frame rate : 93.750 FPS (512 SPF)
Bit depth : 24 bits
Compression mode : Lossy
Stream size : 670 MiB (3%)
Title : Dub [License]
Language : Russian
Default : Yes
Forced : Yes
Audio #2
ID : 3
Format : AC-3
Format/Info : Audio Coding 3
Commercial name : Dolby Digital
Codec ID : A_AC3
Duration : 2 h 1 min
Bit rate mode : Constant
Bit rate : 192 kb/s
Channel(s) : 2 channels
Channel layout : L R
Sampling rate : 48.0 kHz
Frame rate : 31.250 FPS (1536 SPF)
Bit depth : 16 bits
Compression mode : Lossy
Stream size : 167 MiB (1%)
Title : MVO [СВ Студия]
Language : Russian
Service kind : Complete Main
Default : No
Forced : No
Audio #3
ID : 4
Format : AC-3
Format/Info : Audio Coding 3
Commercial name : Dolby Digital
Codec ID : A_AC3
Duration : 2 h 1 min
Bit rate mode : Constant
Bit rate : 192 kb/s
Channel(s) : 2 channels
Channel layout : L R
Sampling rate : 48.0 kHz
Frame rate : 31.250 FPS (1536 SPF)
Bit depth : 16 bits
Compression mode : Lossy
Stream size : 167 MiB (1%)
Title : MVO [HDRezka Studio]
Language : Russian
Service kind : Complete Main
Default : No
Forced : No
Audio #4
ID : 5
Format : AC-3
Format/Info : Audio Coding 3
Commercial name : Dolby Digital
Codec ID : A_AC3
Duration : 2 h 1 min
Bit rate mode : Constant
Bit rate : 448 kb/s
Channel(s) : 6 channels
Channel layout : L R C LFE Ls Rs
Sampling rate : 48.0 kHz
Frame rate : 31.250 FPS (1536 SPF)
Bit depth : 16 bits
Compression mode : Lossy
Stream size : 391 MiB (1%)
Title : Dub [License]
Language : Ukrainian
Service kind : Complete Main
Default : No
Forced : No
Audio #5
ID : 6
Format : DTS ES XLL
Format/Info : Digital Theater Systems
Commercial name : DTS-HD Master Audio
Codec ID : A_DTS
Duration : 2 h 1 min
Bit rate mode : Variable
Bit rate : 4 893 kb/s
Channel(s) : 8 channels
Channel layout : C L R Ls Rs LFE Lb Rb
Sampling rate : 48.0 kHz
Frame rate : 93.750 FPS (512 SPF)
Bit depth : 24 bits
Compression mode : Lossless
Stream size : 4.17 GiB (16%)
Title : Original
Language : English
Default : No
Forced : No
Text #1
ID : 7
Format : UTF-8
Codec ID : S_TEXT/UTF8
Codec ID/Info : UTF-8 Plain Text
Duration : 2 s 544 ms
Bit rate : 251 b/s
Count of elements : 1
Stream size : 80.0 Bytes (0%)
Title : Forced
Language : Russian
Default : Yes
Forced : Yes
Text #2
ID : 8
Format : UTF-8
Codec ID : S_TEXT/UTF8
Codec ID/Info : UTF-8 Plain Text
Duration : 2 h 1 min
Bit rate : 50 b/s
Count of elements : 1052
Stream size : 44.9 KiB (0%)
Title : Full [License]
Language : Russian
Default : No
Forced : No
Text #3
ID : 9
Format : UTF-8
Codec ID : S_TEXT/UTF8
Codec ID/Info : UTF-8 Plain Text
Duration : 1 h 56 min
Bit rate : 64 b/s
Count of elements : 1318
Stream size : 55.4 KiB (0%)
Title : Full [FOCS]
Language : Russian
Default : No
Forced : No
Text #4
ID : 10
Format : UTF-8
Codec ID : S_TEXT/UTF8
Codec ID/Info : UTF-8 Plain Text
Duration : 2 h 1 min
Bit rate : 48 b/s
Count of elements : 1254
Stream size : 43.4 KiB (0%)
Title : Full [License]
Language : Ukrainian
Default : No
Forced : No
Text #5
ID : 11
Format : UTF-8
Codec ID : S_TEXT/UTF8
Codec ID/Info : UTF-8 Plain Text
Duration : 1 h 55 min
Bit rate : 41 b/s
Count of elements : 1347
Stream size : 34.9 KiB (0%)
Title : Full
Language : English
Default : No
Forced : No
Text #6
ID : 12
Format : UTF-8
Codec ID : S_TEXT/UTF8
Codec ID/Info : UTF-8 Plain Text
Duration : 1 h 56 min
Bit rate : 46 b/s
Count of elements : 1590
Stream size : 39.5 KiB (0%)
Title : SDH
Language : English
Default : No
Forced : No
Menu
00:00:00.000 : ru:00:00:00.000
00:03:28.625 : ru:00:03:28.625
00:07:51.680 : ru:00:07:51.680
00:10:07.982 : ru:00:10:07.982
00:13:06.703 : ru:00:13:06.703
00:15:06.739 : ru:00:15:06.739
00:18:04.542 : ru:00:18:04.542
00:22:58.711 : ru:00:22:58.711
00:25:35.325 : ru:00:25:35.325
00:31:40.899 : ru:00:31:40.899
00:33:29.216 : ru:00:33:29.216
00:36:32.816 : ru:00:36:32.816
00:38:30.892 : ru:00:38:30.892
00:42:05.481 : ru:00:42:05.481
00:45:58.214 : ru:00:45:58.214
00:48:31.450 : ru:00:48:31.450
00:52:57.007 : ru:00:52:57.007
00:55:14.353 : ru:00:55:14.353
01:00:39.761 : ru:01:00:39.761
01:02:56.564 : ru:01:02:56.564
01:05:16.788 : ru:01:05:16.788
01:10:50.496 : ru:01:10:50.496
01:13:37.288 : ru:01:13:37.288
01:16:35.216 : ru:01:16:35.216
01:18:52.227 : ru:01:18:52.227
01:22:48.297 : ru:01:22:48.297
01:24:55.340 : ru:01:24:55.340
01:28:25.217 : ru:01:28:25.217
01:33:18.551 : ru:01:33:18.551
01:36:08.763 : ru:01:36:08.763
01:41:54.692 : ru:01:41:54.692
01:45:23.442 : ru:01:45:23.442
01:48:16.490 : ru:01:48:16.490
01:51:43.655 : ru:01:51:43.655
01:54:43.668 : ru:01:54:43.668
01:56:51.504 : ru:01:56:51.504

Трейлер

-     - -

Theseus

Post Yesterday 12:50

[Quote]

Алита: Боевой ангел / Alita: Battle Angel- Год выхода: 2019
Страна: США
Жанр: фантастика, боевик, триллер, мелодрама, приключения
Продолжительность: 02:01:57
Перевод: Профессиональный дублированный (Лицензия) , Профессиональный многоголосый (СВ Студия, HDRezka Studio)
Субтитры: Русские (Forced, 2 x full), украинские (Full), английские-Режиссер: Роберт Родригес-В ролях: Роза Салазар, Кристоф Вальц, Дженнифер Коннелли, Махершала Али, Эд Скрейн, Джеки Эрл Хейли, Киан Джонсон, Хорхе Лендеборг мл., Лана Кондор, Идара Виктор-О фильме: Действие фильма происходит через 300 лет после Великой войны в XXVI веке. Доктор Идо находит останки женщины-киборга. После починки киборг ничего не помнит, но обнаруживает, что в состоянии пользоваться боевыми приемами киборгов. Начинаются поиски утерянных воспоминаний.- -Качество: BDRip 1080p
Формат: MKV
Видео кодек: x.264
Аудио кодек: AC3, DTS
Видео: AVC, 1920x804 (2.40:1), 23.976 fps, 8867 Kb/s
Аудио 1: DTS, 48.0 kHz, 6 ch, 768 kb/s | RUS (Лицензия)
Аудио 2: AC-3, 48.0 kHz, 6 ch, 448 kb/s | RUS (Лицензия)
Аудио 3: AC-3, 48.0 kHz, 2 ch, 192 kb/s | RUS (СВ Студия)
Аудио 4: AC-3, 48.0 kHz, 2 ch, 192 kb/s | RUS (HDRezka Studio)
Аудио 5: AC-3, 48.0 kHz, 6 ch, 448 kb/s | UKR (Лицензия)
Аудио 6: AC-3, 48.0 kHz, 6 ch, 640 kb/s | ENG (Оригинал)-

MediaInfo

Код:
General
Unique ID : 260791455443770088736436411956073712494 (0xC4329B79D82D5DA64B527283E201CB6E)
Complete name : Alita.Battle.Angel.2019.Lic.LOCAL.BDRip.1080p.seleZen.mkv
Format : Matroska
Format version : Version 4
File size : 9.85 GiB
Duration : 2 h 1 min
Overall bit rate : 11.6 Mb/s
Movie name : Alita Battle Angel 2019 from селезень
Encoded date : UTC 2019-07-14 14:57:09
Writing application : mkvmerge v22.0.0 ('At The End Of The World') 64-bit
Writing library : libebml v1.3.5 + libmatroska v1.4.8
Video
ID : 1
Format : AVC
Format/Info : Advanced Video Codec
Format profile : [email protected]
Format settings : CABAC / 5 Ref Frames
Format settings, CABAC : Yes
Format settings, Reference : 5 frames
Codec ID : V_MPEG4/ISO/AVC
Duration : 2 h 1 min
Bit rate : 8 867 kb/s
Width : 1 920 pixels
Height : 804 pixels
Display aspect ratio : 2.40:1
Frame rate mode : Constant
Frame rate : 23.976 (24000/1001) FPS
Color space : YUV
Chroma subsampling : 4:2:0
Bit depth : 8 bits
Scan type : Progressive
Bits/(Pixel*Frame) : 0.240
Stream size : 7.55 GiB (77%)
Title : seleZen
Writing library : x264 core 148 r2705kMod 3f5ed56
Encoding settings : cabac=1 / ref=5 / deblock=1:-2:-2 / analyse=0x3:0x133 / me=umh / subme=10 / psy=1 / fade_compensate=0.00 / psy_rd=1.20:0.05 / mixed_ref=1 / me_range=32 / chroma_me=1 / trellis=2 / 8x8dct=1 / cqm=0 / deadzone=21,11 / fast_pskip=0 / chroma_qp_offset=-3 / threads=12 / lookahead_threads=2 / sliced_threads=0 / nr=0 / decimate=0 / interlaced=0 / bluray_compat=0 / constrained_intra=0 / fgo=0 / bframes=8 / b_pyramid=2 / b_adapt=2 / b_bias=0 / direct=3 / weightb=1 / open_gop=0 / weightp=2 / keyint=240 / keyint_min=23 / scenecut=40 / intra_refresh=0 / rc_lookahead=50 / rc=2pass / mbtree=0 / bitrate=8867 / ratetol=1.0 / qcomp=0.60 / qpmin=0 / qpmax=51 / qpstep=4 / cplxblur=20.0 / qblur=0.5 / vbv_maxrate=50000 / vbv_bufsize=62500 / nal_hrd=none / filler=0 / ip_ratio=1.40 / pb_ratio=1.30 / aq=3:0.80
Language : English
Default : Yes
Forced : No
Audio #1
ID : 2
Format : DTS
Format/Info : Digital Theater Systems
Codec ID : A_DTS
Duration : 2 h 1 min
Bit rate mode : Constant
Bit rate : 768 kb/s
Channel(s) : 6 channels
Channel layout : C L R Ls Rs LFE
Sampling rate : 48.0 kHz
Frame rate : 93.750 FPS (512 SPF)
Bit depth : 24 bits
Compression mode : Lossy
Stream size : 670 MiB (7%)
Title : Dub [License]
Language : Russian
Default : Yes
Forced : Yes
Audio #2
ID : 3
Format : AC-3
Format/Info : Audio Coding 3
Commercial name : Dolby Digital
Codec ID : A_AC3
Duration : 2 h 1 min
Bit rate mode : Constant
Bit rate : 448 kb/s
Channel(s) : 6 channels
Channel layout : L R C LFE Ls Rs
Sampling rate : 48.0 kHz
Frame rate : 31.250 FPS (1536 SPF)
Bit depth : 16 bits
Compression mode : Lossy
Stream size : 391 MiB (4%)
Title : Dub [License]
Language : Russian
Service kind : Complete Main
Default : No
Forced : No
Audio #3
ID : 4
Format : AC-3
Format/Info : Audio Coding 3
Commercial name : Dolby Digital
Codec ID : A_AC3
Duration : 2 h 1 min
Bit rate mode : Constant
Bit rate : 192 kb/s
Channel(s) : 2 channels
Channel layout : L R
Sampling rate : 48.0 kHz
Frame rate : 31.250 FPS (1536 SPF)
Bit depth : 16 bits
Compression mode : Lossy
Stream size : 167 MiB (2%)
Title : MVO [СВ Студия]
Language : Russian
Service kind : Complete Main
Default : No
Forced : No
Audio #4
ID : 5
Format : AC-3
Format/Info : Audio Coding 3
Commercial name : Dolby Digital
Codec ID : A_AC3
Duration : 2 h 1 min
Bit rate mode : Constant
Bit rate : 192 kb/s
Channel(s) : 2 channels
Channel layout : L R
Sampling rate : 48.0 kHz
Frame rate : 31.250 FPS (1536 SPF)
Bit depth : 16 bits
Compression mode : Lossy
Stream size : 167 MiB (2%)
Title : MVO [HDRezka Studio]
Language : Russian
Service kind : Complete Main
Default : No
Forced : No
Audio #5
ID : 6
Format : AC-3
Format/Info : Audio Coding 3
Commercial name : Dolby Digital
Codec ID : A_AC3
Duration : 2 h 1 min
Bit rate mode : Constant
Bit rate : 448 kb/s
Channel(s) : 6 channels
Channel layout : L R C LFE Ls Rs
Sampling rate : 48.0 kHz
Frame rate : 31.250 FPS (1536 SPF)
Bit depth : 16 bits
Compression mode : Lossy
Stream size : 391 MiB (4%)
Title : Dub [License]
Language : Ukrainian
Service kind : Complete Main
Default : No
Forced : No
Audio #6
ID : 7
Format : AC-3
Format/Info : Audio Coding 3
Commercial name : Dolby Digital
Codec ID : A_AC3
Duration : 2 h 1 min
Bit rate mode : Constant
Bit rate : 640 kb/s
Channel(s) : 6 channels
Channel layout : L R C LFE Ls Rs
Sampling rate : 48.0 kHz
Frame rate : 31.250 FPS (1536 SPF)
Bit depth : 16 bits
Compression mode : Lossy
Stream size : 558 MiB (6%)
Title : Original
Language : English
Service kind : Complete Main
Default : No
Forced : No
Text #1
ID : 8
Format : UTF-8
Codec ID : S_TEXT/UTF8
Codec ID/Info : UTF-8 Plain Text
Duration : 2 s 544 ms
Bit rate : 251 b/s
Count of elements : 1
Stream size : 80.0 Bytes (0%)
Title : Forced
Language : Russian
Default : Yes
Forced : Yes
Text #2
ID : 9
Format : UTF-8
Codec ID : S_TEXT/UTF8
Codec ID/Info : UTF-8 Plain Text
Duration : 2 h 1 min
Bit rate : 50 b/s
Count of elements : 1052
Stream size : 44.9 KiB (0%)
Title : Full [License]
Language : Russian
Default : No
Forced : No
Text #3
ID : 10
Format : UTF-8
Codec ID : S_TEXT/UTF8
Codec ID/Info : UTF-8 Plain Text
Duration : 1 h 56 min
Bit rate : 64 b/s
Count of elements : 1318
Stream size : 55.4 KiB (0%)
Title : Full [FOCS]
Language : Russian
Default : No
Forced : No
Text #4
ID : 11
Format : UTF-8
Codec ID : S_TEXT/UTF8
Codec ID/Info : UTF-8 Plain Text
Duration : 2 h 1 min
Bit rate : 48 b/s
Count of elements : 1254
Stream size : 43.4 KiB (0%)
Title : Full [License]
Language : Ukrainian
Default : No
Forced : No
Text #5
ID : 12
Format : UTF-8
Codec ID : S_TEXT/UTF8
Codec ID/Info : UTF-8 Plain Text
Duration : 1 h 55 min
Bit rate : 41 b/s
Count of elements : 1347
Stream size : 34.9 KiB (0%)
Title : Full
Language : English
Default : No
Forced : No
Text #6
ID : 13
Format : UTF-8
Codec ID : S_TEXT/UTF8
Codec ID/Info : UTF-8 Plain Text
Duration : 1 h 56 min
Bit rate : 46 b/s
Count of elements : 1590
Stream size : 39.5 KiB (0%)
Title : SDH
Language : English
Default : No
Forced : No
Menu
00:00:00.000 : en:Chapter 01
00:03:28.625 : en:Chapter 02
00:07:51.680 : en:Chapter 03
00:10:07.982 : en:Chapter 04
00:13:06.703 : en:Chapter 05
00:15:06.739 : en:Chapter 06
00:18:04.542 : en:Chapter 07
00:22:58.711 : en:Chapter 08
00:25:35.325 : en:Chapter 09
00:31:40.899 : en:Chapter 10
00:33:29.216 : en:Chapter 11
00:36:32.816 : en:Chapter 12
00:38:30.892 : en:Chapter 13
00:42:05.481 : en:Chapter 14
00:45:58.214 : en:Chapter 15
00:48:31.450 : en:Chapter 16
00:52:57.007 : en:Chapter 17
00:55:14.353 : en:Chapter 18
01:00:39.761 : en:Chapter 19
01:02:56.564 : en:Chapter 20
01:05:16.788 : en:Chapter 21
01:10:50.496 : en:Chapter 22
01:13:37.288 : en:Chapter 23
01:16:35.216 : en:Chapter 24
01:18:52.227 : en:Chapter 25
01:22:48.297 : en:Chapter 26
01:24:55.340 : en:Chapter 27
01:28:25.217 : en:Chapter 28
01:33:18.551 : en:Chapter 29
01:36:08.763 : en:Chapter 30
01:41:54.692 : en:Chapter 31
01:45:23.442 : en:Chapter 32
01:48:16.490 : en:Chapter 33
01:51:43.655 : en:Chapter 34
01:54:43.668 : en:Chapter 35
01:56:51.504 : en:Chapter 36

Трейлер

-     - -

Theseus

Post Yesterday 12:44

[Quote]

Алита: Боевой ангел / Alita: Battle Angel- Год выхода: 2019
Страна: США
Жанр: фантастика, боевик, триллер, мелодрама, приключения
Продолжительность: 02:01:57
Перевод: Профессиональный дублированный (Лицензия) , Профессиональный многоголосый (СВ Студия, HDRezka Studio)
Субтитры: Russian (Forced, Full-length), English (Full-length, SDH)-Режиссер: Роберт Родригес-В ролях: Роза Салазар, Кристоф Вальц, Дженнифер Коннелли, Махершала Али, Эд Скрейн, Джеки Эрл Хейли, Киан Джонсон, Хорхе Лендеборг мл., Лана Кондор, Идара Виктор-О фильме: Действие фильма происходит через 300 лет после Великой войны в XXVI веке. Доктор Идо находит останки женщины-киборга. После починки киборг ничего не помнит, но обнаруживает, что в состоянии пользоваться боевыми приемами киборгов. Начинаются поиски утерянных воспоминаний.- -Качество: BDRip 720p
Формат: MKV
Видео кодек: x.264
Аудио кодек: AC3, DTS
Видео: AVC, 1280x536 (2.40:1), 7709 kbps, 23,976 fps
Aудио 1: Russian: 48 kHz, DTS, 3/2 (L,C,R,l,r) + LFE ch, ~768.00 kbps avg |Дублированный, BD EUR|
Aудио 2: Russian: 48 kHz, AC3, 2 (L,R) ch, ~192.00 kbps avg |Профессиональный многоголосый, СВ Студия|
Aудио 3: Russian: 48 kHz, AC3, 2 (L,R) ch, ~192.00 kbps avg |Профессиональный многоголосый, HDRezka Studio|
Aудио 4: Ukrainian: 48 kHz, AC3, 3/2 (L,C,R,l,r) + LFE ch, ~448.00 kbps avg |Дублированный, BD EUR|
Aудио 5: English: 48 kHz, DTS, 3/2 (L,C,R,l,r) + LFE ch, ~1509.00 kbps avg-

MI

Код:
x264 [info]: frame I:1777  Avg QP:14.44  size:141441
x264 [info]: frame P:39433 Avg QP:16.01  size: 70664
x264 [info]: frame B:134230 Avg QP:17.07  size: 29901
Формат                                   : Matroska
Версия формата                           : Version 4
Размер файла                             : 9,22 Гбайт
Продолжительность                        : 2 ч. 1 м.
Общий поток                              : 10,8 Мбит/сек
Название фильма                          : Alita.Battle.Angel.2019.x264.BDRip.720p.Rus.Ukr.Eng.ExKinoRay
Дата кодирования                         : UTC 2019-07-17 17:12:32
Программа кодирования                    : mkvmerge v7.9.0 ('Birds') 64bit
Библиотека кодирования                   : libebml v1.3.1 + libmatroska v1.4.2
Видео
Идентификатор                            : 1
Формат                                   : AVC
Формат/Информация                        : Advanced Video Codec
Профиль формата                          : [email protected]
Настройки формата                        : CABAC / 12 Ref Frames
Параметр CABAC формата                   : Да
Параметр RefFrames формата               : 12 кадров
Идентификатор кодека                     : V_MPEG4/ISO/AVC
Продолжительность                        : 2 ч. 1 м.
Битрейт                                  : 7709 Кбит/сек
Ширина                                   : 1280 пикселей
Высота                                   : 536 пикселей
Соотношение сторон                       : 2,40:1
Режим частоты кадров                     : Постоянный
Частота кадров                           : 23,976 (24000/1001) кадра/сек
Цветовое пространство                    : YUV
Субдискретизация насыщенности            : 4:2:0
Битовая глубина                          : 8 бит
Тип развёртки                            : Прогрессивная
Бит/(Пиксели*Кадры)                      : 0.469
Размер потока                            : 6,57 Гбайт (71%)
Заголовок                                : Alita.Battle.Angel.2019.x264.BDRip.720p.Rus.Ukr.Eng.ExKinoRay
Библиотека кодирования                   : x264 core 157 r2867+103 0d6443f t_mod_Custom_2 [[email protected] X86_64]
Настройки программы                      : cabac=1 / ref=12 / deblock=1:-3:-3 / analyse=0x3:0x113 / me=umh / subme=10 / psy=1 / fade_compensate=0.00 / psy_rd=1.06:0.00 / mixed_ref=1 / me_range=32 / chroma_me=1 / trellis=2 / 8x8dct=1 / cqm=0 / deadzone=21,11 / fast_pskip=0 / chroma_qp_offset=-2 / threads=6 / lookahead_threads=1 / sliced_threads=0 / nr=0 / decimate=0 / interlaced=0 / bluray_compat=0 / constrained_intra=0 / fgo=0 / bframes=9 / b_pyramid=2 / b_adapt=2 / b_bias=0 / direct=3 / weightb=1 / open_gop=0 / weightp=2 / keyint=250 / keyint_min=23 / scenecut=40 / intra_refresh=0 / rc=crf / mbtree=0 / crf=15.5000 / qcomp=0.60 / qpmin=0:0:0 / qpmax=69:69:69 / qpstep=4 / ip_ratio=1.30 / pb_ratio=1.20 / aq=3:0.80 / aq-sensitivity=10.00 / aq-factor=1.00:1.00:1.00 / aq2=0 / aq3=0
Язык                                     : English
Default                                  : Да
Forced                                   : Нет
Аудио #1
Идентификатор                            : 2
Формат                                   : DTS
Формат/Информация                        : Digital Theater Systems
Идентификатор кодека                     : A_DTS
Продолжительность                        : 2 ч. 1 м.
Вид битрейта                             : Постоянный
Битрейт                                  : 768 Кбит/сек
Каналы                                   : 6 каналов
Channel layout                           : C L R Ls Rs LFE
Частота                                  : 48,0 КГц
Частота кадров                           : 93,750 кадра/сек (512 SPF)
Битовая глубина                          : 24 бит
Метод сжатия                             : С потерями
Размер потока                            : 670 Мбайт (7%)
Заголовок                                : Дублированный (BD EUR)
Язык                                     : Russian
Default                                  : Да
Forced                                   : Нет
Аудио #2
Идентификатор                            : 3
Формат                                   : AC-3
Формат/Информация                        : Audio Coding 3
Коммерческое название                    : Dolby Digital
Идентификатор кодека                     : A_AC3
Продолжительность                        : 2 ч. 1 м.
Вид битрейта                             : Постоянный
Битрейт                                  : 192 Кбит/сек
Каналы                                   : 2 канала
Channel layout                           : L R
Частота                                  : 48,0 КГц
Частота кадров                           : 31,250 кадров/сек (1536 SPF)
Битовая глубина                          : 16 бит
Метод сжатия                             : С потерями
Размер потока                            : 167 Мбайт (2%)
Заголовок                                : Профессиональный многоголосый (СВ Студия)
Язык                                     : Russian
ServiceKind/String                       : Complete Main
Default                                  : Нет
Forced                                   : Нет
Аудио #3
Идентификатор                            : 4
Формат                                   : AC-3
Формат/Информация                        : Audio Coding 3
Коммерческое название                    : Dolby Digital
Идентификатор кодека                     : A_AC3
Продолжительность                        : 2 ч. 1 м.
Вид битрейта                             : Постоянный
Битрейт                                  : 192 Кбит/сек
Каналы                                   : 2 канала
Channel layout                           : L R
Частота                                  : 48,0 КГц
Частота кадров                           : 31,250 кадров/сек (1536 SPF)
Битовая глубина                          : 16 бит
Метод сжатия                             : С потерями
Размер потока                            : 167 Мбайт (2%)
Заголовок                                : Профессиональный многоголосый (HDRezka Studio)
Язык                                     : Russian
ServiceKind/String                       : Complete Main
Default                                  : Нет
Forced                                   : Нет
Аудио #4
Идентификатор                            : 5
Формат                                   : AC-3
Формат/Информация                        : Audio Coding 3
Коммерческое название                    : Dolby Digital
Идентификатор кодека                     : A_AC3
Продолжительность                        : 2 ч. 1 м.
Вид битрейта                             : Постоянный
Битрейт                                  : 448 Кбит/сек
Каналы                                   : 6 каналов
Channel layout                           : L R C LFE Ls Rs
Частота                                  : 48,0 КГц
Частота кадров                           : 31,250 кадров/сек (1536 SPF)
Битовая глубина                          : 16 бит
Метод сжатия                             : С потерями
Размер потока                            : 391 Мбайт (4%)
Заголовок                                : Дублированный (BD EUR)
Язык                                     : Ukrainian
ServiceKind/String                       : Complete Main
Default                                  : Нет
Forced                                   : Нет
Аудио #5
Идентификатор                            : 6
Формат                                   : DTS ES
Формат/Информация                        : Digital Theater Systems
Коммерческое название                    : DTS-ES Matrix
Идентификатор кодека                     : A_DTS
Продолжительность                        : 2 ч. 1 м.
Вид битрейта                             : Постоянный
Битрейт                                  : 1509 Кбит/сек
Каналы                                   : 6 каналов
Channel(s)_Original                      : 7 каналов
Channel layout                           : C L R Ls Rs Cb LFE
Частота                                  : 48,0 КГц
Частота кадров                           : 93,750 кадра/сек (512 SPF)
Битовая глубина                          : 24 бит
Метод сжатия                             : С потерями
Размер потока                            : 1,29 Гбайт (14%)
Заголовок                                : DTS Audio 5.1 ch 1509 Kbps
Язык                                     : English
Default                                  : Нет
Forced                                   : Нет
Текст #1
Идентификатор                            : 7
Формат                                   : UTF-8
Идентификатор кодека                     : S_TEXT/UTF8
Идентификатор кодека/Информация          : UTF-8 Plain Text
Продолжительность                        : 1 ч. 36 м.
Битрейт                                  : 0 бит/сек
ElementCount                             : 6
Размер потока                            : 269 байт (0%)
Заголовок                                : Forced
Язык                                     : Russian
Default                                  : Нет
Forced                                   : Нет
Текст #2
Идентификатор                            : 8
Формат                                   : UTF-8
Идентификатор кодека                     : S_TEXT/UTF8
Идентификатор кодека/Информация          : UTF-8 Plain Text
Продолжительность                        : 1 ч. 56 м.
Битрейт                                  : 52 бит/сек
ElementCount                             : 1051
Размер потока                            : 44,8 Кбайт (0%)
Заголовок                                : Full-length #1
Язык                                     : Russian
Default                                  : Нет
Forced                                   : Нет
Текст #3
Идентификатор                            : 9
Формат                                   : UTF-8
Идентификатор кодека                     : S_TEXT/UTF8
Идентификатор кодека/Информация          : UTF-8 Plain Text
Продолжительность                        : 1 ч. 56 м.
Битрейт                                  : 64 бит/сек
ElementCount                             : 1317
Размер потока                            : 55,4 Кбайт (0%)
Заголовок                                : Full-length (FOCS)
Язык                                     : Russian
Default                                  : Нет
Forced                                   : Нет
Текст #4
Идентификатор                            : 10
Формат                                   : UTF-8
Идентификатор кодека                     : S_TEXT/UTF8
Идентификатор кодека/Информация          : UTF-8 Plain Text
Продолжительность                        : 1 ч. 56 м.
Битрейт                                  : 50 бит/сек
ElementCount                             : 1253
Размер потока                            : 43,3 Кбайт (0%)
Заголовок                                : Full-length
Язык                                     : Ukrainian
Default                                  : Нет
Forced                                   : Нет
Текст #5
Идентификатор                            : 11
Формат                                   : UTF-8
Идентификатор кодека                     : S_TEXT/UTF8
Идентификатор кодека/Информация          : UTF-8 Plain Text
Продолжительность                        : 1 ч. 55 м.
Битрейт                                  : 41 бит/сек
ElementCount                             : 1347
Размер потока                            : 34,9 Кбайт (0%)
Заголовок                                : Full-length
Язык                                     : English
Default                                  : Нет
Forced                                   : Нет
Текст #6
Идентификатор                            : 12
Формат                                   : UTF-8
Идентификатор кодека                     : S_TEXT/UTF8
Идентификатор кодека/Информация          : UTF-8 Plain Text
Продолжительность                        : 1 ч. 55 м.
Битрейт                                  : 46 бит/сек
ElementCount                             : 1588
Размер потока                            : 39,4 Кбайт (0%)
Заголовок                                : SDH
Язык                                     : English
Default                                  : Нет
Forced                                   : Нет
Меню
00:00:00.000                             : en:00:00:00.000
00:03:28.625                             : en:00:03:28.625
00:07:51.680                             : en:00:07:51.680
00:10:07.982                             : en:00:10:07.982
00:13:06.703                             : en:00:13:06.703
00:15:06.739                             : en:00:15:06.739
00:18:04.542                             : en:00:18:04.542
00:22:58.711                             : en:00:22:58.711
00:25:35.325                             : en:00:25:35.325
00:31:40.899                             : en:00:31:40.899
00:33:29.216                             : en:00:33:29.216
00:36:32.816                             : en:00:36:32.816
00:38:30.892                             : en:00:38:30.892
00:42:05.481                             : en:00:42:05.481
00:45:58.214                             : en:00:45:58.214
00:48:31.450                             : en:00:48:31.450
00:52:57.007                             : en:00:52:57.007
00:55:14.353                             : en:00:55:14.353
01:00:39.761                             : en:01:00:39.761
01:02:56.564                             : en:01:02:56.564
01:05:16.788                             : en:01:05:16.788
01:10:50.496                             : en:01:10:50.496
01:13:37.288                             : en:01:13:37.288
01:16:35.216                             : en:01:16:35.216
01:18:52.227                             : en:01:18:52.227
01:22:48.297                             : en:01:22:48.297
01:24:55.340                             : en:01:24:55.340
01:28:25.217                             : en:01:28:25.217
01:33:18.551                             : en:01:33:18.551
01:36:08.763                             : en:01:36:08.763
01:41:54.692                             : en:01:41:54.692
01:45:23.442                             : en:01:45:23.442
01:48:16.490                             : en:01:48:16.490
01:51:43.655                             : en:01:51:43.655
01:54:43.668                             : en:01:54:43.668
01:56:51.504                             : en:01:56:51.504

Трейлер

-     - -

}{@R0N

Post 05-Jul-2019 21:58

[Quote]

Хеллбой / Hellboy - Производство: США / Summit Entertainment, Millennium Films, Campbell Grobman Films
Жанр: Фэнтези, боевик, приключения
Режиссер: Нил Маршалл
Актеры: Дэвид Харбор, Иэн МакШейн, Милла Йовович, Саша Лэйн, Дэниэл Дэ Ким, Алистэр Петри, Софи Оконедо, Томас Хейден Чёрч, Марк Стэнли, Брин Глисон
Описание:
Близится час битвы Хеллбоя с Кровавой королевой, жаждущей отомстить всему человечеству за века в заточении. Оказавшись в эпицентре столкновения миров людей и монстров, Хеллбою придется пройти через ад, чтобы предотвратить надвигающийся апокалипсис.

Возраст: 18+ (зрителям, достигшим 18 лет. запрещено для детей)
Рейтинг MPAA: R (лицам до 17 лет обязательно присутствие взрослого)
Дата мировой премьеры: 9 апреля 2019
Дата российской премьеры: 11 апреля 2019
Продолжительность: 02:00:22
Качество видео: WEBRip Сэмпл
Перевод: Многоголосый закадровый, профессиональный (СВ Студия)
Субтитры: Корейские (хардсаб)
Видео: AVC/H.264, 1920x804, ~6000 Kbps
Аудио #1: AC3, 2 ch, 192 Kbps - Русский
Аудио #2: AC3, 2 ch, 192 Kbps - Английский

MediaInfo:

Общее
Уникальный идентификатор : 231170078292102434244099008014889423183 (0xADE9BCD38B58A83FBAF1E18D11F6914F)
Полное имя : D:\NNM\Хеллбой\Hellboy 2019 WEBRip 1080p-LQ.mkv
Формат : Matroska
Версия формата : Version 4
Размер файла : 5,40 Гбайт
Продолжительность : 2 ч. 0 м.
Общий поток : 6403 Кбит/сек
Программа кодирования : mkvmerge v34.0.0 ('Sight and Seen') 64-bit
Библиотека кодирования : libebml v1.3.7 + libmatroska v1.5.0
Видео
Идентификатор : 1
Формат : AVC
Формат/Информация : Advanced Video Codec
Профиль формата : [url=mailto:[email protected]][email protected][/url]
Настройки формата : 1 Ref Frames
Параметр CABAC формата : Нет
Параметр RefFrames формата : 1 кадр
Идентификатор кодека : V_MPEG4/ISO/AVC
Продолжительность : 2 ч. 0 м.
Битрейт : 6000 Кбит/сек
Ширина : 1920 пикселей
Высота : 804 пикселя
Соотношение сторон : 2,40:1
Режим частоты кадров : Постоянный
Частота кадров : 29,970 (30000/1001) кадров/сек
Цветовое пространство : YUV
Субдискретизация насыщенности : 4:2:0
Битовая глубина : 8 бит
Тип развёртки : Прогрессивная
Бит/(Пиксели*Кадры) : 0.130
Размер потока : 5,07 Гбайт (94%)
Default : Да
Forced : Нет
Цветовой диапазон : Limited
Основные цвета : BT.709
Характеристики трансфера : BT.709
Коэффициенты матрицы : BT.709
Аудио #1
Идентификатор : 2
Формат : AC-3
Формат/Информация : Audio Coding 3
Коммерческое название : Dolby Digital
Идентификатор кодека : A_AC3
Продолжительность : 2 ч. 0 м.
Вид битрейта : Постоянный
Битрейт : 192 Кбит/сек
Каналы : 2 канала
Channel layout : L R
Частота : 48,0 КГц
Частота кадров : 31,250 кадров/сек (1536 SPF)
Битовая глубина : 16 бит
Метод сжатия : С потерями
Задержка видео : -43 мс.
Размер потока : 166 Мбайт (3%)
Язык : Russian
ServiceKind/String : Complete Main
Default : Да
Forced : Нет
Аудио #2
Идентификатор : 3
Формат : AC-3
Формат/Информация : Audio Coding 3
Коммерческое название : Dolby Digital
Идентификатор кодека : A_AC3
Продолжительность : 2 ч. 0 м.
Вид битрейта : Постоянный
Битрейт : 192 Кбит/сек
Каналы : 2 канала
Channel layout : L R
Частота : 48,0 КГц
Частота кадров : 31,250 кадров/сек (1536 SPF)
Битовая глубина : 16 бит
Метод сжатия : С потерями
Задержка видео : -43 мс.
Размер потока : 166 Мбайт (3%)
Язык : English
ServiceKind/String : Complete Main
Default : Нет
Forced : Нет
Скриншоты:        

}{@R0N

Post 09-Jun-2019 15:48

[Quote]

Дитя робота / I Am Mother- Производство: Австралия / The Penguin Empire, Southern Light Films, Rhea Films (II)
Жанр: Фантастика, триллер
Режиссер: Грант Спьютор
Актеры: Роуз Бирн, Хилари Суэнк, Клара Ругор, Люк Хокер, Тейлия Стурзэйкер, Джейкоб Нолан, Хэйзел Сэндери, Саммер Лентон, Мэдди Лентон
Описание:
После глобального катаклизма человечество вымирает. В подземном бункере автоматически активизируется аварийная программа, и робот-гуманоид «Мать» выращивает из эмбриона человеческого ребенка. Девушка, воспитанная под бережным присмотром «Матери», никогда не видела ни поверхности Земли, ни других людей. Но однажды ее мир переворачивается, когда на пороге убежища появляется женщина с просьбой о помощи…

Возраст: 16+ (зрителям, достигшим 16 лет)
Дата мировой премьеры: 25 января 2019
Дата премьеры в России: 20 июня 2019

Продолжительность: 01:52:29
Качество видео: WEB-DLRip Сэмпл
Перевод: Многоголосый закадровый, любительский (MUZOBOZ)
Субтитры: Отсутствуют
Реклама: Присутствует баннер от 1XBET
Видео: AVC/H.264, 1920x804, ~6037 Kbps
Аудио: AC-3, 2 ch, 384 Kbps

MediaInfo:

Общее
Полное имя : C:\XX\Дитя робота\I Am Mother 2019 WEB-DLRip 1080p-LQ.mkv
Формат : Matroska
Версия формата : Version 2
Размер файла : 5,15 Гбайт
Продолжительность : 1 ч. 52 м.
Режим общего битрейта : Переменный
Общий поток : 6552 Кбит/сек
Программа кодирования : libmatroska 1.4.1
Видео
Идентификатор : 1
Формат : AVC
Формат/Информация : Advanced Video Codec
Профиль формата : [url=mailto:[email protected]][email protected][/url]
Настройки формата : CABAC / 4 Ref Frames
Параметр CABAC формата : Да
Параметр RefFrames формата : 4 кадра
Идентификатор кодека : V_MPEG4/ISO/AVC
Продолжительность : 1 ч. 52 м.
Вид битрейта : Переменный
Битрейт : 6037 Кбит/сек
Максимальный битрейт : 6900 Кбит/сек
Ширина : 1920 пикселей
Высота : 804 пикселя
Соотношение сторон : 2,40:1
Режим частоты кадров : Постоянный
Частота кадров : 23,976 (24000/1001) кадра/сек
Стандарт вещания : Component
Цветовое пространство : YUV
Субдискретизация насыщенности : 4:2:0
Битовая глубина : 8 бит
Тип развёртки : Прогрессивная
Бит/(Пиксели*Кадры) : 0.163
Размер потока : 4,74 Гбайт (92%)
Default : Нет
Forced : Нет
Цветовой диапазон : Limited
Основные цвета : BT.709
Характеристики трансфера : BT.709
Коэффициенты матрицы : BT.709
Аудио
Идентификатор : 2
Формат : AC-3
Формат/Информация : Audio Coding 3
Коммерческое название : Dolby Digital
Идентификатор кодека : A_AC3
Продолжительность : 1 ч. 52 м.
Вид битрейта : Постоянный
Битрейт : 384 Кбит/сек
Каналы : 2 канала
Channel layout : L R
Частота : 48,0 КГц
Частота кадров : 31,250 кадров/сек (1536 SPF)
Битовая глубина : 16 бит
Метод сжатия : С потерями
Размер потока : 309 Мбайт (6%)
ServiceKind/String : Complete Main
Default : Нет
Forced : Нет
Скриншоты:        

qwerty12as

Post 21-Apr-2019 18:02

[Quote]

Что мне нравится,С.Сталлоне,как локомотив,тащит всех,бывших,звёзд кинематографа.

Theseus

Post 15-Feb-2019 13:35

[Quote]

Крид 2 / Creed II- Год выхода: 2018
Страна: США
Жанр: драма, спорт
Продолжительность: 02:10:41
Перевод: Профессиональный (полное дублирование) [Чистый звук]
Субтитры: Отсутствуют-Режиссер: Стивен Кейпл мл.-В ролях: Майкл Б. Джордан, Сильвестр Сталлоне, Тесса Томпсон, Филисия Рашад, Дольф Лундгрен, Флориан Мунтяну, Расселл Хорнсби, Вуд Харрис, Майло Вентимилья-О фильме: Жизнь Адониса Крида превратилась в череду компромиссов. Пока он разрывается между долгом и тренировками к следующему большому бою, судьба готовит ему новую невыполнимую миссию. Будущий противник тесно связан с историей его семьи, что лишь повышает ставки перед предстоящим выходом на ринг. Рокки Бальбоа всегда будет на стороне Крида, и вместе они выйдут на битву с призраками их общего прошлого, выяснят, за что действительно стоит сражаться, и поймут, что нет ничего дороже семьи. Нужно вернуться к истокам, чтобы вспомнить, что именно сделало тебя чемпионом, и что, куда бы ты не бежал, от себя все равно не скрыться- -Качество: WEB-DLRip 1080p
Формат: MKV
Видео кодек: x.264
Аудио кодек: AC3
Видео: AVC, 1920x800 (2.40:1), 23.976 fps, 6 052 kb/s
Аудио: AC-3, 48.0 kHz, 2 ch, 384 kb/s-Присутствует реклама-

Трейлер

-     - -

Theseus

Post 15-Feb-2019 13:31

[Quote]

Крид 2 / Creed II- Год выхода: 2018
Страна: США
Жанр: драма, спорт
Продолжительность: 02:10:41
Перевод: Профессиональный (полное дублирование) [Чистый звук]
Субтитры: Отсутствуют-Режиссер: Стивен Кейпл мл.-В ролях: Майкл Б. Джордан, Сильвестр Сталлоне, Тесса Томпсон, Филисия Рашад, Дольф Лундгрен, Флориан Мунтяну, Расселл Хорнсби, Вуд Харрис, Майло Вентимилья-О фильме: Жизнь Адониса Крида превратилась в череду компромиссов. Пока он разрывается между долгом и тренировками к следующему большому бою, судьба готовит ему новую невыполнимую миссию. Будущий противник тесно связан с историей его семьи, что лишь повышает ставки перед предстоящим выходом на ринг. Рокки Бальбоа всегда будет на стороне Крида, и вместе они выйдут на битву с призраками их общего прошлого, выяснят, за что действительно стоит сражаться, и поймут, что нет ничего дороже семьи. Нужно вернуться к истокам, чтобы вспомнить, что именно сделало тебя чемпионом, и что, куда бы ты не бежал, от себя все равно не скрыться- -Качество: WEB-DLRip 720p
Формат: MKV
Видео кодек: x.264
Аудио кодек: AC3
Видео: AVC, 1280x532 (2.40:1), 23.976 fps, 5381 kb/s
Аудио: AC-3, 48.0 kHz, 2 ch, 384 kb/s-Присутствует реклама-

Трейлер

-   - -

Theseus

Post 12-Feb-2019 18:20

[Quote]

Оверлорд / Overlord- Год выхода: 2018
Страна: США, Канада
Жанр: ужасы, фантастика, боевик, детектив, приключения, военный
Продолжительность: 01:49:47
Перевод: Профессиональный (полное дублирование) [Лицензия]
Субтитры: русские, английские, малайские, китайские, чешские, датские, немецкие, греческие, испанские, французские, хинди, итальянские, японские, корейские, венгерские, нидерландские, норвежские, польские, португальские, румынские, словацкие, финские, шведские, тайские, турецкие, японские-Режиссер: Джулиус Эйвери-В ролях: Джован Адепо, Уайатт Рассел, Матильда Олливье, Йохан Филип Асбек, Джон Магаро, Йен де Кестекер, Джейкоб Андерсон, Доминик Эпплуайт, Джанни Тофер, Джозеф Куинн-О фильме: Накануне высадки союзников в Нормандии два американских десантника проникают в оккупированный немцами посёлок, чтобы разрушить их радиомачту. Лазутчикам предстоит столкнуться не только с фашистскими военными, но и с паранормальными последствиями нацистских экспериментов.- -Качество: UHD Blu-ray Disc 2160p
Контейнер: BDMV
Видео кодек: H.265
Аудио кодек: AC3, Dolby TrueHD
Видео: 3840x2160 at 23.976 fps, MPEG-H HEVC HDR Video, 46.6 Mb/s
Аудио #1: Dolby TrueHD/Atmos Audio English 7.1-Atmos / 48 kHz / 5363 kbps / 24-bit (AC3 Core: 5.1-EX / 48 kHz / 640 kbps)
Аудио #2: Dolby Digital Audio English 5.1 / 48 kHz / 640 kbps
Аудио #3: Dolby TrueHD/Atmos Audio German 7.1-Atmos / 48 kHz / 5572 kbps / 24-bit (AC3 Core: 5.1-EX / 48 kHz / 640 kbps)
Аудио #4: Dolby Digital Audio Spanish 5.1 / 48 kHz / 640 kbps
Аудио #5: Dolby Digital Audio Spanish 5.1 / 48 kHz / 640 kbps
Аудио #6: Dolby Digital Audio French 5.1 / 48 kHz / 640 kbps
Аудио #7: Dolby Digital Audio Italian 5.1 / 48 kHz / 640 kbps
Аудио #8: Dolby Digital Audio Japanese 5.1 / 48 kHz / 640 kbps
Аудио #9: Dolby Digital Audio Polish 5.1 / 48 kHz / 640 kbps
Аудио #10: Dolby Digital Audio Portuguese 5.1 / 48 kHz / 640 kbps
Аудио #11: Dolby Digital Audio Russian 5.1 / 48 kHz / 640 kbps-

BDInfo

Код:
DISC INFO:
Disc Title: OVERLORD
Disc Size: 63,865,965,698 bytes
Protection: AACS2
Extras: Ultra HD, BD-Java
BDInfo: 0.7.5.3 (compatible layout created by DVDFab 11.0.1.5)
PLAYLIST REPORT:
Name: 00800.MPLS
Length: 1:49:44.452 (h:m:s.ms)
Size: 61,507,110,912 bytes
Total Bitrate: 74.73 Mbps
(*) Indicates included stream hidden by this playlist.
VIDEO:
Codec Bitrate Deion
----- ------- -----------
MPEG-H HEVC Video 46592 kbps 2160p / 23.976 fps / 16:9 / Main 10 @ Level 5.1 @ High / 4:2:0 / 10 bits / HDR10 / BT.2020 /
* MPEG-H HEVC Video 5216 kbps 1080p / 23.976 fps / 16:9 / Main 10 @ Level 5.1 @ High / 4:2:0 / 10 bits / Dolby Vision / BT.2020 /
AUDIO:
Codec Language Bitrate Deion
----- -------- ------- -----------
Dolby TrueHD/Atmos Audio English 5363 kbps 7.1-Atmos / 48 kHz / 5363 kbps / 24-bit (AC3 Core: 5.1-EX / 48 kHz / 640 kbps)
Dolby Digital Audio English 640 kbps 5.1 / 48 kHz / 640 kbps
Dolby TrueHD/Atmos Audio German 5572 kbps 7.1-Atmos / 48 kHz / 5572 kbps / 24-bit (AC3 Core: 5.1-EX / 48 kHz / 640 kbps)
Dolby Digital Audio Spanish 640 kbps 5.1 / 48 kHz / 640 kbps
Dolby Digital Audio Spanish 640 kbps 5.1 / 48 kHz / 640 kbps
Dolby Digital Audio French 640 kbps 5.1 / 48 kHz / 640 kbps
Dolby Digital Audio Italian 640 kbps 5.1 / 48 kHz / 640 kbps
Dolby Digital Audio Japanese 640 kbps 5.1 / 48 kHz / 640 kbps
Dolby Digital Audio Polish 640 kbps 5.1 / 48 kHz / 640 kbps
Dolby Digital Audio Portuguese 640 kbps 5.1 / 48 kHz / 640 kbps
Dolby Digital Audio Russian 640 kbps 5.1 / 48 kHz / 640 kbps
SUBTITLES:
Codec Language Bitrate Deion
----- -------- ------- -----------
Presentation Graphics English 8.031 kbps
Presentation Graphics English 11.916 kbps
Presentation Graphics Arabic 6.412 kbps
Presentation Graphics Malay 8.43 kbps
Presentation Graphics Chinese 11.751 kbps
Presentation Graphics Czech 12.518 kbps
Presentation Graphics Danish 6.947 kbps
Presentation Graphics German 7.91 kbps
Presentation Graphics Greek 13.673 kbps
Presentation Graphics Spanish 7.623 kbps
Presentation Graphics Spanish 7.418 kbps
Presentation Graphics French 6.552 kbps
Presentation Graphics Hindi 16.117 kbps
Presentation Graphics Italian 7.255 kbps
Presentation Graphics Japanese 11.534 kbps
Presentation Graphics Korean 9.183 kbps
Presentation Graphics Hungarian 12.724 kbps
Presentation Graphics Chinese 11.755 kbps
Presentation Graphics Dutch 6.421 kbps
Presentation Graphics Norwegian 6.841 kbps
Presentation Graphics Polish 10.961 kbps
Presentation Graphics Portuguese 6.126 kbps
Presentation Graphics Portuguese 7.498 kbps
Presentation Graphics Russian 12.12 kbps
Presentation Graphics Romanian 11.31 kbps
Presentation Graphics Slovak 12.397 kbps
Presentation Graphics Finnish 7.083 kbps
Presentation Graphics Swedish 6.933 kbps
Presentation Graphics Thai 8.886 kbps
Presentation Graphics Turkish 13.486 kbps
Presentation Graphics Japanese 0.847 kbps

Трейлер

-     - -

Theseus

Post 12-Feb-2019 18:18

[Quote]

Оверлорд / Overlord- Год выхода: 2018
Страна: США, Канада
Жанр: ужасы, фантастика, боевик, детектив, приключения, военный
Продолжительность: 01:49:47
Перевод: Профессиональный (полное дублирование) [Лицензия]
Субтитры: Русские (Forced, full), английские-Режиссер: Джулиус Эйвери-В ролях: Джован Адепо, Уайатт Рассел, Матильда Олливье, Йохан Филип Асбек, Джон Магаро, Йен де Кестекер, Джейкоб Андерсон, Доминик Эпплуайт, Джанни Тофер, Джозеф Куинн-О фильме: Накануне высадки союзников в Нормандии два американских десантника проникают в оккупированный немцами посёлок, чтобы разрушить их радиомачту. Лазутчикам предстоит столкнуться не только с фашистскими военными, но и с паранормальными последствиями нацистских экспериментов.- -Качество: BDRemux 2160p
Контейнер: MKV
Видео кодек: H.265
Аудио кодек: AC3, Dolby TrueHD
Видео: 3840x2160 at 23.976 fps, MPEG-H HEVC HDR Video, 46.6 Mb/s
Аудио #01: 48 kHz, AC3, 5.1, 640 Kbps | Дублированный | RUS
Аудио #02: 48 kHz, TrueHD, 7.1, 4723 Kbps | Оригинал | ENG
Аудио #03: 48 kHz, AC3, 5.1, 640 Kbps | Оригинал | ENG-

MediaInfo

Код:
General
Unique ID : 296952499449517398187634372214950281175 (0xDF66F8985FCC6A33F53A5B0A4F493FD7)
Complete name : Overlord.2018.BDREMUX.2160p.HDR.seleZen.mkv
Format : Matroska
Format version : Version 4
File size : 40.4 GiB
Duration : 1 h 49 min
Overall bit rate mode : Variable
Overall bit rate : 52.7 Mb/s
Movie name : Overlord 2018 from селезень
Encoded date : UTC 2019-02-12 06:56:28
Writing application : mkvmerge v29.0.0 ('Like It Or Not') 64-bit
Writing library : libebml v1.3.6 + libmatroska v1.4.9
Video
ID : 1
Format : HEVC
Format/Info : High Efficiency Video Coding
Commercial name : HDR10
Format profile : Main [email protected]@High
Codec ID : V_MPEGH/ISO/HEVC
Duration : 1 h 49 min
Bit rate : 46.6 Mb/s
Width : 3 840 pixels
Height : 2 160 pixels
Display aspect ratio : 16:9
Frame rate mode : Constant
Frame rate : 23.976 (24000/1001) FPS
Color space : YUV
Chroma subsampling : 4:2:0 (Type 2)
Bit depth : 10 bits
Bits/(Pixel*Frame) : 0.234
Stream size : 35.7 GiB (88%)
Default : Yes
Forced : No
Color range : Limited
Color primaries : BT.2020
Transfer characteristics : PQ
Matrix coefficients : BT.2020 non-constant
Mastering display color pri : Display P3
Mastering display luminance : min: 0.0001 cd/m2, max: 1000 cd/m2
Audio #1
ID : 2
Format : AC-3
Format/Info : Audio Coding 3
Commercial name : Dolby Digital
Codec ID : A_AC3
Duration : 1 h 49 min
Bit rate mode : Constant
Bit rate : 640 kb/s
Channel(s) : 6 channels
Channel layout : L R C LFE Ls Rs
Sampling rate : 48.0 kHz
Frame rate : 31.250 FPS (1536 SPF)
Bit depth : 16 bits
Compression mode : Lossy
Stream size : 502 MiB (1%)
Title : Dub [License]
Language : Russian
Service kind : Complete Main
Default : Yes
Forced : Yes
Audio #2
ID : 3
Format : MLP FBA 16-ch
Format/Info : Meridian Lossless Packing FBA with 16-channel presentation
Commercial name : Dolby TrueHD with Dolby Atmos
Codec ID : A_TRUEHD
Duration : 1 h 49 min
Bit rate mode : Variable
Bit rate : 4 723 kb/s
Maximum bit rate : 8 355 kb/s
Channel(s) : 8 channels
Channel layout : L R C LFE Ls Rs Lb Rb
Sampling rate : 48.0 kHz
Frame rate : 1 200.000 FPS (40 SPF)
Compression mode : Lossless
Delay relative to video : 32 ms
Stream size : 3.62 GiB (9%)
Title : Original
Language : English
Default : No
Forced : No
Number of dynamic objects : 11
Bed channel count : 1 channel
Bed channel configuration : LFE
Audio #3
ID : 4
Format : AC-3
Format/Info : Audio Coding 3
Commercial name : Dolby Digital
Codec ID : A_AC3
Duration : 1 h 49 min
Bit rate mode : Constant
Bit rate : 640 kb/s
Channel(s) : 6 channels
Channel layout : L R C LFE Ls Rs
Sampling rate : 48.0 kHz
Frame rate : 31.250 FPS (1536 SPF)
Bit depth : 16 bits
Compression mode : Lossy
Delay relative to video : 31 ms
Stream size : 502 MiB (1%)
Language : English
Service kind : Complete Main
Default : No
Forced : No
Text #1
ID : 5
Format : UTF-8
Codec ID : S_TEXT/UTF8
Codec ID/Info : UTF-8 Plain Text
Duration : 1 h 22 min
Bit rate : 5 b/s
Count of elements : 94
Stream size : 3.22 KiB (0%)
Title : Forced
Language : Russian
Default : Yes
Forced : Yes
Text #2
ID : 6
Format : UTF-8
Codec ID : S_TEXT/UTF8
Codec ID/Info : UTF-8 Plain Text
Duration : 1 h 42 min
Bit rate : 59 b/s
Count of elements : 1016
Stream size : 44.9 KiB (0%)
Title : Full
Language : Russian
Default : No
Forced : No
Text #3
ID : 7
Format : UTF-8
Codec ID : S_TEXT/UTF8
Codec ID/Info : UTF-8 Plain Text
Duration : 1 h 42 min
Bit rate : 49 b/s
Count of elements : 1447
Stream size : 37.3 KiB (0%)
Title : SDH
Language : English
Default : No
Forced : No
Menu
00:00:00.000 : :Глава 01
00:06:30.264 : :Глава 02
00:13:46.659 : :Глава 03
00:20:30.479 : :Глава 04
00:26:26.960 : :Глава 05
00:34:08.129 : :Глава 06
00:41:09.758 : :Глава 07
00:48:40.542 : :Глава 08
00:55:50.055 : :Глава 09
01:03:20.630 : :Глава 10
01:10:27.765 : :Глава 11
01:17:21.053 : :Глава 12
01:25:46.766 : :Глава 13
01:32:18.324 : :Глава 14
01:38:47.630 : :Глава 15
01:42:38.360 : :Глава 16

Трейлер

-     - -
 

The time now is: Today 18:06

All times are GMT + 3 Hours