Today is a free download without charge Download

Search found 500 matches

Author Message

Орлов Владимир

Post Yesterday 19:59

[Quote]

-Наследие: Застывшая кровь / Cold Blood Legacy (Фридерик Петижан) [2019, Боевик, триллер, BDRip-AVC] [DUB,MVO] [iTunes]-- Информация о фильме
Название: Наследие: Застывшая кровь
Оригинальное название: Cold Blood Legacy
Год выпуска: 2019
Страна: Франция, Украина
Производство: Ascot Elite Entertainment Group, Eastwest Productions, Eight 35
Жанр: Боевик, триллер--Режиссёр: Фридерик Петижан
В ролях: Жан Рено, Сара Линд, Джо Андерсон, Дэвид Гяси, Игорь Цишкевич, Франсуа Гетари, Саманта Бонд, Катерина Бурсикова, Анна Буткевич, Роберт Фельдман--Перевод:
Дублированный [iTunes]
► Профессиональный (многоголосый, закадровый) [HDRezka Studio]
Субтитры: Английские (полные)--Описание: События разворачиваются в заснеженных лесах Северной Америки вокруг Генри — наемного убийцы, живущего в уединенной хижине на берегу озера, который наслаждается одиночеством и хранит мрачные тайны из беспокойного прошлого. Его тихое и беззаботное существование заканчивается в тот момент, когда он находит разбитый снегоход и окровавленную женщину. Решив спасти незнакомку от неминуемой смерти, стареющий киллер ввязывается в крупные неприятности, заставляющие его вспомнить былые навыки выживания...-- --Качество: BDRip-AVC | BDRemux | Cold.Blood.2019.1080p.BluRay.REMUX.AVC.DTS-HD.MA.5.1-FGT
Продолжительность: 01:31:22--Формат: MKV
Видео кодек: MPEG-4 AVC
Аудио кодек: AC3
Видео: 1024x428 (2.40:1), 23,976 fps, x264 ~1 874 kbps avg, 0.178 bit/pixel
Аудио #1: 48 kHz, AC3 Dolby Digital, 3/2 (L,C,R,l,r) + LFE ch, ~384.00 kbps avg | RUS (iTunes)
Аудио #2: 48 kHz, AC3 Dolby Digital, 2 (L,R) ch, ~192.00 kbps avg | RUS (HDRezka Studio)
Аудио #3: 48 kHz, AC3 Dolby Digital, 3/2 (L,C,R,l,r) + LFE ch, ~448.00 kbps avg | ENG--Дата премьеры (мир): 15 мая 2019
Дата премьеры (РФ): --

Тех.данные видеофайла

Общее
Уникальный идентификатор: 163700066032987491710516584115060494500 (0x7B277C646889AC276296F3FD7A0250A4)
Полное имя: F:OlLanDGroupCold.Blood.Legacy.2019.BDRip(AVC).OllanDGroup.mkv
Формат: Matroska
Версия формата: Version 4 / Version 2
Размер файла: 1,85 Гбайт
Продолжительность: 1 ч. 31 м.
Общий поток: 2896 Кбит/сек
Название фильма: Cold.Blood.2019 #TorpedoUK#
Дата кодирования: UTC 2019-09-16 11:23:19
Программа кодирования: mkvmerge v29.0.0 ('Like It Or Not') 64-bit
Библиотека кодирования: libebml v1.3.6 + libmatroska v1.4.9
Видео
Идентификатор: 1
Формат: AVC
Формат/Информация: Advanced Video Codec
Профиль формата: [email protected]
Параметр CABAC формата: Да
Параметр ReFrames формата: 10 кадров
Идентификатор кодека: V_MPEG4/ISO/AVC
Продолжительность: 1 ч. 31 м.
Битрейт: 1874 Кбит/сек
Ширина: 1024 пикселя
Высота: 428 пикселей
Соотношение сторон: 2,40:1
Режим частоты кадров: Постоянный
Частота кадров: 23,976 (24000/1001) кадра/сек
Цветовое пространство: YUV
Субдискретизация насыщенности: 4:2:0
Битовая глубина: 8 бит
Тип развёртки: Прогрессивная
Бит/(Пиксели*Кадры): 0.178
Размер потока: 1,19 Гбайт (65%)
Библиотека кодирования: x264 core 146 r2538 121396c
Настройки программы: cabac=1 / ref=10 / deblock=1:-3:-3 / analyse=0x3:0x113 / me=umh / subme=11 / psy=1 / psy_rd=0.96:0.06 / mixed_ref=1 / me_range=48 / chroma_me=1 / trellis=2 / 8x8dct=1 / cqm=0 / deadzone=21,11 / fast_pskip=1 / chroma_qp_offset=-6 / threads=6 / lookahead_threads=1 / sliced_threads=0 / nr=0 / decimate=1 / interlaced=0 / bluray_compat=0 / constrained_intra=0 / bframes=11 / b_pyramid=2 / b_adapt=2 / b_bias=0 / direct=3 / weightb=1 / open_gop=0 / weightp=2 / keyint=240 / keyint_min=23 / scenecut=40 / intra_refresh=0 / rc_lookahead=40 / rc=2pass / mbtree=0 / bitrate=1874 / ratetol=1.0 / qcomp=0.60 / qpmin=0 / qpmax=69 / qpstep=4 / cplxblur=20.0 / qblur=0.5 / vbv_maxrate=50000 / vbv_bufsize=62500 / nal_hrd=none / filler=0 / ip_ratio=1.40 / pb_ratio=1.30 / aq=1:1.00
Язык: English
Default: Да
Forced: Нет
Аудио #1
Идентификатор: 2
Формат: AC-3
Формат/Информация: Audio Coding 3
Расширение режима: CM (complete main)
Параметр Endianness формата: Big
Идентификатор кодека: A_AC3
Продолжительность: 1 ч. 31 м.
Вид битрейта: Постоянный
Битрейт: 384 Кбит/сек
Каналы: 6 каналов
Расположение каналов: Front: L C R, Side: L R, LFE
Частота: 48,0 КГц
Частота кадров: 31,250 кадров/сек (1536 spf)
Битовая глубина: 16 бит
Метод сжатия: С потерями
Размер потока: 251 Мбайт (13%)
Заголовок: DUB [iTunes]
Язык: Russian
Default: Да
Forced: Нет
Аудио #2
Идентификатор: 3
Формат: AC-3
Формат/Информация: Audio Coding 3
Расширение режима: CM (complete main)
Параметр Endianness формата: Big
Идентификатор кодека: A_AC3
Продолжительность: 1 ч. 31 м.
Вид битрейта: Постоянный
Битрейт: 192 Кбит/сек
Каналы: 2 канала
Расположение каналов: Front: L R
Частота: 48,0 КГц
Частота кадров: 31,250 кадров/сек (1536 spf)
Битовая глубина: 16 бит
Метод сжатия: С потерями
Размер потока: 125 Мбайт (7%)
Заголовок: MVO [HDRezka Studio]
Язык: Russian
Default: Нет
Forced: Нет
Аудио #3
Идентификатор: 4
Формат: AC-3
Формат/Информация: Audio Coding 3
Расширение режима: CM (complete main)
Параметр Endianness формата: Big
Идентификатор кодека: A_AC3
Продолжительность: 1 ч. 31 м.
Вид битрейта: Постоянный
Битрейт: 448 Кбит/сек
Каналы: 6 каналов
Расположение каналов: Front: L C R, Side: L R, LFE
Частота: 48,0 КГц
Частота кадров: 31,250 кадров/сек (1536 spf)
Битовая глубина: 16 бит
Метод сжатия: С потерями
Размер потока: 293 Мбайт (15%)
Заголовок: [Original]
Язык: English
Default: Нет
Forced: Нет
Текст
Идентификатор: 5
Формат: UTF-8
Идентификатор кодека: S_TEXT/UTF8
Идентификатор кодека/Информация: UTF-8 Plain Text
Продолжительность: 1 ч. 18 м.
Битрейт: 36 бит/сек
Count of elements: 753
Размер потока: 21,0 Кбайт (0%)
Заголовок: Full
Язык: English
Default: Нет
Forced: Нет
Меню
00:00:00.000: en:Chapter 01
00:07:52.096: en:Chapter 02
00:16:37.454: en:Chapter 03
00:24:22.919: en:Chapter 04
00:29:14.836: en:Chapter 05
00:40:00.064: en:Chapter 06
00:47:09.660: en:Chapter 07
00:56:05.362: en:Chapter 08
01:06:56.095: en:Chapter 09
01:11:38.377: en:Chapter 10
01:18:31.748: en:Chapter 11
01:25:20.073: en:Chapter 12

Скриншоты

           

Clavik

Post Yesterday 19:00

[Quote]

Красивый бандит / Un beau voyou (2018) WEB-DLRip- Производство: Франция / Canal+ [fr], Centre National de la Cinématographie (CNC)
Жанр: Комедия
Режиссер: Лукас Бернард
Актеры: Шарль Берлинг, Сванн Арло, Дженнифер Декер, Жан-Кентен Шатлен, Эрик Деор, Энн Лорье, Кристиан Бенедетти, Пьер Осседат, Марина Монкаде, Виктор Понтекорво
Описание:
Накануне давно ожидаемого выхода на пенсию незадачливый комиссар полиции сталкивается с дерзким похищением картины. Элегантность совершенного преступления вынуждает его начать расследование.

Возраст: 16+ (Зрителям, достигшим 16 лет)
Дата мировой премьеры: 4 октября 2018
Дата российской премьеры: 15 августа 2019
Цифровой релиз: 16 сентября 2019
Продолжительность: 01:44:23
Качество видео: WEB-DLRip
Перевод: Дублированный (iTunes)
Субтитры: Отсутствуют
Видео: XviD, 704x368, ~1611 Kbps
Аудио: AC-3, 6 ch, 384 Kbps

MediaInfo:

Общее
Полное имя : D:\NNM\Красивый бандит\Un beau voyou.2018.WEB-DLRip.avi
Формат : AVI
Формат/Информация : Audio Video Interleave
Размер файла : 1,46 Гбайт
Продолжительность : 1 ч. 44 м.
Общий поток : 2004 Кбит/сек
Программа кодирования : VirtualDubMod 1.5.10.3 | www.virtualdub-fr.org || (build 2550/release)
Библиотека кодирования : VirtualDubMod build 2550/release
Видео
Идентификатор : 0
Формат : MPEG-4 Visual
Профиль формата : Advanced [email protected]
Настройки формата : BVOP1 / Custom Matrix
Параметр BVOP формата : 1
Параметр QPel формата : Нет
Параметр GMC формата : Без точки перехода
Параметр матрицы формата : Выборочная
Идентификатор кодека : XVID
Идентификатор кодека/Подсказка : XviD
Продолжительность : 1 ч. 44 м.
Битрейт : 1611 Кбит/сек
Ширина : 704 пикселя
Высота : 368 пикселей
Соотношение сторон : 1,913
Частота кадров : 24,000 кадра/сек
Цветовое пространство : YUV
Субдискретизация насыщенности : 4:2:0
Битовая глубина : 8 бит
Тип развёртки : Прогрессивная
Метод сжатия : С потерями
Бит/(Пиксели*Кадры) : 0.259
Размер потока : 1,17 Гбайт (80%)
Библиотека кодирования : XviD 73
Аудио
Идентификатор : 1
Формат : AC-3
Формат/Информация : Audio Coding 3
Коммерческое название : Dolby Digital
Идентификатор кодека : 2000
Продолжительность : 1 ч. 44 м.
Вид битрейта : Постоянный
Битрейт : 384 Кбит/сек
Каналы : 6 каналов
ChannelLayout : L R C LFE Ls Rs
Частота : 48,0 КГц
Частота кадров : 31,250 кадров/сек (1536 SPF)
Битовая глубина : 16 бит
Метод сжатия : С потерями
Размер потока : 287 Мбайт (19%)
Выравнивание : Разделение по промежуткам
Продолжительность промежутка : 42 мс. (1,00 видеокадр)
Время предзагрузки промежутка : 500 мс.
ServiceKind/String : Complete Main
Скриншоты:        

kilmister777

Post Yesterday 15:07

[Quote]

Маленькое красное платье / In Fabric- Год выпуска: 2018
Страна: Великобритания
Жанр: ужасы, комедия
Продолжительность: 01:58:41
Перевод: Профессиональный (многоголосый закадровый) iTunes- -Режиссер: Питер Стриклэнд-В ролях: Гвендолин Кристи, Сидсе Бабетт Кнудсен, Кэролайн Катц, Джулиан Бэррэтт, Марианн Жан-Баптист, Хейли Сквайрс, Ричард Бреммер, Лео Билл, Стив Орам, Сузанна Каппельяро-Описание: Маленькое красное платье стоит в витрине. Оно невероятно красиво и идеально подходит каждой, кто его примеряет. Оно делает тебя желанной, но у платья есть цена. И не каждый сможет ее заплатить.-Качество: BDRip
Формат: AVI
Видео кодек: XviD
Аудио кодек: AC3
Видео: 720x304 (2.37:1), 24 fps, XviD build 73 ~1301 kbps avg, 0.25 bit/pixel
Аудио: 48 kHz, AC3 Dolby Digital, 3/2 (L,C,R,l,r) + LFE ch, ~384 kbps avg-

Скриншоты

       

kilmister777

Post Yesterday 11:42

[Quote]

Наследие: Застывшая кровь / Cold Blood Legacy- Год выпуска: 2019
Страна: Франция, Украина
Жанр: боевик, триллер
Продолжительность: 01:31:21
Перевод: Профессиональный(дублированный) iTunes- -Режиссер: Фридерик Петижан-В ролях: Жан Рено, Сара Линд, Джо Андерсон, Дэвид Гяси, Игорь Цишкевич, Франсуа Гетари, Саманта Бонд, Катерина Бурсикова, Анна Буткевич, Роберт Фельдман-Описание: Генри, один из наиболее разыскиваемых киллеров в отставке, живёт отшельником на берегу озера в труднодоступной лесной чаще. Однажды недалеко от его дома происходит несчастный случай: на мотосанях разбивается девушка. Перед Генри встаёт дилемма: спасти девушку, подвергнув себя риску быть обнаруженным или поступить так, как подсказывает здравый смысл и многолетний опыт.-Качество: BDRip
Формат: AVI
Видео кодек: XviD
Аудио кодек: AC3
Видео: 720x304 (2.37:1), 23.976 fps, XviD build 73 ~1831 kbps avg, 0.35 bit/pixel
Аудио: 48 kHz, AC3 Dolby Digital, 3/2 (L,C,R,l,r) + LFE ch, ~384 kbps avg-

Скриншоты

       

kilmister777

Post Yesterday 08:03

[Quote]

Красивый бандит / A Clever Crook- Год выпуска: 2018
Страна: Франция
Жанр: комедия
Продолжительность: 01:44:23
Перевод: Профессиональный(дублированный) iTunes- -Режиссер: Лукас Бернард-В ролях: Шарль Берлинг, Сванн Арло, Дженнифер Декер, Жан-Кентен Шатлен, Эрик Деор, Энн Лорье, Кристиан Бенедетти, Пьер Осседат, Марина Монкаде, Виктор Понтекорво-Описание: Накануне давно ожидаемого выхода на пенсию незадачливый комиссар полиции сталкивается с дерзким похищением картины. Элегантность совершенного преступления вынуждает его начать расследование.-Качество: WEB-DLRip
Формат: AVI
Видео кодек: XviD
Аудио кодек: AC3
Видео: 704x368 (1.91:1), 24 fps, XviD build 73 ~1610 kbps avg, 0.26 bit/pixel
Аудио: 48 kHz, AC3 Dolby Digital, 3/2 (L,C,R,l,r) + LFE ch, ~384 kbps avg-

Скриншоты

       

kilmister777

Post 15-Sep-2019 10:13

[Quote]

Побег из сумасшедшего дома: История Нелли Блай / Escaping the Madhouse: The Nellie Bly Story- Год выпуска: 2019
Страна: США
Жанр: триллер
Продолжительность: 01:28:21
Перевод: Профессиональный (многоголосый закадровый) HDrezka Studio
Субтитры: русские (forced)- -Режиссер: Карен Монкрифф-В ролях: Кристина Риччи, Джудит Лайт, Джош Боуман, Аня Савчич, Никки Дювал, Лорен Кокрейн, Кэтлин Галлахер, Анджела Нарт, Джохис Намвира, Джим Кирби-Описание: События разворачиваются в 1887 году в Нью-Йорке. Молодая журналистка Нелли Блай оказывается в психиатрической лечебнице, которая расположена на острове возле Манхэттена. При этом девушка находится в здравом уме, так как симулировала шизофрению, чтобы узнать какие ужасы творятся за стенами больницы. Компанию ей составляют бедные проститутки, пожилые женщины с деменцией и иммигрантки, которые оказались здесь потому, что не могут говорить по-английски — все они считаются сумасшедшими. Вот только Нелли, столкнувшаяся со зверствами и жестокостью персонала, совершенно не предполагала, что выбраться из этого места будет намного сложнее, чем попасть...-Качество: WEB-DLRip
Формат: AVI
Видео кодек: XviD
Аудио кодек: AC3
Видео: 688x384 (1.79:1), 23.976 fps, XviD build 73 ~1965 kbps avg, 0.31 bit/pixel
Аудио1: 48 kHz, AC3 Dolby Digital, 2/0 (L,R) ch, ~192 kbps | RUS
Аудио2: 48 kHz, AC3 Dolby Digital, 2/0 (L,R) ch, ~192 kbps | ENG-

Скриншоты

       

kilmister777

Post 15-Sep-2019 09:51

[Quote]

Анна / Anna- Год выпуска: 2019
Страна: Франция, США
Жанр: боевик, триллер
Продолжительность: 01:58:58
Перевод: Профессиональный (многоголосый закадровый) HDRezka Studio
Субтитры: Английские форс. на русскую речь (хардсаб)- -Режиссер: Люк Бессон-В ролях: Саша Лусс, Хелен Миррен, Люк Эванс, Киллиан Мёрфи, Лера Абова, Александр Петров (II), Никита Павленко, Анна Криппа, Алексей Маслодудов, Эрик Годон, Иван Франек, Жан-Батист Пюэк, Хакан Кан, Элисон Вилер, Эндрю Ховард, Ян Оливер Шрёдер, Луиз Паркер, Лорен Ферраро, Мабу Куяте, Полин Хорау, Жан-Марк Монтальто-Описание: Действие фильма разворачивается в конце 1980-х годов. Анна (Саша Лусс) – молодая симпатичная девушка – оказывается на пороге самых значительных событий в своей жизни. Из-за своей поразительной красоты она кажется слабой и беззащитной, но под этой маской скрывается неуемная мощь одного из самых опасных наемных убийц в мире. Анна оказывается втянутой в цепочку криминальных событий, и все происходящее с ней грозит смертельной опасностью.-Качество: WEB-DLRip
Формат: AVI
Видео кодек: XviD
Аудио кодек: AC3
Видео: 720x304 (2.37:1), 23.976 fps, XviD build 73 ~1555 kbps avg, 0.30 bit/pixel
Аудио: 48 kHz, AC3 Dolby Digital, 2/0 (L,R) ch, ~192 kbps-

Скриншоты

       

Орлов Владимир

Post 15-Sep-2019 01:00

[Quote]

--Детские игры / Child's Play (Ларс Клевберг) [2019, Ужасы, WEB-DLRip-AVC] [DUB] [iTunes]-- Информация о фильме
Название: Детские игры
Оригинальное название: Child's Play
Год выпуска: 2019
Жанр: Ужасы
Режиссер: Ларс Клевберг--В ролях: Гэбриел Бейтман, Обри Плаза, Марк Хэмилл, Брайан Тайри Генри, Тим Мэтисон, Дэвид Льюис, Ти Консильо, Марлон Казади, Беатрис Китсос, Ханна Дрю, Трент Редекоп, Эмбер Тейлор, Карлис Бёрк, Николь Энтони, Джонсон Фэн, Кристин Йорк, Миа Белла, Амро Майзуб, Вину Сандху, Оливия Пун, Кеннет Тайнен--О фильме:
Карэн со своим тринадцатилетним сыном Энди недавно переехали в другой город. Мальчику довольно сложно обзавестись компанией друзей из-за своей природной стеснительности. Мама видит, что сын находится постоянно в одиночестве и принимает решение купить ему куклу. Карэн надеется, что ее мальчику станет проще заводить себе друзей. Куклу называют Чаки. Но внезапно Энди замечает, что игрушка странно себя ведет...-- --Страна: Франция, Канада, США
Студия: Orion Pictures, BRON Studios, Bron Creative
Продолжительность: 01:29:59
Перевод: Дублированный iTunes--Файл
Формат: MKV
Качество: WEB-DLRip-AVC
Видео: MPEG-4 AVC, 792x336, - 1081 Кбит/с
Аудио: AAC-HE, 2 ch, - 76 Кбит/с
Субтитры: Русские (форсированные)--

Тех.данные видеофайла

Общее
Уникальный идентификатор: 63088884996642588421220400890318002497 (0x2F767A2ED86A5567D280738828899941)
Полное имя: D:MOVIESChilds.Play.2019.WEB-DLRip-AVC.ExKinoRay.mkv
Формат: Matroska
Версия формата: Version 4 / Version 2
Размер файла: 745 Мбайт
Продолжительность: 1 ч. 29 м.
Общий поток: 1157 Кбит/сек
Название фильма: Childs Play 2019 from селезень
Дата кодирования: UTC 2019-09-14 20:28:48
Программа кодирования: mkvmerge v35.0.0 ('All The Love In The World') 64-bit
Библиотека кодирования: libebml v1.3.9 + libmatroska v1.5.2
Видео
Идентификатор: 1
Формат: AVC
Формат/Информация: Advanced Video Codec
Профиль формата: [email protected]
Параметр CABAC формата: Да
Параметр RefFrames формата: 12 кадров
Идентификатор кодека: V_MPEG4/ISO/AVC
Продолжительность: 1 ч. 29 м.
Битрейт: 1081 Кбит/сек
Ширина: 792 пикселя
Высота: 336 пикселей
Соотношение сторон: 2,35:1
Режим частоты кадров: Постоянный
Частота кадров: 23,976 (24000/1001) кадра/сек
Цветовое пространство: YUV
Субдискретизация насыщенности: 4:2:0
Битовая глубина: 8 бит
Тип развёртки: Прогрессивная
Бит/(Пиксели*Кадры): 0.169
Размер потока: 695 Мбайт (93%)
Библиотека кодирования: x264 core 152 r2851kMod ba24899
Настройки программы: cabac=1 / ref=12 / deblock=1:-3:-3 / analyse=0x3:0x133 / me=umh / subme=10 / psy=1 / fade_compensate=0.00 / psy_rd=1.00:0.12 / mixed_ref=1 / me_range=32 / chroma_me=1 / trellis=2 / 8x8dct=1 / cqm=0 / deadzone=21,11 / fast_pskip=0 / chroma_qp_offset=-3 / threads=6 / lookahead_threads=1 / sliced_threads=0 / nr=0 / decimate=0 / interlaced=0 / bluray_compat=0 / constrained_intra=0 / bframes=12 / b_pyramid=2 / b_adapt=2 / b_bias=0 / direct=3 / weightb=1 / open_gop=0 / weightp=2 / keyint=240 / keyint_min=23 / scenecut=40 / intra_refresh=0 / rc_lookahead=40 / rc=2pass / mbtree=1 / bitrate=1081 / ratetol=1.0 / qcomp=0.60 / qpmin=0 / qpmax=69 / qpstep=4 / cplxblur=20.0 / qblur=0.5 / ip_ratio=1.40 / aq=3:1.00
Default: Да
Forced: Нет
Аудио
Идентификатор: 2
Формат: AAC
Формат/Информация: Advanced Audio Codec
Профиль формата: HE-AAC / LC
Идентификатор кодека: A_AAC
Продолжительность: 1 ч. 29 м.
Битрейт: 76,0 Кбит/сек
Каналы: 2 канала
Расположение каналов: Front: L R
Частота: 48,0 КГц / 24,0 КГц
Частота кадров: 23,438 кадра/сек (1024 SPF)
Метод сжатия: С потерями
Задержка видео: 31 мс.
Размер потока: 48,9 Мбайт (7%)
Язык: Russian
Default: Да
Forced: Нет
Текст
Идентификатор: 3
Формат: UTF-8
Идентификатор кодека: S_TEXT/UTF8
Идентификатор кодека/Информация: UTF-8 Plain Text
Продолжительность: 11 м. 41 с.
Битрейт: 5 бит/сек
ElementCount: 10
Размер потока: 452 байт (0%)
Заголовок: forsed rus
Default: Да
Forced: Да

Скриншоты

               

Орлов Владимир

Post 13-Sep-2019 18:20

[Quote]

--Детские игры / Child's Play (Ларс Клевберг) [2019, Ужасы, WEB-DLRip] [DUB] [iTunes] -- Информация о фильме
Название: Детские игры
Оригинальное название: Child's Play
Год выпуска: 2019
Жанр: Ужасы
Режиссер: Ларс Клевберг--В ролях: Гэбриел Бейтман, Обри Плаза, Марк Хэмилл, Брайан Тайри Генри, Тим Мэтисон, Дэвид Льюис, Ти Консильо, Марлон Казади, Беатрис Китсос, Ханна Дрю, Трент Редекоп, Эмбер Тейлор, Карлис Бёрк, Николь Энтони, Джонсон Фэн, Кристин Йорк, Миа Белла, Амро Майзуб, Вину Сандху, Оливия Пун, Кеннет Тайнен--О фильме:
Карэн со своим тринадцатилетним сыном Энди недавно переехали в другой город. Мальчику довольно сложно обзавестись компанией друзей из-за своей природной стеснительности. Мама видит, что сын находится постоянно в одиночестве и принимает решение купить ему куклу. Карэн надеется, что ее мальчику станет проще заводить себе друзей. Куклу называют Чаки. Но внезапно Энди замечает, что игрушка странно себя ведет...-- --Страна: Франция, Канада, США
Студия: Orion Pictures, BRON Studios, Bron Creative
Продолжительность: 01:29:59
Перевод: Дублированный | iTunes--Файл
Формат: AVI
Качество: WEB-DLRip
Видео: 688x288 (2.39:1), 23.976 fps, XviD build 50 ~945 kbps avg, 0.20 bit/pixel
Звук: 48 kHz, MPEG Layer 3, 2 ch, ~128.00 kbps avg
Субтитры: Нет--

Скриншоты

           

Тех.данные видеофайла

Общее
Полное имя: C:\Детские игры (2019) WEB-DLRip.700.mb.avi
Формат: AVI
Формат/Информация: Audio Video Interleave
Размер файла: 697 Мбайт
Продолжительность: 1 ч. 29 м.
Общий поток: 1083 Кбит/сек
Программа кодирования: VirtualDubMod 1.5.10.3 | (build 2550/release)
Библиотека кодирования: VirtualDubMod build 2550/release
Видео
Идентификатор: 0
Формат: MPEG-4 Visual
Профиль формата: Advanced [email protected]
Параметр BVOP формата: 1
Параметр QPel формата: Нет
Параметр GMC формата: Без точки перехода
Параметр матрицы формата: Default (H.263)
Идентификатор кодека: XVID
Идентификатор кодека/Подсказка: XviD
Продолжительность: 1 ч. 29 м.
Битрейт: 945 Кбит/сек
Ширина: 688 пикселей
Высота: 288 пикселей
Соотношение сторон: 2,40:1
Частота кадров: 23,976 кадра/сек
Цветовое пространство: YUV
Субдискретизация насыщенности: 4:2:0
Битовая глубина: 8 бит
Тип развёртки: Прогрессивная
Метод сжатия: С потерями
Бит/(Пиксели*Кадры): 0.199
Размер потока: 609 Мбайт (87%)
Библиотека кодирования: XviD 1.2.1 (UTC 2008-12-04)
Аудио
Идентификатор: 1
Формат: MPEG Audio
Версия формата: Version 1
Профиль формата: Layer 3
Идентификатор кодека: 55
Идентификатор кодека/Подсказка: MP3
Продолжительность: 1 ч. 29 м.
Вид битрейта: Постоянный
Битрейт: 128 Кбит/сек
Каналы: 2 канала
Частота: 48,0 КГц
Метод сжатия: С потерями
Размер потока: 82,4 Мбайт (12%)
Выравнивание: Соединение по промежуткам
Продолжительность промежутка: 42 мс. (1,00 видеокадр)
Время предзагрузки промежутка: 504 мс.
Библиотека кодирования: LAME3.99r
Настройки программы: -m s -V 4 -q 2 -lowpass 17 -b 128

kilmister777

Post 13-Sep-2019 13:36

[Quote]

Дылда / Tall Girl- Год выпуска: 2019
Страна: США
Жанр: комедия
Продолжительность: 01:42:41
Перевод: Профессиональный(дублированный) Пифагор по заказу Netflix
Субтитры: русские (форс.вшитые)- -Режиссер: Зинга Стюарт-В ролях: Ава Мишель, Сабрина Карпентер, Анджела Кинси, Пэрис Берелс, Люк Эйснер, Стив Зан, Гриффин Глюк, Кэнди Брукс, Эми Ле и др.-Описание: Джоди, самая высокая девушка в школе, всегда чувствовала себя неловко в собственной шкуре. Но после многих лет насмешек и избегания внимания любой ценой, Джоди, наконец, решает обрести уверенность в себе.-Качество: WEBRip
Формат: AVI
Видео кодек: XviD
Аудио кодек: AC3
Видео: 720x304 (2.37:1), 24.000 fps, XviD build 73 ~1566 kbps avg, 0.30 bit/pixel
Аудио: 48 kHz, AC3 Dolby Digital, 3/2 (L,C,R,l,r) + LFE ch, ~448 kbps-

Скриншоты

       

kilmister777

Post 13-Sep-2019 12:00

[Quote]

Вита и Вирджиния / Vita & Virginia- Год выпуска: 2018
Страна: Ирландия, Великобритания
Жанр: драма, мелодрама, биография
Продолжительность: 01:49:55
Перевод: Профессиональный (многоголосый закадровый) iTunes- -Режиссер: Чания Баттон-В ролях: Джемма Артертон, Элизабет Дебики, Изабелла Росселлини, Руперт Пенри-Джонс, Питер Фердинандо, Эмиральд Феннел, Гетин Энтони, Рори Флек-Бирн, Карла Кроум, Адам Джиллен-Описание: В эпоху разлагающейся морали, блистательного джаза и контрабандного алкоголя, светская львица Вита Сэквилл-Уэст знакомится с «королевой литературы» Вирджинией Вульф. Ярое противостояние перерастает во взаимную симпатию, а симпатия - в головокружительный роман, который потрясет высшее общество и навсегда изменит их жизни.-Качество: WEB-DLRip
Формат: AVI
Видео кодек: XviD
Аудио кодек: AC3
Видео: 704x400 (1.76:1), 24 fps, XviD build 73 ~1508 kbps avg, 0.22 bit/pixel
Аудио: 48 kHz, AC3 Dolby Digital, 3/2 (L,C,R,l,r) + LFE ch, ~384 kbps avg-

Скриншоты

         

Орлов Владимир

Post 13-Sep-2019 01:53

[Quote]

--Искусство обмана / Lying and Stealing (Мэтт Аселтон) [2019, Комедия, криминал, WEB-DLRip] [DUB] [iTunes]-- Информация о фильме
Название: Искусство обмана
Оригинальное название: Lying and Stealing
Год выпуска: 2019
Жанр: Комедия, криминал
Режиссер: Мэтт Аселтон--В ролях: Тео Джеймс, Эмили Ратаковски, Арис Альварадо, Фернанда Андраде, Тим Бейдер, Джо Букаро III, Род Чауки, Рэй Рэй Чейз, Миа Чунг, Фрэнк Клем--О фильме:
Он - эксперт по искусству, вернее... его хищению. Она - модель с задатками актрисы и высоким IQ. Оба любят деньги и риск. Они просто созданы друг для друга... или это лишь фасад, чтобы провернуть изысканную и виртуозную аферу, больше похожую на арт-перформанс?-- --Страна: США
Студия: Vertical Entertainment, COTA Films, Fifty Degrees Entertainment
Продолжительность: 01:49:54
Перевод: Дублированный | iTunes--Файл
Качество: WEB-DLRip
Видео: XviD, 2268 Кбит/с, 720x304
Аудио: Русский (AC3, 6 ch, 384 Кбит/с), английский (AC3, 6 ch, 448 Кбит/с)
Субтитры: Английские
--

Скриншоты

   

Орлов Владимир

Post 12-Sep-2019 18:45

[Quote]

--7 социопатов / 7 raons per fugir (Герард Квинто, Эстеве Солер, Дэвид Торрас) [2019, Комедия, WEB-DLRip] [MVO] [iTunes]-- Информация о фильме
Название: 7 социопатов
Оригинальное название: 7 raons per fugir
Год выхода: 2019
Жанр: комедия
Режиссёр: Герард Квинто, Эстеве Солер, Дэвид Торрас--В ролях: Эмма Суарес, Серхи Лопес, Лола Дуэньяс, Давид Вердагер, Ален Эрнандес, Франсеск Орелья, Алекс Брендемюль, Нурия Гаго, Маноло Соло, Айна Клотет--О фильме: Жизнь сталкивает нас с ними каждый день. Неприятный сосед, коллега на работе, подруга, выходящая замуж, безумная семейка на улице, старый знакомый или хитрый продавец. И никто не знает, о чем же они думают на самом деле. Может им просто хочется вас убить? Семь историй, в которых чёрный юмор соседствует с кошмаром, а смех превращается в крики ужаса.-- --Страна: Испания
Производство: Compacto, No Hay Banda, Producciones del Interior AIE
Продолжительность: 01:18:14
Перевод: Профессиональный (многоголосый закадровый) | iTunes--Файл
Кодек: XviD
Качество: WEB-DLRip
Видео: 720x320 (2.25:1), 24 fps, XviD build 67 ~1131 kbps avg, 0.204 bit/pixel
Звук: 48 kHz, AC3 Dolby Digital, 2/0 (L,R) ch, ~192 kbps avg
Субтитры: Нет--Семпл

Скриншоты

       

Орлов Владимир

Post 12-Sep-2019 18:25

[Quote]

--7 социопатов / 7 raons per fugir (Герард Квинто, Эстеве Солер, Дэвид Торрас) [2019, Комедия, WEB-DLRip-AVC] [MVO] [iTunes]-- Информация о фильме
Название: 7 социопатов
Оригинальное название: 7 raons per fugir
Год выхода: 2019
Жанр: комедия
Режиссёр: Герард Квинто, Эстеве Солер, Дэвид Торрас--В ролях: Эмма Суарес, Серхи Лопес, Лола Дуэньяс, Давид Вердагер, Ален Эрнандес, Франсеск Орелья, Алекс Брендемюль, Нурия Гаго, Маноло Соло, Айна Клотет--О фильме: Жизнь сталкивает нас с ними каждый день. Неприятный сосед, коллега на работе, подруга, выходящая замуж, безумная семейка на улице, старый знакомый или хитрый продавец. И никто не знает, о чем же они думают на самом деле. Может им просто хочется вас убить? Семь историй, в которых чёрный юмор соседствует с кошмаром, а смех превращается в крики ужаса.-- --Страна: Испания
Производство: Compacto, No Hay Banda, Producciones del Interior AIE
Продолжительность: 01:18:14
Перевод: Профессиональный (многоголосый закадровый) | iTunes--Файл
Формат: MKV
Видео кодек: MPEG-4 AVC
Аудио кодек: AC3
Видео: 1024x458 (2.25:1), 24,000 fps, x264 ~2 135 kbps avg, 0.190 bit/pixel
Аудио : 48 kHz, AC3 Dolby Digital, 3/2 (L,C,R,l,r) + LFE ch, ~384.00 kbps avg | RUS (iTunes)
Субтитры: Нет--

Тех.данные видеофайла

Общее
Уникальный идентификатор : 103531664478548223207258216572849830647 (0x4DE37928F4100E4AA0BB8465F7113AF7)
Полное имя : F:OlLanDGroup7.Raons.Per.Fugir.2019.WEB-DLRip(AVC).OllanDGroup.mkv
Формат : Matroska
Версия формата : Version 4 / Version 2
Размер файла : 1,38 Гбайт
Продолжительность : 1 ч. 18 м.
Общий поток : 2518 Кбит/сек
Название фильма : 7 raons per fugir 2019 #TorpedoUK#
Дата кодирования : UTC 2019-09-12 14:36:20
Программа кодирования : mkvmerge v29.0.0 ('Like It Or Not') 64-bit
Библиотека кодирования : libebml v1.3.6 + libmatroska v1.4.9
Видео
Идентификатор : 1
Формат : AVC
Формат/Информация : Advanced Video Codec
Профиль формата : [email protected]
Параметр CABAC формата : Да
Параметр ReFrames формата : 10 кадров
Идентификатор кодека : V_MPEG4/ISO/AVC
Продолжительность : 1 ч. 18 м.
Битрейт : 2135 Кбит/сек
Ширина : 1024 пикселя
Высота : 458 пикселей
Соотношение сторон : 2,25:1
Режим частоты кадров : Постоянный
Частота кадров : 24,000 кадра/сек
Цветовое пространство : YUV
Субдискретизация насыщенности : 4:2:0
Битовая глубина : 8 бит
Тип развёртки : Прогрессивная
Бит/(Пиксели*Кадры) : 0.190
Размер потока : 1,17 Гбайт (85%)
Библиотека кодирования : x264 core 146 r2538 121396c
Настройки программы : cabac=1 / ref=10 / deblock=1:-3:-3 / analyse=0x3:0x113 / me=umh / subme=10 / psy=1 / psy_rd=0.97:0.05 / mixed_ref=1 / me_range=48 / chroma_me=1 / trellis=2 / 8x8dct=1 / cqm=0 / deadzone=21,11 / fast_pskip=1 / chroma_qp_offset=-6 / threads=6 / lookahead_threads=1 / sliced_threads=0 / nr=0 / decimate=1 / interlaced=0 / bluray_compat=0 / constrained_intra=0 / bframes=11 / b_pyramid=2 / b_adapt=2 / b_bias=0 / direct=3 / weightb=1 / open_gop=0 / weightp=2 / keyint=240 / keyint_min=24 / scenecut=40 / intra_refresh=0 / rc_lookahead=40 / rc=2pass / mbtree=0 / bitrate=2135 / ratetol=1.0 / qcomp=0.60 / qpmin=0 / qpmax=69 / qpstep=4 / cplxblur=20.0 / qblur=0.5 / vbv_maxrate=50000 / vbv_bufsize=62500 / nal_hrd=none / filler=0 / ip_ratio=1.40 / pb_ratio=1.30 / aq=1:1.00
Язык : English
Default : Да
Forced : Нет
Аудио
Идентификатор : 2
Формат : AC-3
Формат/Информация : Audio Coding 3
Расширение режима : CM (complete main)
Параметр Endianness формата : Big
Идентификатор кодека : A_AC3
Продолжительность : 1 ч. 18 м.
Вид битрейта : Постоянный
Битрейт : 384 Кбит/сек
Каналы : 6 каналов
Расположение каналов : Front: L C R, Side: L R, LFE
Частота : 48,0 КГц
Частота кадров : 31,250 кадров/сек (1536 spf)
Битовая глубина : 16 бит
Метод сжатия : С потерями
Размер потока : 215 Мбайт (15%)
Заголовок : iTunes
Язык : Russian
Default : Да
Forced : Да
Меню
00:00:00.000 : en:Глава 1
00:10:06.250 : en:Глава 2
00:17:36.541 : en:Глава 3
00:22:00.791 : en:Глава 4
00:29:43.541 : en:Глава 5
00:37:56.957 : en:Глава 6
00:46:21.415 : en:Глава 7
00:54:41.456 : en:Глава 8
01:04:08.997 : en:Глава 9
01:11:47.413 : en:Глава 10

Скриншоты

           

Орлов Владимир

Post 12-Sep-2019 15:20

[Quote]

--Детские игры / Child's Play (Ларс Клевберг) [2019, Ужасы, WEB-DLRip-AVC] [DUB] [iTunes]-- Информация о фильме
Название: Детские игры
Оригинальное название: Child's Play
Год выпуска
: 2019
Страна: Франция, Канада, США
Производство: Orion Pictures, BRON Studios, Bron Creative
Жанр: Ужасы
--Режиссёр: Ларс Клевберг
В ролях: Гэбриел Бейтман, Обри Плаза, Марк Хэмилл, Брайан Тайри Генри, Тим Мэтисон, Дэвид Льюис, Ти Консильо, Марлон Казади, Беатрис Китсос, Ханна Дрю, Трент Редекоп, Эмбер Тейлор, Карлис Бёрк, Николь Энтони, Джонсон Фэн, Кристин Йорк, Миа Белла, Амро Майзуб, Вину Сандху, Оливия Пун, Кеннет Тайнен
--Перевод: Дублированный [iTunes]
Субтитры: Нет
--Описание: Карэн со своим тринадцатилетним сыном Энди недавно переехали в другой город. Мальчику довольно сложно обзавестись компанией друзей из-за своей природной стеснительности. Мама видит, что сын находится постоянно в одиночестве и принимает решение купить ему куклу. Карэн надеется, что ее мальчику станет проще заводить себе друзей. Куклу называют Чаки. Но внезапно Энди замечает, что игрушка странно себя ведет...-- --Качество: WEB-DLRip-AVC AMZN Version
Продолжительность: 01:29:59
--Формат: MKV
Видео кодек: MPEG-4 AVC
Аудио кодек: AC3
Видео: 1024x434 (2.35:1), 23,976 fps, x264 ~1 955 kbps avg, 0.183 bit/pixel
Аудио: 48 kHz, AC3 Dolby Digital, 3/2 (L,C,R,l,r) + LFE ch, ~384.00 kbps avg | RUS (iTunes)
--Дата премьеры (мир): 18 июня 2019
Дата премьеры (РФ): 20 июня 2019, «Централ Партнершип»
--

Тех.данные видеофайла

Общее
Уникальный идентификатор: 315840122826912278884703558483587521233 (0xED9C98532C74CC34826DCA28FC025AD1)
Полное имя: F:\OlLanDGroup\Childs.Play.2019.AMZN.WEB-DLRip(AVC).OlLanDGroup.mkv
Формат: Matroska
Версия формата: Version 4 / Version 2
Размер файла: 1,47 Гбайт
Продолжительность: 1 ч. 29 м.
Общий поток: 2338 Кбит/сек
Название фильма: Childs Play 2019 #TorpedoUK#
Дата кодирования: UTC 2019-09-12 09:16:11
Программа кодирования: mkvmerge v29.0.0 ('Like It Or Not') 64-bit
Библиотека кодирования: libebml v1.3.6 + libmatroska v1.4.9
Видео
Идентификатор: 1
Формат: AVC
Формат/Информация: Advanced Video Codec
Профиль формата: [email protected]
Параметр CABAC формата: Да
Параметр ReFrames формата: 10 кадров
Идентификатор кодека: V_MPEG4/ISO/AVC
Продолжительность: 1 ч. 29 м.
Битрейт: 1955 Кбит/сек
Ширина: 1024 пикселя
Высота: 434 пикселя
Соотношение сторон: 2,35:1
Режим частоты кадров: Постоянный
Частота кадров: 23,976 (24000/1001) кадра/сек
Цветовое пространство: YUV
Субдискретизация насыщенности: 4:2:0
Битовая глубина: 8 бит
Тип развёртки: Прогрессивная
Бит/(Пиксели*Кадры): 0.183
Размер потока: 1,23 Гбайт (84%)
Библиотека кодирования: x264 core 146 r2538 121396c
Настройки программы: cabac=1 / ref=10 / deblock=1:-2:-3 / analyse=0x3:0x113 / me=umh / subme=10 / psy=1 / psy_rd=0.95:0.07 / mixed_ref=1 / me_range=48 / chroma_me=1 / trellis=2 / 8x8dct=1 / cqm=0 / deadzone=21,11 / fast_pskip=1 / chroma_qp_offset=-6 / threads=6 / lookahead_threads=1 / sliced_threads=0 / nr=0 / decimate=1 / interlaced=0 / bluray_compat=0 / constrained_intra=0 / bframes=11 / b_pyramid=2 / b_adapt=2 / b_bias=0 / direct=3 / weightb=1 / open_gop=0 / weightp=2 / keyint=240 / keyint_min=23 / scenecut=40 / intra_refresh=0 / rc_lookahead=40 / rc=2pass / mbtree=0 / bitrate=1955 / ratetol=1.0 / qcomp=0.60 / qpmin=0 / qpmax=69 / qpstep=4 / cplxblur=20.0 / qblur=0.5 / vbv_maxrate=50000 / vbv_bufsize=62500 / nal_hrd=none / filler=0 / ip_ratio=1.40 / pb_ratio=1.30 / aq=1:1.00
Язык: English
Default: Да
Forced: Нет
Аудио
Идентификатор: 2
Формат: AC-3
Формат/Информация: Audio Coding 3
Расширение режима: CM (complete main)
Параметр Endianness формата: Big
Идентификатор кодека: A_AC3
Продолжительность: 1 ч. 29 м.
Вид битрейта: Постоянный
Битрейт: 384 Кбит/сек
Каналы: 6 каналов
Расположение каналов: Front: L C R, Side: L R, LFE
Частота: 48,0 КГц
Частота кадров: 31,250 кадров/сек (1536 spf)
Битовая глубина: 16 бит
Метод сжатия: С потерями
Размер потока: 247 Мбайт (16%)
Заголовок: iTunes
Язык: Russian
Default: Да
Forced: Да

Скриншоты

           
 

The time now is: Today 01:16

All times are GMT + 3 Hours