Today is a free download without charge Download

Search found 98 matches

Author Message

Clavik

Post 20-Sep-2019 22:22

[Quote]

нежданчик) рэмбо новый,спасибо за раздачу

Орлов Владимир

Post 20-Sep-2019 22:21

[Quote]

-Рэмбо: Последняя кровь / Rambo: Last Blood-- Информация о фильме
Год выпуска: 2019
Жанр: боевик, триллер, приключения, вестерн
Страна: США
Режиссёр: Адриан Грюнберг
Перевод: Дублированный
Субтитры: нет
Продолжительность: 01:30:269-- В ролях: Сильвестр Сталлоне, Пас Вега, Ивет Монреаль, Луис Мэндилор, Оскар Хаэнада, Шила Шах, Серхио Перис-Менчета, Джессика Мэдсен, Хоакин Косио, Адриана Барраса-- Описание: Он хранил секреты всю жизнь, но пришло время взглянуть в глаза прошлому. В последний раз собраться и стать безжалостной машиной для убийства. Рэмбо снова встанет на смертельно опасный путь - путь мести, который ему придется пройти до конца-- --Файлы
Качество: TS
Формат: AVI
Видео: XviD,1769 Кбит/с, 720x304
Аудио: Русский (AC3, 2 ch, 384 Кбит/с)
--

Скриншоты

     

Орлов Владимир

Post 10-Sep-2019 22:14

[Quote]

-Маленькие чудовища / Little Monsters (Абе Форсайт) [2019, ужасы, комедия, TS 720p] [MVO] [КОЛОБОК]- Информация о фильме
Год выпуска: 2019
Жанр: ужасы, комедия
Страна: Австралия, Великобритания, США
Режиссёр: Абе Форсайт
Перевод: Профессиональный многоголосый [КОЛОБОК]
Субтитры: нет
Продолжительность: 01:29:12-- В ролях: Лупита Нионго, Джош Гад, Стивен Пикок, Кэт Стюарт, Александр Инглэнд, Надя Таунсенд, Феликс Уильямсон, Маршалл Напье, Генри Никсон, Джейсон Чонг-- Описание: Учительница начальных классов везёт группу детей за город на экскурсию, когда на местности происходит вспышка зомби-вируса. Чтобы спастись и не травмировать детскую психику, женщина убеждает малышей в том, что все эти зомби, кровь, кишки - ненастоящие, а всё происходящее - просто игра. Странная, но весёлая. И вот тот дядя корчится не от боли, а от радости. И не корчится, а смеётся.-- --Файлы
Качество: TS 720p
Формат: MKV
Видео: h.264,4000 Кбит/с, 1280x536
Аудио: Русский (AC3, 2 ch, 384 Кбит/с)
--

Скриншоты

     

Орлов Владимир

Post 10-Sep-2019 22:11

[Quote]

-Маленькие чудовища / Little Monsters (Абе Форсайт) [2019, ужасы, комедия, TS] [MVO] [КОЛОБОК]- Информация о фильме
Год выпуска: 2019
Жанр: ужасы, комедия
Страна: Австралия, Великобритания, США
Режиссёр: Абе Форсайт
Перевод: Профессиональный многоголосый [КОЛОБОК]
Субтитры: нет
Продолжительность: 01:29:12-- В ролях: Лупита Нионго, Джош Гад, Стивен Пикок, Кэт Стюарт, Александр Инглэнд, Надя Таунсенд, Феликс Уильямсон, Маршалл Напье, Генри Никсон, Джейсон Чонг-- Описание: Учительница начальных классов везёт группу детей за город на экскурсию, когда на местности происходит вспышка зомби-вируса. Чтобы спастись и не травмировать детскую психику, женщина убеждает малышей в том, что все эти зомби, кровь, кишки - ненастоящие, а всё происходящее - просто игра. Странная, но весёлая. И вот тот дядя корчится не от боли, а от радости. И не корчится, а смеётся.-- --Файлы
Качество: TS
Формат: AVI
Видео: XviD,1799 Кбит/с, 720x304
Аудио: Русский (AC3, 2 ch, 384 Кбит/с)
--

Скриншоты

     

Clavik

Post 09-Sep-2019 17:46

[Quote]

Оно 2 / It Chapter Two (2019) CAMRip [H.264/720p-LQ]- Производство: Канада, США / KatzSmith Productions, Lin Pictures, New Line Cinema
Жанр: Ужасы
Режиссер: Андрес Мускетти
Актеры: Джессика Честейн, Джеймс МакЭвой, Билл Хэйдер, Айзая Мустафа, Джей Райан, Джеймс Рэнсон, Энди Бин, Билл Скарсгард, Джейден Мартелл, Уайатт Олефф
Описание:
Проходит 27 лет после первой встречи ребят с демоническим Пеннивайзом. Они уже выросли, и у каждого своя жизнь. Но неожиданно их спокойное существование нарушает странный телефонный звонок, который заставляет их вновь собраться вместе.

Возраст: 18+ (зрителям, достигшим 18 лет. запрещено для детей)
Рейтинг MPAA: R (лицам до 17 лет обязательно присутствие взрослого)
Дата мировой премьеры: 26 августа 2019
Дата премьеры в России: 5 сентября 2019

Продолжительность: 02:43:59
Качество видео: CAMRip
Перевод: Дублированный
Субтитры: Отсутствуют
Реклама: Присутствует баннер.
Видео: AVC/H.264, 1280x536, ~3576 Kbps
Аудио: AC-3, 2 ch, 384 Kbps

MediaInfo:

Общее
Полное имя : D:\NNM\Оно\It.Chapter.Two.2019.CAMRip.720p-LQ.mkv
Формат : Matroska
Версия формата : Version 2
Размер файла : 4,63 Гбайт
Продолжительность : 2 ч. 43 м.
Режим общего битрейта : Переменный
Общий поток : 4040 Кбит/сек
Программа кодирования : libmatroska 1.4.1
Библиотека кодирования : SolveigMM Matroska Muxer Version 1.0.1502.31
Видео
Идентификатор : 1
Формат : AVC
Формат/Информация : Advanced Video Codec
Профиль формата : [url=mailto:[email protected]][email protected][/url]
Настройки формата : CABAC / 4 Ref Frames
Параметр CABAC формата : Да
Параметр RefFrames формата : 4 кадра
Идентификатор кодека : V_MPEG4/ISO/AVC
Продолжительность : 2 ч. 43 м.
Вид битрейта : Переменный
Битрейт : 3576 Кбит/сек
Максимальный битрейт : 4000 Кбит/сек
Ширина : 1280 пикселей
Высота : 536 пикселей
Соотношение сторон : 2,40:1
Режим частоты кадров : Постоянный
Частота кадров : 23,976 (24000/1001) кадра/сек
Стандарт вещания : Component
Цветовое пространство : YUV
Субдискретизация насыщенности : 4:2:0
Битовая глубина : 8 бит
Тип развёртки : Прогрессивная
Бит/(Пиксели*Кадры) : 0.217
Размер потока : 4,10 Гбайт (89%)
Default : Нет
Forced : Нет
Цветовой диапазон : Limited
Основные цвета : BT.709
Характеристики трансфера : BT.709
Коэффициенты матрицы : BT.709
Аудио
Идентификатор : 2
Формат : AC-3
Формат/Информация : Audio Coding 3
Коммерческое название : Dolby Digital
Идентификатор кодека : A_AC3
Продолжительность : 2 ч. 43 м.
Вид битрейта : Постоянный
Битрейт : 384 Кбит/сек
Каналы : 2 канала
Channel layout : L R
Частота : 48,0 КГц
Частота кадров : 31,250 кадров/сек (1536 SPF)
Битовая глубина : 16 бит
Метод сжатия : С потерями
Размер потока : 450 Мбайт (10%)
Язык : Russian
ServiceKind/String : Complete Main
Default : Нет
Forced : Нет
Скриншоты:        

Clavik

Post 23-Aug-2019 11:20

[Quote]

Падение ангела / Angel Has Fallen (2019) CAMRip [H.264/720p-LQ]- Производство: США / Campbell Grobman Films, Eclectic Pictures, G-BASE
Жанр: Боевик
Режиссер: Рик Роман Во
Актеры: Джерард Батлер, Пайпер Перабо, Морган Фриман, Джада Пинкетт Смит, Дэнни Хьюстон, Ник Нолти, Лэнс Реддик, Тим Блейк Нельсон, Майкл Лэндис, Екатерина Гусарова
Описание:
На президента США совершено покушение, главный обвиняемый — верный ангел-хранитель главы государства и агент секретной службы Майк Бэннинг. Скрываясь от ФБР, он должен найти тех, кто его подставил, и спасти страну и ее лидера от смертельной угрозы.

Возраст: 16+ (зрителям, достигшим 16 лет)
Рейтинг MPAA: R (лицам до 17 лет обязательно присутствие взрослого)
Дата мировой премьеры: 21 августа 2019
Дата премьеры в России: 22 августа 2019

Продолжительность: 01:36:00
Качество видео: CAMRip
Перевод: Дублированный
Субтитры: Отсутствуют
Реклама: Присутствует баннер.
Видео: AVC/H.264, 1280x536, ~3671 Kbps
Аудио: AC-3, 2 ch, 384 Kbps

MediaInfo:

Общее
Уникальный идентификатор : 213038434074155709768930645380463386772 (0xA045B5BF35ADEC59BBF2096ABA80E094)
Полное имя : D:\NNM\Падение ангела\Angel.Has.Fallen.2O19.CAMRip.720p-LQ.mkv
Формат : Matroska
Версия формата : Version 4
Размер файла : 3,16 Гбайт
Продолжительность : 1 ч. 49 м.
Режим общего битрейта : Переменный
Общий поток : 4138 Кбит/сек
Дата кодирования : UTC 2019-08-22 21:41:30
Программа кодирования : mkvmerge v6.9.1 ('Blue Panther') 32bit built on Apr 18 2014 18:15:44
Библиотека кодирования : libebml v1.3.0 + libmatroska v1.4.1
Видео
Идентификатор : 1
Формат : AVC
Формат/Информация : Advanced Video Codec
Профиль формата : [url=mailto:[email protected]][email protected][/url]
Настройки формата : CABAC / 4 Ref Frames
Параметр CABAC формата : Да
Параметр RefFrames формата : 4 кадра
Идентификатор кодека : V_MPEG4/ISO/AVC
Продолжительность : 1 ч. 49 м.
Вид битрейта : Переменный
Битрейт : 3671 Кбит/сек
Максимальный битрейт : 4000 Кбит/сек
Ширина : 1280 пикселей
Высота : 536 пикселей
Соотношение сторон : 2,40:1
Режим частоты кадров : Постоянный
Частота кадров : 23,976 (24000/1001) кадра/сек
Стандарт вещания : Component
Цветовое пространство : YUV
Субдискретизация насыщенности : 4:2:0
Битовая глубина : 8 бит
Тип развёртки : Прогрессивная
Бит/(Пиксели*Кадры) : 0.223
Размер потока : 2,80 Гбайт (89%)
Default : Нет
Forced : Нет
Цветовой диапазон : Limited
Основные цвета : BT.709
Характеристики трансфера : BT.709
Коэффициенты матрицы : BT.709
Аудио
Идентификатор : 2
Формат : AC-3
Формат/Информация : Audio Coding 3
Коммерческое название : Dolby Digital
Идентификатор кодека : A_AC3
Продолжительность : 1 ч. 49 м.
Вид битрейта : Постоянный
Битрейт : 384 Кбит/сек
Каналы : 2 канала
Channel layout : L R
Частота : 48,0 КГц
Частота кадров : 31,250 кадров/сек (1536 SPF)
Битовая глубина : 16 бит
Метод сжатия : С потерями
Размер потока : 300 Мбайт (9%)
Язык : Russian
ServiceKind/String : Complete Main
Default : Да
Forced : Нет
Скриншоты:        

Theseus

Post 10-Jan-2019 15:19

[Quote]

Аквамен / Aquaman- Год выхода: 2018
Страна: США
Жанр: фантастика, фэнтези, боевик, приключения
Продолжительность: 02:11:14
Перевод: Профессиональный (полное дублирование)
Субтитры: Отсутствуют-Режиссер: Джеймс Ван-В ролях: Джейсон Момоа, Эмбер Хёрд, Дольф Лундгрен, Николь Кидман, Джули Эндрюс, Патрик Уилсон, Уиллем Дефо, Грэм МакТавиш, Талия Джейд, Джимон Хонсу-О фильме: Действие фильма разворачивается в необъятном и захватывающем подводном мире семи морей, а сюжет знакомит зрителей с историей происхождения получеловека-полуатланта Артура Карри и ключевыми событиями его жизни — теми, что заставят его не только столкнуться с самим собой, но и выяснить, достоин ли он быть тем, кем ему суждено… царем!- -Качество: TS 720p
Формат: MKV
Видео кодек: x.264
Аудио кодек: AAC
Видео: MPEG4-AVC, 1280x536 (2.40:1), 29.970 fps, 3 100 kb/s
Аудио: AAC, 48.0 KHz, 2 ch, 112 Kbps-Рекламы нет-

Трейлер

-    - -

Theseus

Post 10-Jan-2019 15:14

[Quote]

Аквамен / Aquaman- Год выхода: 2018
Страна: США
Жанр: фантастика, фэнтези, боевик, приключения
Продолжительность: 02:11:14
Перевод: Профессиональный (полное дублирование)
Субтитры: Отсутствуют-Режиссер: Джеймс Ван-В ролях: Джейсон Момоа, Эмбер Хёрд, Дольф Лундгрен, Николь Кидман, Джули Эндрюс, Патрик Уилсон, Уиллем Дефо, Грэм МакТавиш, Талия Джейд, Джимон Хонсу-О фильме: Действие фильма разворачивается в необъятном и захватывающем подводном мире семи морей, а сюжет знакомит зрителей с историей происхождения получеловека-полуатланта Артура Карри и ключевыми событиями его жизни — теми, что заставят его не только столкнуться с самим собой, но и выяснить, достоин ли он быть тем, кем ему суждено… царем!- -Качество: TS
Формат: AVI
Видео кодек: XviD
Аудио кодек: AC3
Видео: MPEG4, XviD, 720x304 (2.35:1), 29.970 fps, 2 097 kb/s
Аудио: AC-3, 48.0 KHz, 2 ch, 192 Kbps-Рекламы нет | Сэмпл

Трейлер

-     - -

Theseus

Post 09-Oct-2018 22:06

[Quote]

Хищник / The Predator- Год выхода: 2018
Страна: США, Канада
Жанр: ужасы, фантастика, боевик, триллер
Продолжительность: 01:41:27
Перевод: Профессиональный (полное дублирование)
Субтитры: Отсутствуют-Режиссер: Шейн Блэк-В ролях: Бойд Холбрук, Треванте Роудс, Джейкоб Тремблей, Кигэн-Майкл Ки, Оливия Манн, Стерлинг К. Браун, Томас Джейн, Алфи Аллен, Августо Агилера, Джейк Бьюзи-О фильме: Главный герой, бывший морпех, обнаруживает злобную инопланетную расу на Земле, но никто не верит ему, что эти твари существуют. Его сын-аутист, которого все обижают в школе, становится ключевой фигурой в схватке с Хищниками, поскольку мальчик умеет невероятно быстро учить языки и, судя по всему, сможет понять пришельцев.- -Качество: TS 720p "Proper"
Формат: MKV
Видео кодек: x.264
Аудио кодек: AC3
Видео: AVC, 1280x528 (2.40:1), 30.000 fps, 2 500 Kbps
Аудио #1: AC-3, 48.0 KHz, 2 ch, 192 Kbps (Russian)
Аудио #2: AC-3, 48.0 KHz, 2 ch, 192 Kbps (English)-Сэмпл-Рекламы нет-

MediaInfo

Код:
Общее
Уникальный идентификатор                 : 254927664151877729643051144045758439643 (0xBFC9483E8A26BC16B759B19AE29AE0DB)
Полное имя                               : The.Predator.2018.TS.720p.Rus.Eng.mkv
Формат                                   : Matroska
Версия формата                           : Version 4 / Version 2
Размер файла                             : 2,04 Гбайт
Продолжительность                        : 1 ч. 41 м.
Режим общего битрейта                    : Переменный
Общий поток                              : 2883 Кбит/сек
Дата кодирования                         : UTC 2018-10-09 17:26:14
Программа кодирования                    : mkvmerge v8.3.0 ('Over the Horizon') 64bit
Библиотека кодирования                   : libebml v1.3.1 + libmatroska v1.4.2
Видео
Идентификатор                            : 1
Формат                                   : AVC
Формат/Информация                        : Advanced Video Codec
Профиль формата                          : [email protected]
Настройки формата                        : CABAC / 6 Ref Frames
Параметр CABAC формата                   : Да
Параметр RefFrames формата               : 6 кадров
Идентификатор кодека                     : V_MPEG4/ISO/AVC
Продолжительность                        : 1 ч. 41 м.
Вид битрейта                             : Переменный
Битрейт                                  : 2500 Кбит/сек
Максимальный битрейт                     : 62,5 Мбит/сек
Ширина                                   : 1280 пикселей
Высота                                   : 528 пикселей
Соотношение сторон                       : 2,40:1
Режим частоты кадров                     : Постоянный
Частота кадров                           : 30,000 кадров/сек
Цветовое пространство                    : YUV
Субдискретизация насыщенности            : 4:2:0
Битовая глубина                          : 8 бит
Тип развёртки                            : Прогрессивная
Бит/(Пиксели*Кадры)                      : 0.123
Размер потока                            : 1,77 Гбайт (87%)
Библиотека кодирования                   : x264 core 148 r2638 7599210
Настройки программы                      : cabac=1 / ref=7 / deblock=1:-1:-1 / analyse=0x3:0x133 / me=umh / subme=9 / psy=1 / psy_rd=1.00:0.15 / mixed_ref=1 / me_range=18 / chroma_me=1 / trellis=2 / 8x8dct=1 / cqm=0 / deadzone=21,11 / fast_pskip=0 / chroma_qp_offset=-3 / threads=16 / lookahead_threads=1 / sliced_threads=0 / slices=4 / nr=0 / decimate=1 / interlaced=0 / bluray_compat=0 / constrained_intra=0 / bframes=3 / b_pyramid=1 / b_adapt=2 / b_bias=0 / direct=3 / weightb=1 / open_gop=0 / weightp=0 / keyint=300 / keyint_min=30 / scenecut=40 / intra_refresh=0 / rc_lookahead=40 / rc=abr / mbtree=1 / bitrate=2500 / ratetol=1.0 / qcomp=0.60 / qpmin=10 / qpmax=51 / qpstep=4 / vbv_maxrate=62500 / vbv_bufsize=78125 / nal_hrd=vbr / filler=0 / ip_ratio=1.40 / aq=1:1.00
Default                                  : Да
Forced                                   : Нет
Цветовой диапазон                        : Full
Основные цвета                           : BT.709
Характеристики трансфера                 : BT.709
Коэффициенты матрицы                     : BT.709
Аудио #1
Идентификатор                            : 2
Формат                                   : AC-3
Формат/Информация                        : Audio Coding 3
Идентификатор кодека                     : A_AC3
Продолжительность                        : 1 ч. 41 м.
Вид битрейта                             : Постоянный
Битрейт                                  : 192 Кбит/сек
Каналы                                   : 2 канала
Расположение каналов                     : Front: L R
Частота                                  : 48,0 КГц
Частота кадров                           : 31,250 кадров/сек (1536 SPF)
Битовая глубина                          : 16 бит
Метод сжатия                             : С потерями
Размер потока                            : 139 Мбайт (7%)
Язык                                     : Russian
ServiceKind/String                       : Complete Main
Default                                  : Да
Forced                                   : Нет
Аудио #2
Идентификатор                            : 3
Формат                                   : AC-3
Формат/Информация                        : Audio Coding 3
Идентификатор кодека                     : A_AC3
Продолжительность                        : 1 ч. 41 м.
Вид битрейта                             : Постоянный
Битрейт                                  : 192 Кбит/сек
Каналы                                   : 2 канала
Расположение каналов                     : Front: L R
Частота                                  : 48,0 КГц
Частота кадров                           : 31,250 кадров/сек (1536 SPF)
Битовая глубина                          : 16 бит
Метод сжатия                             : С потерями
Размер потока                            : 139 Мбайт (7%)
Язык                                     : English
ServiceKind/String                       : Complete Main
Default                                  : Нет
Forced                                   : Нет

Трейлер

-     - -

Theseus

Post 09-Oct-2018 22:05

[Quote]

Хищник / The Predator- Год выхода: 2018
Страна: США, Канада
Жанр: ужасы, фантастика, боевик, триллер
Продолжительность: 01:41:27
Перевод: Профессиональный (полное дублирование)
Субтитры: Отсутствуют-Режиссер: Шейн Блэк-В ролях: Бойд Холбрук, Треванте Роудс, Джейкоб Тремблей, Кигэн-Майкл Ки, Оливия Манн, Стерлинг К. Браун, Томас Джейн, Алфи Аллен, Августо Агилера, Джейк Бьюзи-О фильме: Главный герой, бывший морпех, обнаруживает злобную инопланетную расу на Земле, но никто не верит ему, что эти твари существуют. Его сын-аутист, которого все обижают в школе, становится ключевой фигурой в схватке с Хищниками, поскольку мальчик умеет невероятно быстро учить языки и, судя по всему, сможет понять пришельцев.- -Качество: TS "Proper"
Формат: AVI
Видео кодек: XviD
Аудио кодек: AC3
Видео: MPEG4, XviD, 720x304 (2.35:1), 30.000 fps, 2 506 Kbps
Аудио #1: AC-3, 48.0 KHz, 2 ch, 192 Kbps (Russian)
Аудио #2: AC-3, 48.0 KHz, 2 ch, 192 Kbps (English)-Сэмпл-Рекламы нет-

MediaInfo

Код:
Общее
Полное имя                               : The.Predator.2018.TS.Rus.Eng.avi
Формат                                   : AVI
Формат/Информация                        : Audio Video Interleave
Профиль формата                          : OpenDML
Размер файла                             : 2,06 Гбайт
Продолжительность                        : 1 ч. 41 м.
Общий поток                              : 2908 Кбит/сек
Видео
Идентификатор                            : 0
Формат                                   : MPEG-4 Visual
Профиль формата                          : Advanced [email protected]
Настройки формата                        : BVOP1
Параметр BVOP формата                    : 1
Параметр QPel формата                    : Нет
Параметр GMC формата                     : Без точки перехода
Параметр матрицы формата                 : Default (H.263)
Режим смешивания                         : Сжатый битовый поток
Идентификатор кодека                     : XVID
Идентификатор кодека/Подсказка           : XviD
Продолжительность                        : 1 ч. 41 м.
Битрейт                                  : 2506 Кбит/сек
Ширина                                   : 720 пикселей
Высота                                   : 304 пикселя
Соотношение сторон                       : 2,35:1
Частота кадров                           : 30,000 кадров/сек
Цветовое пространство                    : YUV
Субдискретизация насыщенности            : 4:2:0
Битовая глубина                          : 8 бит
Тип развёртки                            : Прогрессивная
Метод сжатия                             : С потерями
Бит/(Пиксели*Кадры)                      : 0.382
Размер потока                            : 1,78 Гбайт (86%)
Библиотека кодирования                   : XviD 64
Аудио #1
Идентификатор                            : 1
Формат                                   : AC-3
Формат/Информация                        : Audio Coding 3
Идентификатор кодека                     : 2000
Продолжительность                        : 1 ч. 41 м.
Вид битрейта                             : Постоянный
Битрейт                                  : 192 Кбит/сек
Каналы                                   : 2 канала
Расположение каналов                     : Front: L R
Частота                                  : 48,0 КГц
Частота кадров                           : 31,250 кадров/сек (1536 SPF)
Битовая глубина                          : 16 бит
Метод сжатия                             : С потерями
Размер потока                            : 139 Мбайт (7%)
Выравнивание                             : Соединение по промежуткам
Продолжительность промежутка             : 32  мс. (0,96 видеокадр)
ServiceKind/String                       : Complete Main
Аудио #2
Идентификатор                            : 2
Формат                                   : AC-3
Формат/Информация                        : Audio Coding 3
Идентификатор кодека                     : 2000
Продолжительность                        : 1 ч. 41 м.
Вид битрейта                             : Постоянный
Битрейт                                  : 192 Кбит/сек
Каналы                                   : 2 канала
Расположение каналов                     : Front: L R
Частота                                  : 48,0 КГц
Частота кадров                           : 31,250 кадров/сек (1536 SPF)
Битовая глубина                          : 16 бит
Метод сжатия                             : С потерями
Размер потока                            : 139 Мбайт (7%)
Выравнивание                             : Соединение по промежуткам
Продолжительность промежутка             : 32  мс. (0,96 видеокадр)
ServiceKind/String                       : Complete Main

Трейлер

-     - -

Theseus

Post 06-Oct-2018 15:01

[Quote]

Веном / Venom-Год выхода: 2018
Страна: США
Жанр: ужасы, фантастика, боевик, триллер
Продолжительность: 01:32:06
Перевод: Профессиональный (полное дублирование)
Субтитры: Отсутствуют-Режиссер: Рубен Фляйшер-В ролях: Том Харди, Мишель Уильямс, Марчелла Браджио, Вуди Харрельсон, Дженни Слейт, Риз Ахмед, Мак Брандт, Рон Сепас Джонс, Мишель Ли, Мелора Уолтерс-О фильме: Что если в один прекрасный день в тебя вселяется существо-симбиот, которое наделяет тебя сверхчеловеческими способностями? Вот только Веном — симбиот совсем недобрый, и договориться с ним невозможно. Хотя нужно ли договариваться?.. Ведь в какой-то момент ты понимаешь, что быть плохим вовсе не так уж и плохо. Так даже веселее. В мире и так слишком много супергероев! Мы — Веном!- -Качество: CamRip
Формат: AVI
Видео кодек: XviD
Аудио кодек: AC3
Видео: MPEG4, XviD, 720x304 (2.35:1), 30.000 fps, 1 999 Kbps
Аудио: AC-3, 48.0 KHz, 2 ch, 192 Kbps-Сэмпл-Рекламы нет-

MediaInfo

Код:
Общее
Полное имя                               : Venom.2O18.D.Camrip.avi
Формат                                   : AVI
Формат/Информация                        : Audio Video Interleave
Размер файла                             : 1,42 Гбайт
Продолжительность                        : 1 ч. 32 м.
Общий поток                              : 2203 Кбит/сек
Библиотека кодирования                   : VirtualDub build 35491/release
Видео
Идентификатор                            : 0
Формат                                   : MPEG-4 Visual
Профиль формата                          : Advanced [email protected]
Настройки формата                        : BVOP1
Параметр BVOP формата                    : 1
Параметр QPel формата                    : Нет
Параметр GMC формата                     : Без точки перехода
Параметр матрицы формата                 : Default (H.263)
Режим смешивания                         : Сжатый битовый поток
Идентификатор кодека                     : XVID
Идентификатор кодека/Подсказка           : XviD
Продолжительность                        : 1 ч. 32 м.
Битрейт                                  : 1999 Кбит/сек
Ширина                                   : 720 пикселей
Высота                                   : 304 пикселя
Соотношение сторон                       : 2,35:1
Частота кадров                           : 30,000 кадров/сек
Цветовое пространство                    : YUV
Субдискретизация насыщенности            : 4:2:0
Битовая глубина                          : 8 бит
Тип развёртки                            : Прогрессивная
Метод сжатия                             : С потерями
Бит/(Пиксели*Кадры)                      : 0.304
Размер потока                            : 1,29 Гбайт (91%)
Библиотека кодирования                   : XviD 64
Аудио
Идентификатор                            : 1
Формат                                   : AC-3
Формат/Информация                        : Audio Coding 3
Идентификатор кодека                     : 2000
Продолжительность                        : 1 ч. 32 м.
Вид битрейта                             : Постоянный
Битрейт                                  : 192 Кбит/сек
Каналы                                   : 2 канала
Расположение каналов                     : Front: L R
Частота                                  : 48,0 КГц
Частота кадров                           : 31,250 кадров/сек (1536 SPF)
Битовая глубина                          : 16 бит
Метод сжатия                             : С потерями
Размер потока                            : 126 Мбайт (9%)
Выравнивание                             : Соединение по промежуткам
Продолжительность промежутка             : 33  мс. (1,00 видеокадр)
Время предзагрузки промежутка            : 512  мс.
ServiceKind/String                       : Complete Main

Трейлер

-     - -

Theseus

Post 06-Oct-2018 13:42

[Quote]

Веном / Venom- Год выхода: 2018
Страна: США
Жанр: ужасы, фантастика, боевик, триллер
Продолжительность: 01:32:06
Перевод: Профессиональный (полное дублирование)
Субтитры: Отсутствуют-Режиссер: Рубен Фляйшер-В ролях: Том Харди, Мишель Уильямс, Марчелла Браджио, Вуди Харрельсон, Дженни Слейт, Риз Ахмед, Мак Брандт, Рон Сепас Джонс, Мишель Ли, Мелора Уолтерс-О фильме: Что если в один прекрасный день в тебя вселяется существо-симбиот, которое наделяет тебя сверхчеловеческими способностями? Вот только Веном — симбиот совсем недобрый, и договориться с ним невозможно. Хотя нужно ли договариваться?.. Ведь в какой-то момент ты понимаешь, что быть плохим вовсе не так уж и плохо. Так даже веселее. В мире и так слишком много супергероев! Мы — Веном!- -Качество: CamRip 720p
Формат: MKV
Видео кодек: x.264
Аудио кодек: AC3
Видео: AVC, 1280x544 (2.35:1), 30 fps, 1400 Kbps
Аудио: AC-3, 48.0 KHz, 2 ch, 192 Kbps-Сэмпл-Рекламы нет-

MediaInfo

Код:
Общее
Уникальный идентификатор                 : 185969165946000943962668279735662692580 (0x8BE85BC97634B718B0FAA451A3EC48E4)
Полное имя                               : Venom.2O18.D.Camrip.mkv
Формат                                   : Matroska
Версия формата                           : Version 4 / Version 2
Размер файла                             : 1,03 Гбайт
Продолжительность                        : 1 ч. 32 м.
Общий поток                              : 1599 Кбит/сек
Дата кодирования                         : UTC 2018-10-06 09:35:58
Программа кодирования                    : mkvmerge v8.3.0 ('Over the Horizon') 64bit
Библиотека кодирования                   : libebml v1.3.1 + libmatroska v1.4.2
Видео
Идентификатор                            : 1
Формат                                   : AVC
Формат/Информация                        : Advanced Video Codec
Профиль формата                          : [email protected]
Настройки формата                        : CABAC / 4 Ref Frames
Параметр CABAC формата                   : Да
Параметр RefFrames формата               : 4 кадра
Идентификатор кодека                     : V_MPEG4/ISO/AVC
Продолжительность                        : 1 ч. 32 м.
Битрейт                                  : 1400 Кбит/сек
Ширина                                   : 1280 пикселей
Высота                                   : 544 пикселя
Соотношение сторон                       : 2,35:1
Режим частоты кадров                     : Постоянный
Частота кадров                           : 30,000 кадров/сек
Цветовое пространство                    : YUV
Субдискретизация насыщенности            : 4:2:0
Битовая глубина                          : 8 бит
Тип развёртки                            : Прогрессивная
Бит/(Пиксели*Кадры)                      : 0.067
Размер потока                            : 925 Мбайт (88%)
Библиотека кодирования                   : x264 core 152 r2854 e9a5903
Настройки программы                      : cabac=1 / ref=3 / deblock=1:0:0 / analyse=0x3:0x133 / me=hex / subme=10 / psy=1 / psy_rd=1.00:0.00 / mixed_ref=1 / me_range=16 / chroma_me=1 / trellis=2 / 8x8dct=1 / cqm=0 / deadzone=21,11 / fast_pskip=1 / chroma_qp_offset=-2 / threads=6 / lookahead_threads=1 / sliced_threads=0 / nr=0 / decimate=1 / interlaced=0 / bluray_compat=0 / constrained_intra=0 / bframes=3 / b_pyramid=2 / b_adapt=1 / b_bias=0 / direct=1 / weightb=1 / open_gop=0 / weightp=2 / keyint=250 / keyint_min=25 / scenecut=40 / intra_refresh=0 / rc_lookahead=40 / rc=abr / mbtree=1 / bitrate=1400 / ratetol=1.0 / qcomp=0.60 / qpmin=10 / qpmax=51 / qpstep=4 / ip_ratio=1.40 / aq=1:1.00
Default                                  : Да
Forced                                   : Нет
Аудио
Идентификатор                            : 2
Формат                                   : AC-3
Формат/Информация                        : Audio Coding 3
Идентификатор кодека                     : A_AC3
Продолжительность                        : 1 ч. 32 м.
Вид битрейта                             : Постоянный
Битрейт                                  : 192 Кбит/сек
Каналы                                   : 2 канала
Расположение каналов                     : Front: L R
Частота                                  : 48,0 КГц
Частота кадров                           : 31,250 кадров/сек (1536 SPF)
Битовая глубина                          : 16 бит
Метод сжатия                             : С потерями
Задержка видео                           : -66 мс.
Размер потока                            : 126 Мбайт (12%)
Язык                                     : Russian
ServiceKind/String                       : Complete Main
Default                                  : Да
Forced                                   : Нет

Трейлер

-     - -

Theseus

Post 05-Oct-2018 21:16

[Quote]

Хищник / The Predator- Год выхода: 2018
Страна: США, Канада
Жанр: ужасы, фантастика, боевик, триллер
Продолжительность: 01:41:27
Перевод: Профессиональный (полное дублирование)
Субтитры: Отсутствуют-Режиссер: Шейн Блэк-В ролях: Бойд Холбрук, Треванте Роудс, Джейкоб Тремблей, Кигэн-Майкл Ки, Оливия Манн, Стерлинг К. Браун, Томас Джейн, Алфи Аллен, Августо Агилера, Джейк Бьюзи-О фильме: Главный герой, бывший морпех, обнаруживает злобную инопланетную расу на Земле, но никто не верит ему, что эти твари существуют. Его сын-аутист, которого все обижают в школе, становится ключевой фигурой в схватке с Хищниками, поскольку мальчик умеет невероятно быстро учить языки и, судя по всему, сможет понять пришельцев.- -Качество: TS-AVC
Формат: MKV
Видео кодек: x.264
Аудио кодек: AC3
Видео: AVC, 1024x418, 23.976 fps, 1800 Kbps
Аудио: AC-3, 48.0 KHz, 2 ch, 256 Kbps-Сэмпл-Присутствует аудио и текстовая реклама, видеоролики с рекламой вырезаны-

Трейлер

-     - -

Theseus

Post 05-Oct-2018 19:07

[Quote]

Веном / Venom- Год выхода: 2018
Страна: США
Жанр: ужасы, фантастика, боевик, триллер
Продолжительность: 01:34:49
Перевод: Профессиональный (полное дублирование)
Субтитры: Отсутствуют-Режиссер: Рубен Фляйшер-В ролях: Том Харди, Мишель Уильямс, Марчелла Браджио, Вуди Харрельсон, Дженни Слейт, Риз Ахмед, Мак Брандт, Рон Сепас Джонс, Мишель Ли, Мелора Уолтерс-О фильме: Что если в один прекрасный день в тебя вселяется существо-симбиот, которое наделяет тебя сверхчеловеческими способностями? Вот только Веном — симбиот совсем недобрый, и договориться с ним невозможно. Хотя нужно ли договариваться?.. Ведь в какой-то момент ты понимаешь, что быть плохим вовсе не так уж и плохо. Так даже веселее. В мире и так слишком много супергероев! Мы — Веном!- -Качество: TS-AVC
Формат: MKV
Видео кодек: x.264
Аудио кодек: AC3
Видео: AVC, 1024x436 (2.35:1), 23.976 fps, 2 020 Kbps
Аудио: AC-3, 48.0 KHz, 2 ch, 256 Kbps-Сэмпл-Присутствует аудио и текстовая реклама, видеоролики с рекламой вырезаны-

Трейлер

-     - -

Theseus

Post 05-Oct-2018 17:40

[Quote]

Веном / Venom- Год выхода: 2018
Страна: США
Жанр: ужасы, фантастика, боевик, триллер
Продолжительность: 01:34:49
Перевод: Профессиональный (полное дублирование)
Субтитры: Отсутствуют-Режиссер: Рубен Фляйшер-В ролях: Том Харди, Мишель Уильямс, Марчелла Браджио, Вуди Харрельсон, Дженни Слейт, Риз Ахмед, Мак Брандт, Рон Сепас Джонс, Мишель Ли, Мелора Уолтерс-О фильме: Что если в один прекрасный день в тебя вселяется существо-симбиот, которое наделяет тебя сверхчеловеческими способностями? Вот только Веном — симбиот совсем недобрый, и договориться с ним невозможно. Хотя нужно ли договариваться?.. Ведь в какой-то момент ты понимаешь, что быть плохим вовсе не так уж и плохо. Так даже веселее. В мире и так слишком много супергероев! Мы — Веном!- -Качество: TS 720p
Формат: MKV
Видео кодек: x.264
Аудио кодек: AC3
Видео: MPEG4-AVC, 1280x544, 23.976 fps, ~3829 kbps
Аудио: AC3, 48.0 KHz, 2 ch, 384 Kbps-Присутствует реклама-

Трейлер

-   - -
 

The time now is: Today 02:28

All times are GMT + 3 Hours