Today is a free download without charge Download

Search found 500 matches

Author Message

RazBoyNik

Post 13-Jul-2019 17:35

[Quote]

Враждебная планета / Hostile Planet (2019) HDTVRip (Сезон 1, cерии 6 из 6) - Год выпуска: 2019
Страна: США, Plimsoll Productions, National Geographic Channel
Жанр: Документальный, природа, флора, фауна
Режиссер: Матео Уиллис
Участники: Беар Гриллс
Описание:
Это сериал о дикой природе, который посвящен исследованию наиболее суровых для жизни уголков Земли. В течение шести серий вы исследуете самые экстремальные зоны жары, холода, влажности, сухости, побываете в самых экстремально высоких и глубоких точках планеты и откроете для себя действительно экстраординарные способы, с помощью которых животные научились адаптироваться к жизни в самых неблогоприятных условиях.
Продолжительность: серии x ~00:47:00
Качество видео: HDTVRip
Перевод: Одноголосый закадровый, профессиональный (Велес)
Субтитры: отсутствуют
Видео: XviD, 720х[email protected], ~1800 Kbps
Аудио: AC3, 2 ch, 192 Kbps (читает: Александр Васильев)

Mediainfo: (тех. данные всех серий идентичны)

Общее
Полное имя : F:\КИНО\Враждебная планета 1400M (2019)\4 Враждебная планета.avi
Формат : AVI
Формат/Информация : Audio Video Interleave
Размер файла : 673 Мбайт
Продолжительность : 46 м. 58 с.
Общий поток : 2003 Кбит/сек
Программа кодирования : Lavf57.71.100
Видео
Идентификатор : 0
Формат : MPEG-4 Visual
Профиль формата : Advanced [email protected]
Настройки формата : BVOP1
Параметр BVOP формата : 1
Параметр QPel формата : Нет
Параметр GMC формата : Без точки перехода
Параметр матрицы формата : Default (H.263)
Идентификатор кодека : XVID
Идентификатор кодека/Подсказка : XviD
Продолжительность : 46 м. 58 с.
Битрейт : 1800 Кбит/сек
Ширина : 720 пикселей
Высота : 400 пикселей
Соотношение сторон : 16:9
Частота кадров : 25,000 кадров/сек
Цветовое пространство : YUV
Субдискретизация насыщенности : 4:2:0
Битовая глубина : 8 бит
Тип развёртки : Прогрессивная
Метод сжатия : С потерями
Бит/(Пиксели*Кадры) : 0.250
Размер потока : 605 Мбайт (90%)
Библиотека кодирования : XviD 67
Аудио
Идентификатор : 1
Формат : AC-3
Формат/Информация : Audio Coding 3
Коммерческое название : Dolby Digital
Идентификатор кодека : 2000
Продолжительность : 46 м. 58 с.
Вид битрейта : Постоянный
Битрейт : 192 Кбит/сек
Каналы : 2 канала
ChannelLayout : L R
Частота : 48,0 КГц
Частота кадров : 31,250 кадров/сек (1536 SPF)
Битовая глубина : 16 бит
Метод сжатия : С потерями
Размер потока : 64,5 Мбайт (10%)
Выравнивание : Соединение по промежуткам
Продолжительность промежутка : 32 мс. (0,80 видеокадр)
ServiceKind/String : Complete Main

Содержание:

1 Горы
Самые высокие горы на земле - это дом для снежных леопардов, золотых орлов, горных козлов, казарок и обезьян-гелад. Но только самые выносливые из них могут выдержать экстремальные перепады температур, скудный рацион и недостаток кислорода на этих высотах. Для показа поведения этих животных, которых никогда раньше не снимали на пленку, использовались новейшие приспособления, позволяющие вести съемку под разными ракурсами. Уникальная возможность познакомиться с жизнью животных в одних из самых экстремальных условий на земле.
2 Океаны
Давайте проникнем под поверхность самой большой на земле естественной среды обитания - наших океанов. Чтобы обнаружить там, в его непостижимых глубинах, на нескончаемых голубых просторах, на кишащих жизнью рифах и побережьях, открытых всем штормам, настоящий экстремальный мир. Вы увидите, как тюлени обороняются от акул, как черепахи, рискуя жизнью, дают жизнь следующему поколению, и как изобретательная косатка бьется за выживание в условиях все возрастающей конкуренции.
3 Степи
Степи - одни из самых изменчивых мест на планете, где животным приходится переносить сезонные климатические изменения, вызывающие наводнения, голод, мороз и жару. Мы откроем для себя необычные вызовы, которые приходится при этом преодолевать животным, узнаем, как изменяющийся мир делает процесс выживания трудным, как никогда ранее.
4 Джунгли
Большое количество воды, тепла и света обеспечивают великолепные условия и делают джунгли самым лучшим местом на земле для существования самых разнообразных форм жизни. Однако это далеко не рай - от ягуаров до гиббонов, орангутангов и колибри, здесь вы встретите самых невероятных животных и увидите, почему бои за выживание в этом столь густо заселенном месте никогда не были столь яростными.
5 Пустыни
Самые жаркие среды обитания Земли - это пустыни, и они становятся все более жаркими, все более засушливыми и занимают все большие площади. И тем не менее, в этих суровых для жизни условиях умудряются выживать несколько популяций интереснейших животных, включая хитрющих гиен, сурикатов размером с пинту и песчаных пауков.
6 Полюсa
Вступите вместе с нами в эту самую холодную на земле среду обитания - полюса. Мы увидим с вами лучших в мире специалистов по выживанию - белых медведей, которые охотятся на китов, морских леопардов и вертких пингвинов, а также арктических волков, которые пытаются загнать пару овцебыков. Полярные животные в процессе своей эволюции приобрели такие тела и выработали такие способы выживания, которые помогают им противостоять враждебной среде обитания.
Скриншоты:
       

RazBoyNik

Post 13-Jul-2019 17:32

[Quote]

Загадки исполинов каменного века / Riddle of the Stone Age Giants (2019) HDTV [H.264/1080i-LQ] - Год выпуска: 2019
Страна: США, National Geographic
Жанр: Документальный, история, исследования
Режиссер: Лаура Андерсон
Описание:
Открытие двадцать лет назад храмового комплекса Гёбекли Тепе полностью изменило наши представления об истории эволюции человечества. Сегодня, новые находки искусно сделанных наскальных рисунков открывают перед нами новые сведения о том, как и почему развивались общественные институты и цивилизации на их основе.
Продолжительность: 00:43:57
Качество видео: HDTV
Перевод: Одноголосый закадровый, профессиональный (Велес)
Субтитры: отсутствуют
Видео: AVC/H.264, 1920x1080, ~7039 Kbps
Аудио#1: MP2, 2 ch, 192 Kbps | Русский (читает: Александр Васильев)
Аудио#2: MP2, 2 ch, 192 Kbps | Английский

Mediainfo:

Общее
Идентификатор : 1 (0x1)
Полное имя : F:\КИНО\Загадки испол. кам. века 1080 (2019).ts
Формат : MPEG-TS
Размер файла : 2,40 Гбайт
Продолжительность : 43 м. 58 с.
Режим общего битрейта : Переменный
Общий поток : 7813 Кбит/сек
Видео
Идентификатор : 1146 (0x47A)
Идентификатор меню : 134 (0x86)
Формат : AVC
Формат/Информация : Advanced Video Codec
Профиль формата : [email protected]
Настройки формата : CABAC / 4 Ref Frames
Параметр CABAC формата : Да
Параметр RefFrames формата : 4 кадра
Идентификатор кодека : 27
Продолжительность : 43 м. 57 с.
Битрейт : 7039 Кбит/сек
Ширина : 1920 пикселей
Высота : 1080 пикселей
Соотношение сторон : 16:9
Частота кадров : 25,000 кадров/сек
Стандарт вещания : Component
Цветовое пространство : YUV
Субдискретизация насыщенности : 4:2:0
Битовая глубина : 8 бит
Тип развёртки : Чересстрочная
Метод сохранения типа развёртки : Раздельные поля
Порядок развёртки : Верхнее поле первое
Бит/(Пиксели*Кадры) : 0.136
Размер потока : 2,16 Гбайт (90%)
Цветовой диапазон : Limited
Основные цвета : BT.709
Характеристики трансфера : BT.709
Коэффициенты матрицы : BT.709
Аудио #1
Идентификатор : 1147 (0x47B)
Идентификатор меню : 134 (0x86)
Формат : MPEG Audio
Версия формата : Version 1
Профиль формата : Layer 2
Идентификатор кодека : 3
Продолжительность : 43 м. 57 с.
Вид битрейта : Постоянный
Битрейт : 192 Кбит/сек
Каналы : 2 канала
Частота : 48,0 КГц
Частота кадров : 41,667 кадра/сек (1152 SPF)
Метод сжатия : С потерями
Размер потока : 60,4 Мбайт (2%)
Язык : Russian
Аудио #2
Идентификатор : 1148 (0x47C)
Идентификатор меню : 134 (0x86)
Формат : MPEG Audio
Версия формата : Version 1
Профиль формата : Layer 2
Идентификатор кодека : 3
Продолжительность : 43 м. 57 с.
Вид битрейта : Постоянный
Битрейт : 192 Кбит/сек
Каналы : 2 канала
Частота : 48,0 КГц
Частота кадров : 41,667 кадра/сек (1152 SPF)
Метод сжатия : С потерями
Размер потока : 60,4 Мбайт (2%)
Язык : English
Скриншоты:
       

RazBoyNik

Post 13-Jul-2019 17:28

[Quote]

Герои Средиземноморья / Heroes of the Mediterranean (2019) HDTV [H.264/1080p-LQ] - Год выпуска: 2019
Страна: Испания, We Change AIE and Suco Films, SL., National Geographic
Жанр: Документальный, природа, флора, фауна
Режиссер: Ману Сан Феликс
Описание:
Морской биолог и исследователь Ману Сан Феликс исследует, каким образом люди причинили так много вреда испанскому средиземноморью. Он путешествует по региону, чтобы встретиться с людьми, активно участвующими в программах по устранению причиненного природе ущерба.
Продолжительность: 00:44:02
Качество видео: HDTV
Перевод: Одноголосый закадровый, профессиональный (Велес)
Субтитры: английские (хардсаб, на испанскую речь)
Видео: AVC/H.264, 1920x1080, ~4259 Kbps
Аудио: AAC, 2 ch, 191 Kbps (читает: Дмитрий Стрелков)

Mediainfo:

Общее
Идентификатор : 1 (0x1)
Полное имя : F:\КИНО\Герои Средиземноморья 1080 (2019).ts
Формат : MPEG-TS
Размер файла : 1,37 Гбайт
Продолжительность : 44 м. 2 с.
Режим общего битрейта : Переменный
Общий поток : 4450 Кбит/сек
Видео
Идентификатор : 67 (0x43)
Идентификатор меню : 1 (0x1)
Формат : AVC
Формат/Информация : Advanced Video Codec
Профиль формата : [email protected]
Настройки формата : CABAC / 4 Ref Frames
Параметр CABAC формата : Да
Параметр RefFrames формата : 4 кадра
Идентификатор кодека : 27
Продолжительность : 44 м. 2 с.
Вид битрейта : Переменный
Максимальный битрейт : 4500 Кбит/сек
Ширина : 1920 пикселей
Высота : 1080 пикселей
Соотношение сторон : 16:9
Частота кадров : 25,000 кадров/сек
Цветовое пространство : YUV
Субдискретизация насыщенности : 4:2:0
Битовая глубина : 8 бит
Тип развёртки : Прогрессивная
Аудио
Идентификатор : 68 (0x44)
Идентификатор меню : 1 (0x1)
Формат : AAC LC
Формат/Информация : Advanced Audio Codec Low Complexity
Версия формата : Version 4
Режим смешивания : ADTS
Идентификатор кодека : 15-2
Продолжительность : 44 м. 2 с.
Вид битрейта : Переменный
Каналы : 2 канала
ChannelLayout : L R
Частота : 48,0 КГц
Частота кадров : 46,875 кадров/сек (1024 SPF)
Метод сжатия : С потерями

Moo0 Video Info 1.10:

Имя файла: Герои Средиземноморья 1080 (2019).ts
File Size: 1.36 GB
[Container]
Format: MPEGTS (MPEG-TS (MPEG-2 Transport Stream))
Duration: 00:44:02.70
Bit Rate: 4,450 kbps
[Video]
Codec: H264 (H.264 / AVC / MPEG-4 AVC / MPEG-4 part 10)
Codec Tag: [27][0][0][0] (0x0000001b)
Picture Size: 1920x1080 (PAR 1:1, DAR 16:9)
Frame Rate: 25.00 fps
Bit Rate: 4,259 kbps
[Audio]
Codec: AAC (AAC (Advanced Audio Coding))
Channels: Stereo
Sample Rate: 48,000 Hz
Sample Data Format: 32 bits (Float)
Bit Rate: 191 kbps
Скриншоты:
       

RazBoyNik

Post 13-Jul-2019 17:25

[Quote]

Глубоко в океане / Hunt for the Giant Squid (2019) HDTV [H.264/1080i-LQ] - Год выпуска: 2019
Страна: Япония, NHK, National Geographic
Жанр: Документальный, глубоководные фауна, флора
Режиссер: Масазуми Комода, Масуми Мизунума
Участники: сэр Дэвид Аттенборо
Описание:
Антарктида - самое холодное место на земле. Здесь слишком суровый климат для выживания большинства живых организмов. Но что касается подводного мира, здесь ситуация совершенно другая. С помощью глубоководных подводных аппаратов, оборудованных самой современной киноаппаратурой, морские биологи изучают эти одни из самых экзотических мест в мире.
Продолжительность: 00:43:59
Качество видео: HDTV
Перевод: Одноголосый закадровый, профессиональный (Велес)
Субтитры: отсутствуют
Видео: AVC/H.264, 1920x1080, ~7036 Kbps
Аудио#1: MP2, 2 ch, 192 Kbps | Русский
Аудио#2: MP2, 2 ch, 192 Kbps | Английский

Mediainfo:

Общее
Идентификатор : 1 (0x1)
Полное имя : F:\КИНО\Глубоко в океане 1080 (2019).ts
Формат : MPEG-TS
Размер файла : 2,40 Гбайт
Продолжительность : 43 м. 59 с.
Режим общего битрейта : Переменный
Общий поток : 7810 Кбит/сек
Видео
Идентификатор : 1154 (0x482)
Идентификатор меню : 135 (0x87)
Формат : AVC
Формат/Информация : Advanced Video Codec
Профиль формата : [email protected]
Настройки формата : CABAC / 4 Ref Frames
Параметр CABAC формата : Да
Параметр RefFrames формата : 4 кадра
Идентификатор кодека : 27
Продолжительность : 43 м. 59 с.
Битрейт : 7036 Кбит/сек
Ширина : 1920 пикселей
Высота : 1080 пикселей
Соотношение сторон : 16:9
Частота кадров : 25,000 кадров/сек
Стандарт вещания : Component
Цветовое пространство : YUV
Субдискретизация насыщенности : 4:2:0
Битовая глубина : 8 бит
Тип развёртки : Чересстрочная
Метод сохранения типа развёртки : Раздельные поля
Порядок развёртки : Верхнее поле первое
Бит/(Пиксели*Кадры) : 0.136
Размер потока : 2,16 Гбайт (90%)
Цветовой диапазон : Limited
Основные цвета : BT.709
Характеристики трансфера : BT.709
Коэффициенты матрицы : BT.709
Аудио #1
Идентификатор : 1155 (0x483)
Идентификатор меню : 135 (0x87)
Формат : MPEG Audio
Версия формата : Version 1
Профиль формата : Layer 2
Идентификатор кодека : 3
Продолжительность : 43 м. 58 с.
Вид битрейта : Постоянный
Битрейт : 192 Кбит/сек
Каналы : 2 канала
Частота : 48,0 КГц
Частота кадров : 41,667 кадра/сек (1152 SPF)
Метод сжатия : С потерями
Размер потока : 60,4 Мбайт (2%)
Язык : Russian
Аудио #2
Идентификатор : 1156 (0x484)
Идентификатор меню : 135 (0x87)
Формат : MPEG Audio
Версия формата : Version 1
Профиль формата : Layer 2
Идентификатор кодека : 3
Продолжительность : 43 м. 58 с.
Вид битрейта : Постоянный
Битрейт : 192 Кбит/сек
Каналы : 2 канала
Частота : 48,0 КГц
Частота кадров : 41,667 кадра/сек (1152 SPF)
Метод сжатия : С потерями
Размер потока : 60,4 Мбайт (2%)
Язык : English
Скриншоты:
       

Дополнительные скриншоты:

       

RazBoyNik

Post 13-Jul-2019 17:21

[Quote]

Первая израильская лунная миссия / Rookie Moonshot: Budget Mission to the Moon (2019) HDTV [H.264/1080i-LQ] - Год выпуска: 2019
Страна: Великобритания, Arrow International Medis Limited, National Geographic
Жанр: Документальный, исследования, космос
Режиссер: Грэйс Чепмэн
Описание:
Это фильм о лунном проекте компании SpaceIL, который заключался в запуске построенного на частные средства космического зонда, который должен был приземлиться на Луне. С помощью документальных кадров, интервью и графических материалов зрители получат представление о том, каких усилий стоило претворить в жизнь этот проект его основателям, инженерам и экспертам в области космических исследований. Интервью с ними позволяют передать ту атмосферу сплава науки, страсти и решимости, которые потребовались ученым и конструктурам для посадки зонда на луну.
Продолжительность: 00:43:59
Качество видео: HDTV
Перевод: Одноголосый закадровый, профессиональный
Субтитры: отсутствуют
Видео: AVC/H.264, 1920x1080, ~7040 Kbps
Аудио#1: MP2, 2 ch, 192 Kbps | Русский
Аудио#2: MP2, 2 ch, 192 Kbps | Английский

Mediainfo:

Общее
Идентификатор : 1 (0x1)
Полное имя : F:\КИНО\Первая израил. лун. миссия 1080 (2019).ts
Формат : MPEG-TS
Размер файла : 2,40 Гбайт
Продолжительность : 43 м. 59 с.
Режим общего битрейта : Переменный
Общий поток : 7814 Кбит/сек
Видео
Идентификатор : 1146 (0x47A)
Идентификатор меню : 134 (0x86)
Формат : AVC
Формат/Информация : Advanced Video Codec
Профиль формата : [email protected]
Настройки формата : CABAC / 4 Ref Frames
Параметр CABAC формата : Да
Параметр RefFrames формата : 4 кадра
Идентификатор кодека : 27
Продолжительность : 43 м. 59 с.
Битрейт : 7040 Кбит/сек
Ширина : 1920 пикселей
Высота : 1080 пикселей
Соотношение сторон : 16:9
Частота кадров : 25,000 кадров/сек
Стандарт вещания : Component
Цветовое пространство : YUV
Субдискретизация насыщенности : 4:2:0
Битовая глубина : 8 бит
Тип развёртки : Чересстрочная
Метод сохранения типа развёртки : Раздельные поля
Порядок развёртки : Верхнее поле первое
Бит/(Пиксели*Кадры) : 0.136
Размер потока : 2,16 Гбайт (90%)
Цветовой диапазон : Limited
Основные цвета : BT.709
Характеристики трансфера : BT.709
Коэффициенты матрицы : BT.709
Аудио #1
Идентификатор : 1147 (0x47B)
Идентификатор меню : 134 (0x86)
Формат : MPEG Audio
Версия формата : Version 1
Профиль формата : Layer 2
Идентификатор кодека : 3
Продолжительность : 43 м. 58 с.
Вид битрейта : Постоянный
Битрейт : 192 Кбит/сек
Каналы : 2 канала
Частота : 48,0 КГц
Частота кадров : 41,667 кадра/сек (1152 SPF)
Метод сжатия : С потерями
Размер потока : 60,4 Мбайт (2%)
Язык : Russian
Аудио #2
Идентификатор : 1148 (0x47C)
Идентификатор меню : 134 (0x86)
Формат : MPEG Audio
Версия формата : Version 1
Профиль формата : Layer 2
Идентификатор кодека : 3
Продолжительность : 43 м. 58 с.
Вид битрейта : Постоянный
Битрейт : 192 Кбит/сек
Каналы : 2 канала
Частота : 48,0 КГц
Частота кадров : 41,667 кадра/сек (1152 SPF)
Метод сжатия : С потерями
Размер потока : 60,4 Мбайт (2%)
Язык : English
Скриншоты:
       

RazBoyNik

Post 10-Jul-2019 13:07

[Quote]

Акула против хищников / Shark v. Predator (2017) HDTV [H.264/1080i-LQ] - Год выпуска: 2017
Страна: США, Earth Touch for National Geographic Channel
Жанр: Документальный, природа, фауна
Режиссер: Даниэль Шейр
Участники: Тоби Дейли-Энгель, Майк Хайтхаус, Яннис П. Папастаматиу
Описание:
Редкие и примечательные примеры нападения на акул различных животных, зафиксированные как профессиональными фотографами, так и случайными свидетелями, позволяют осознать, что первенству даже самых грозных хищников вполне может быть брошен вызов.
Продолжительность: 00:43:45
Качество видео: HDTV
Перевод: Одноголосый закадровый, профессиональный
Субтитры: отсутствуют
Видео: AVC/H.264, 1920x1080, ~7118 Kbps
Аудио#1: MP2, 2 ch, 192 Kbps | Русский
Аудио#2: MP2, 2 ch, 192 Kbps | Английский

Mediainfo:

Общее
Идентификатор : 1 (0x1)
Полное имя : F:\КИНО\Акула против хищников_HDTV 1080i_RUS_ENG-dds.ts
Формат : MPEG-TS
Размер файла : 2,41 Гбайт
Продолжительность : 43 м. 45 с.
Режим общего битрейта : Переменный
Общий поток : 7896 Кбит/сек
Видео
Идентификатор : 201 (0xC9)
Идентификатор меню : 20101 (0x4E85)
Формат : AVC
Формат/Информация : Advanced Video Codec
Профиль формата : [email protected]
Настройки формата : CABAC / 4 Ref Frames
Параметр CABAC формата : Да
Параметр RefFrames формата : 4 кадра
Идентификатор кодека : 27
Продолжительность : 43 м. 45 с.
Битрейт : 7118 Кбит/сек
Ширина : 1920 пикселей
Высота : 1080 пикселей
Соотношение сторон : 16:9
Частота кадров : 25,000 кадров/сек
Стандарт вещания : Component
Цветовое пространство : YUV
Субдискретизация насыщенности : 4:2:0
Битовая глубина : 8 бит
Тип развёртки : Чересстрочная
Метод сохранения типа развёртки : Раздельные поля
Порядок развёртки : Верхнее поле первое
Бит/(Пиксели*Кадры) : 0.137
Размер потока : 2,18 Гбайт (90%)
Цветовой диапазон : Limited
Основные цвета : BT.709
Характеристики трансфера : BT.709
Коэффициенты матрицы : BT.709
Аудио #1
Идентификатор : 301 (0x12D)
Идентификатор меню : 20101 (0x4E85)
Формат : MPEG Audio
Версия формата : Version 1
Профиль формата : Layer 2
Идентификатор кодека : 3
Продолжительность : 43 м. 45 с.
Вид битрейта : Постоянный
Битрейт : 192 Кбит/сек
Каналы : 2 канала
Частота : 48,0 КГц
Частота кадров : 41,667 кадра/сек (1152 SPF)
Метод сжатия : С потерями
Размер потока : 60,1 Мбайт (2%)
Язык : Russian
Аудио #2
Идентификатор : 401 (0x191)
Идентификатор меню : 20101 (0x4E85)
Формат : MPEG Audio
Версия формата : Version 1
Профиль формата : Layer 2
Идентификатор кодека : 3
Продолжительность : 43 м. 45 с.
Вид битрейта : Постоянный
Битрейт : 192 Кбит/сек
Каналы : 2 канала
Частота : 48,0 КГц
Частота кадров : 41,667 кадра/сек (1152 SPF)
Метод сжатия : С потерями
Размер потока : 60,1 Мбайт (2%)
Язык : English
Скриншоты:
       

RazBoyNik

Post 10-Jul-2019 13:02

[Quote]

Осушить океан: Тайны начала операции / Drain the Oceans: Secrets of D-Day (2019) HDTV [H.264/1080p-LQ] - Год выпуска: 2019
Страна: Великобритания, Австралия, Mallinson Sadler Productions, Electric Pictures for National Geographic
Жанр: Документальный, история, исследования
Режиссер: Доминик Озанн
Участники: Крейг Сехлер, Джеймс П. Дельгадо, Эрик Гроув
Описание:
Используя новейшие сонарные технологии, уникальная экспедиция, отправившаяся составлять карту кораблей союзников, затонувших во время Второй мировой войны недалеко от Нормандского побережья. В проливе Ла-Манш находится более 100 останков десантных и прочих кораблей, входивших в состав крупнейшего флота, осуществлявшего операцию десантирования. После «осушения» пролива мы откроем для себя необычную тайную технологию, применявшуюся и союзниками и нацистами в боях за Западную Европу.
Продолжительность: 00:46:39
Качество видео: HDTV
Перевод: Одноголосый закадровый, профессиональный (Велес)
Субтитры: отсутствуют
Видео: AVC/H.264, 1920x1080, ~4026 Kbps
Аудио#1: AAC, 2 ch, 192 Kbps | Русский (читал: Олег Федоров)
Аудио#2: AC3, 2 ch, 192 Kbps | Английский

Mediainfo:

Общее
Идентификатор : 1 (0x1)
Полное имя : F:\КИНО\Drain the Oceans.Secrets of D-Day.2019.HDTV.ts
Формат : MPEG-TS
Размер файла : 1,51 Гбайт
Продолжительность : 46 м. 39 с.
Режим общего битрейта : Переменный
Общий поток : 4643 Кбит/сек
Максимальный общий битрейт : 35,5 Мбит/сек
Видео
Идентификатор : 4113 (0x1011)
Идентификатор меню : 1 (0x1)
Формат : AVC
Формат/Информация : Advanced Video Codec
Профиль формата : [email protected]
Настройки формата : CABAC / 4 Ref Frames
Параметр CABAC формата : Да
Параметр RefFrames формата : 4 кадра
Идентификатор кодека : 27
Продолжительность : 46 м. 39 с.
Вид битрейта : Переменный
Максимальный битрейт : 4500 Кбит/сек
Ширина : 1920 пикселей
Высота : 1080 пикселей
Соотношение сторон : 16:9
Частота кадров : 25,000 кадров/сек
Цветовое пространство : YUV
Субдискретизация насыщенности : 4:2:0
Битовая глубина : 8 бит
Тип развёртки : Прогрессивная
Аудио #1
Идентификатор : 4352 (0x1100)
Идентификатор меню : 1 (0x1)
Формат : AAC LC
Формат/Информация : Advanced Audio Codec Low Complexity
Версия формата : Version 4
Режим смешивания : ADTS
Идентификатор кодека : 15-2
Продолжительность : 46 м. 39 с.
Вид битрейта : Переменный
Каналы : 2 канала
ChannelLayout : L R
Частота : 48,0 КГц
Частота кадров : 46,875 кадров/сек (1024 SPF)
Метод сжатия : С потерями
Аудио #2
Идентификатор : 4353 (0x1101)
Идентификатор меню : 1 (0x1)
Формат : AC-3
Формат/Информация : Audio Coding 3
Коммерческое название : Dolby Digital
Идентификатор кодека : 129
Продолжительность : 46 м. 39 с.
Вид битрейта : Постоянный
Битрейт : 192 Кбит/сек
Каналы : 2 канала
ChannelLayout : L R
Частота : 48,0 КГц
Частота кадров : 31,250 кадров/сек (1536 SPF)
Битовая глубина : 16 бит
Метод сжатия : С потерями
Размер потока : 64,1 Мбайт (4%)
ServiceKind/String : Complete Main

TNR FileInfo:

Общие
ID (Идентификатор) 1 (0x1)
Полное имя F:\КИНО\Drain the Oceans.Secrets of D-Day.2019.HDTV.ts
Формат MPEG-TS
Размер файла 1.51 Гб
Длительность 46мин 39сек
Режим общего битрейта Переменный
Общий битрейт 4 643 кбит/сек
Максимальный общий битрейт 35.5 Мбит/сек
Видео
ID (Идентификатор) 4113 (0x1011)
Идентификатор меню 1 (0x1)
Формат AVC
Описание формата Advanced Video Codec
Профиль формата [email protected]
Параметр 'CABAC' Да
Параметр 'ReFrames' 4 frames
Идентификатор кодека 27
Длительность 46мин 39сек
Тип битрейта Переменный
Битрейт 4 026 кбит/сек
Максимальный битрейт 4 500 кбит/сек
Ширина кадра 1 920 пикселей
Высота кадра 1 080 пикселей
Соотношение сторон 16:9
Частота кадров 25.000 кадров/сек
Цветовое пространство YUV
Субдискретизация насыщенности 4:2:0
Глубина (разрядность) 8 bits
Тип развертки Прогрессивная
Бит/(пиксель*кадр) 0.078
Размер потока 1.31 Гб (87%)
Аудио 1
ID (Идентификатор) 4352 (0x1100)
Идентификатор меню 1 (0x1)
Формат AAC
Описание формата Advanced Audio Codec
Версия формата Version 4
Профиль формата LC
Muxing mode ADTS
Идентификатор кодека 15
Длительность 46мин 39сек
Тип битрейта Постоянный
Битрейт 192 кбит/сек
Канал(ы) 2 каналов
Расположение каналов Front: L R
Частота дискретизации 48.0 кГц
Режим сжатия С потерями
Размер потока 64.1 Мб (4%)
Аудио 2
ID (Идентификатор) 4353 (0x1101)
Идентификатор меню 1 (0x1)
Формат AC-3
Описание формата Audio Coding 3
Mode extension CM (complete main)
Идентификатор кодека 129
Длительность 46мин 39сек
Тип битрейта Постоянный
Битрейт 192 кбит/сек
Канал(ы) 2 каналов
Расположение каналов Front: L R
Частота дискретизации 48.0 кГц
Глубина (разрядность) 16 bits
Режим сжатия С потерями
Размер потока 64.1 Мб (4%)
Скриншоты:
       

RazBoyNik

Post 10-Jul-2019 12:58

[Quote]

Осушить океан: глубокое погружение. Катастрофы в глубоких водах / Drain the Oceans: Deep Dive. Deep Water Disasters (2018) HDTVRip [H.264/1080p-LQ] - Год выпуска: 2018
Страна: Великобритания, Австралия, Mallinson Sadler Productions, Electric Pictures, National Geographic
Жанр: Документальный, история, исследования
Режиссер: Софи Элвин Харрис, Майкл Дивайс
Описание:
В глубинах океана живет чудовище, рождающее землетрясения. Крупнейший в мире источник цунами. Его опасность была скрыта от глаз, до сегодняшнего дня. Мы узнаем, как происходят глубоководные катастрофы.
Продолжительность: 00:43:59
Качество видео: HDTV
Перевод: Одноголосый закадровый, профессиональный
Субтитры: отсутствуют
Видео: AVC/H.264, 1920x1080, ~4050 Kbps
Аудио#1: AAC, 2 ch, 192 Kbps | Русский
Аудио#2: AC3, 2 ch, 192 Kbps | Английский

Mediainfo:

Общее
Уникальный идентификатор : 100786034306823279661046427067227814804 (0x4BD2AF241C548ADE88726A7F2EA7BB94)
Полное имя : F:\КИНО\Катастрофы.в.глубоких.водах.2018.HDTVRip.mkv
Формат : Matroska
Версия формата : Version 4
Размер файла : 1,36 Гбайт
Продолжительность : 43 м. 59 с.
Режим общего битрейта : Переменный
Общий поток : 4434 Кбит/сек
Дата кодирования : UTC 2019-07-08 20:08:32
Программа кодирования : mkvmerge v35.0.0 ('All The Love In The World') 64-bit
Библиотека кодирования : libebml v1.3.9 + libmatroska v1.5.2
Видео
Идентификатор : 1
Формат : AVC
Формат/Информация : Advanced Video Codec
Профиль формата : [email protected]
Настройки формата : CABAC / 4 Ref Frames
Параметр CABAC формата : Да
Параметр RefFrames формата : 4 кадра
Идентификатор кодека : V_MPEG4/ISO/AVC
Продолжительность : 43 м. 59 с.
Вид битрейта : Переменный
Битрейт : 4050 Кбит/сек
Максимальный битрейт : 4500 Кбит/сек
Ширина : 1920 пикселей
Высота : 1080 пикселей
Соотношение сторон : 16:9
Режим частоты кадров : Постоянный
Частота кадров : 25,000 кадров/сек
Цветовое пространство : YUV
Субдискретизация насыщенности : 4:2:0
Битовая глубина : 8 бит
Тип развёртки : Прогрессивная
Бит/(Пиксели*Кадры) : 0.078
Размер потока : 1,24 Гбайт (91%)
Default : Да
Forced : Нет
Аудио #1
Идентификатор : 2
Формат : AAC LC
Формат/Информация : Advanced Audio Codec Low Complexity
Идентификатор кодека : A_AAC-2
Продолжительность : 43 м. 59 с.
Битрейт : 192 Кбит/сек
Каналы : 2 канала
ChannelLayout : L R
Частота : 48,0 КГц
Частота кадров : 46,875 кадров/сек (1024 SPF)
Метод сжатия : С потерями
Размер потока : 59,6 Мбайт (4%)
Язык : Russian
Default : Да
Forced : Нет
Аудио #2
Идентификатор : 3
Формат : AC-3
Формат/Информация : Audio Coding 3
Коммерческое название : Dolby Digital
Идентификатор кодека : A_AC3
Продолжительность : 43 м. 59 с.
Вид битрейта : Постоянный
Битрейт : 192 Кбит/сек
Каналы : 2 канала
ChannelLayout : L R
Частота : 48,0 КГц
Частота кадров : 31,250 кадров/сек (1536 SPF)
Битовая глубина : 16 бит
Метод сжатия : С потерями
Размер потока : 60,4 Мбайт (4%)
Язык : English
ServiceKind/String : Complete Main
Default : Нет
Forced : Нет
Скриншоты:
       

}{@R0N

Post 24-Feb-2017 16:49

[Quote]

Суперспособности животных / Animal Superpowers - Телекомпания: США, National Geographic Cannel
Жанр: Документальный, научно-популярный, фауна, флора
Режиссёры: Том Кук(2 эпизода), Роланд Даст (1 эпизод)
Участники: Патрик Стюарт
Описание:
Патрик Стюарт исследует невероятные способности некоторых из самых смертельно опасных животных. Так, мы видим, как группа ученых выслеживает осьминогов, которые меняют форму и цвет кожи, и саламандр, наделенных умением, подобно пришельцам, вновь выращивать свои потерянные конечности. Использование сочетания футуристических съемок и захватывающей CGI анимации помогает зрителям фильма лучше познать секреты суперспособностей этих представителей животного мира.

Продолжительность: 3 x ~00:45:00
Качество видео: HDTVRip
Перевод: Одноголосый закадровый, профессиональный, студия "АРК ТВ"
Видео: AVC/H.264, 1280x720, ~3 407 Kbps
Аудио #1: Русский, AC3, 2 ch, 192 Kbps
Аудио #2: Английский, AC3, 2 ch, 192 Kbps

Mediainfo: (тех. данные всех серий идентичны)

Общее
Уникальный идентификатор : 214904771195366706576061969142696451709 (0xA1AD274576BFB0998C4C1DD39DB51E7D)
Полное имя : F:\КИНО\Суперспособности животных\1. Extreme hunters - Экстремальные охотники.mkv
Формат : Matroska
Версия формата : Version 4 / Version 2
Размер файла : 1,22 Гбайт
Продолжительность : 44 м. 59 с.
Общий поток : 3868 Кбит/сек
Название фильма : Animal Superpowers / Суперспособности животных
Дата кодирования : UTC 2013-10-22 16:32:13
Программа кодирования : mkvmerge v6.5.0 ('Isn't she lovely') built on Oct 20 2013 12:50:05
Библиотека кодирования : libebml v1.3.0 + libmatroska v1.4.1
Видео
Идентификатор : 1
Формат : AVC
Формат/Информация : Advanced Video Codec
Профиль формата : [url=mailto:[email protected]][email protected][/url]
Параметр CABAC формата : Да
Параметр ReFrames формата : 5 кадров
Идентификатор кодека : V_MPEG4/ISO/AVC
Продолжительность : 44 м. 59 с.
Битрейт : 3407 Кбит/сек
Ширина : 1280 пикселей
Высота : 720 пикселей
Соотношение сторон : 16:9
Режим частоты кадров : Постоянный
Частота кадров : 25,000 кадров/сек
Цветовое пространство : YUV
Субдискретизация насыщенности : 4:2:0
Битовая глубина : 8 бит
Тип развёртки : Прогрессивная
Бит/(Пиксели*Кадры) : 0.148
Размер потока : 1,07 Гбайт (88%)
Библиотека кодирования : x264 core 124 r2197 69a0443
Настройки программы : cabac=1 / ref=5 / deblock=1:0:0 / analyse=0x3:0x113 / me=umh / subme=8 / psy=1 / psy_rd=1.00:0.00 / mixed_ref=1 / me_range=16 / chroma_me=1 / trellis=1 / 8x8dct=1 / cqm=0 / deadzone=21,11 / fast_pskip=1 / chroma_qp_offset=-2 / threads=12 / sliced_threads=0 / nr=0 / decimate=1 / interlaced=0 / bluray_compat=0 / constrained_intra=0 / bframes=3 / b_pyramid=2 / b_adapt=2 / b_bias=0 / direct=3 / weightb=1 / open_gop=0 / weightp=2 / keyint=250 / keyint_min=25 / scenecut=40 / intra_refresh=0 / rc_lookahead=50 / rc=crf / mbtree=1 / crf=20.0 / qcomp=0.60 / qpmin=0 / qpmax=69 / qpstep=4 / ip_ratio=1.40 / aq=1:1.00
Язык : English
Default : Да
Forced : Нет
Цветовой диапазон : Limited
Коэффициенты матрицы : BT.709
Аудио #1
Идентификатор : 2
Формат : AC-3
Формат/Информация : Audio Coding 3
Расширение режима : CM (complete main)
Параметр Endianness формата : Big
Идентификатор кодека : A_AC3
Продолжительность : 44 м. 59 с.
Вид битрейта : Постоянный
Битрейт : 192 Кбит/сек
Каналы : 2 канала
Расположение каналов : Front: L R
Частота : 48,0 КГц
Частота кадров : 31,250 кадров/сек (1536 spf)
Битовая глубина : 16 бит
Метод сжатия : С потерями
Размер потока : 61,8 Мбайт (5%)
Заголовок : АРК ТВ
Язык : Russian
Default : Да
Forced : Нет
Аудио #2
Идентификатор : 3
Формат : AC-3
Формат/Информация : Audio Coding 3
Расширение режима : CM (complete main)
Параметр Endianness формата : Big
Идентификатор кодека : A_AC3
Продолжительность : 44 м. 59 с.
Вид битрейта : Постоянный
Битрейт : 192 Кбит/сек
Каналы : 6 каналов
Channel(s)_Original : 2 канала
Расположение каналов : Front: L R
Частота : 48,0 КГц
Частота кадров : 31,250 кадров/сек (1536 spf)
Битовая глубина : 16 бит
Метод сжатия : С потерями
Размер потока : 61,8 Мбайт (5%)
Язык : English
Default : Нет
Forced : Нет

Список серий:

1. Экстремальные охотники / Extreme Hunters
Патрик Стюарт изучает невероятные способности восприятия у акулы-молота, питона, гремучей змеи и кашалота. Для более детального исследования сценаристы, с помощью компьютерной графики, создают виртуальные модели этих животных.
2. Экстремальные убийцы / Extreme Killers
Патрик Стюарт приглашает нас в Англию, чтобы изучить сапсана, самое быстрое существо на планете. Устройство слежения и высокоскоростные камеры показывают, как сокол ныряет вниз со скоростью 200 миль в час! В Алабаме мы раскроем тайны суперчелюстей аллигатора, который производит один из самых сильных укусов в мире. В Амазонке, слепая армия муравьёв использует свои сверхспособности, чтобы общаться между собой и стать суперорганизмом способным убить добычу в 100 раз больше собственного размера.
3. Экстремальная самозащита / Extreme Survivors
Патрик Стюарт исследует разные способы защиты и выживания животных: маскировку у осьминогов, электроразряд у угрей и регенерацию у саламандр.
Скриншоты:
       

Дополнительные скриншоты:

       

}{@R0N

Post 16-Feb-2017 19:38

[Quote]

Маленькие убийцы / Little Killers - Телекомпания: Германия, Doclights / NDR Naturfilm
Жанр: Документальный, познавательный, флора, фауна
Режиссер: Фил Коулз
Описание:
Мир полон хищников. Но не все они огромные и зубастые. Маленькие убийцы, которых часто даже не замечают, тоже способны нанести смертельный удар.

Продолжительность: 00:44:02
Качество видео: HDTVRip
Перевод: Одноголосый закадровый, профессиональный, переведено
и озвучено на студии "Велес", текст читает Станислав Войнич
Видео: AVC/H.264, 1280x720, ~5000 kbps
Аудио: AC3, 2 ch, 192 kbps

Mediainfo:

Общее
Уникальный идентификатор : 243204197201731044052846587845832819572 (0xB6F76CB2879B3963A11E217174D74374)
Полное имя : F:\КИНО\NGW_Little Killers_720p.mkv
Формат : Matroska
Версия формата : Version 4 / Version 2
Размер файла : 1,60 Гбайт
Продолжительность : 44 м. 1 с.
Режим общего битрейта : Переменный
Общий поток : 5187 Кбит/сек
Дата кодирования : UTC 2017-02-13 18:54:32
Программа кодирования : mkvmerge v7.3.0 ('Nouages') 64bit built on Oct 22 2014 18:53:34
Библиотека кодирования : libebml v1.3.0 + libmatroska v1.4.1
Видео
Идентификатор : 1
Формат : AVC
Формат/Информация : Advanced Video Codec
Профиль формата : [email protected]
Параметр CABAC формата : Да
Параметр ReFrames формата : 3 кадра
Идентификатор кодека : V_MPEG4/ISO/AVC
Продолжительность : 44 м. 1 с.
Вид битрейта : Переменный
Битрейт : 5000 Кбит/сек
Максимальный битрейт : 8000 Кбит/сек
Ширина : 1280 пикселей
Высота : 720 пикселей
Соотношение сторон : 16:9
Режим частоты кадров : Постоянный
Частота кадров : 25,000 кадров/сек
Стандарт вещания : NTSC
Цветовое пространство : YUV
Субдискретизация насыщенности : 4:2:0
Битовая глубина : 8 бит
Тип развёртки : Прогрессивная
Бит/(Пиксели*Кадры) : 0.217
Размер потока : 1,54 Гбайт (96%)
Библиотека кодирования : x264 core 114
Настройки программы : cabac=1 / ref=3 / deblock=1:0:0 / analyse=0x3:0x113 / me=hex / subme=7 / psy=1 / psy_rd=1.00:0.00 / mixed_ref=1 / me_range=16 / chroma_me=1 / trellis=1 / 8x8dct=1 / cqm=2 / deadzone=21,11 / fast_pskip=1 / chroma_qp_offset=-4 / threads=6 / sliced_threads=0 / slices=1 / nr=0 / decimate=1 / interlaced=0 / constrained_intra=0 / bframes=3 / b_pyramid=0 / b_adapt=1 / b_bias=0 / direct=1 / weightb=1 / open_gop=0 / weightp=2 / keyint=250 / keyint_min=25 / scenecut=40 / intra_refresh=0 / rc_lookahead=40 / rc=2pass / mbtree=1 / bitrate=5000 / ratetol=1.0 / qcomp=0.60 / qpmin=5 / qpmax=69 / qpstep=4 / cplxblur=20.0 / qblur=0.5 / vbv_maxrate=8000 / vbv_bufsize=7995 / nal_hrd=vbr / ip_ratio=1.40 / aq=1:1.00
Default : Да
Forced : Нет
Цветовой диапазон : Limited
Основные цвета : BT.709
Характеристики трансфера : BT.709
Коэффициенты матрицы : BT.709
Аудио
Идентификатор : 2
Формат : AC-3
Формат/Информация : Audio Coding 3
Расширение режима : CM (complete main)
Параметр Endianness формата : Big
Идентификатор кодека : A_AC3
Продолжительность : 44 м. 1 с.
Вид битрейта : Постоянный
Битрейт : 192 Кбит/сек
Каналы : 2 канала
Расположение каналов : Front: L R
Частота : 48,0 КГц
Частота кадров : 31,250 кадров/сек (1536 spf)
Битовая глубина : 16 бит
Метод сжатия : С потерями
Размер потока : 60,5 Мбайт (4%)
Default : Да
Forced : Нет
Скриншоты:
       

Дополнительные скриншоты:

       

}{@R0N

Post 06-Feb-2017 12:49

[Quote]

Суперсооружения: МегаЗаводы
MegaStructures: Megafactories
- Страна: США
Студия: «National Geographic»
Режиссер / Телекомпания: Steel Spyda USA LLC
Год выпуска: 2006-2011
Жанр: Документальный, Телепередача
Продолжительность: 22 серии ~ 00:50:00
Перевод: Одноголосый закадровый, профессиональный
Описание:
Они занимают огромную площадь и потребляют электричества на уровне небольшого города. Эти заводы — одни из самых уникальных производственных сооружений на Земле.

Кодек: MPEG-4 AVC/H.264
Формат: TS
Качество: HDTV 1080i
Размер кадра: 1920 x 1080, 25.000 fps
Средний битрейт видео: ~6539 Кбит/сек
Audio #1: MPEG Audio, 192 Кбит/сек, 2 ch, 48.0 КГц
Audio #2: AC-3, 448 Кбит/сек, 6ch (Front: L C R, Side: L R, LFE), 48.0 КГц

Список серий и описание

1 Суперсооружения; Мегазаводы. Джон Дир /MegaStructures. John Deereы
На заводе компании "Джон Дир" работает 2000 человек, 49 сварочных роботов и 8 лазерных режущих аппаратов. Все они участвуют в создании комбайна "STS" - супермашины для сбора урожая.
2 Суперсооружения; Мегазаводы. Танки Abrams M1 /MegaStructures. Tanks Abrams M1
Защищенный непробиваемой бронёй боевой танк Abrams M1 — грозное оружие в любом сражении. Но со временем, несмотря на свою мощь и надежность, после нескольких месяцев участия в боевых операциях в тяжелейших климатических условиях раскаленной пустыни, танки М1 должны проходить ремонт. Избрав путь восстановления и глубокой модернизации старых моделей танков М1, военная промышленность США с 1993 года не построила ни одного нового танка этой модели.
Но как на практике можно осуществить ремонт этого монстра, напичканного сложнейшими системами, весом в семьдесят тонн, у которого одни только гусеницы весят в четыре раза больше, чем обычный минивэн? Весь процесс, который длится не менее 10 месяцев, начинается с тщательной переборки двигателя весом в полторы тонны, за которой следует снятие, ремонт и обратная сборка 12000 деталей танка .
Эпизод сериала « Мегазаводы : Танки » приглашает зрителей побывать на двух предприятиях, где танки М1 приводятся в боевую готовность. Одно из них занимает площадь 40 квадратных километров, на которой расположено 2000 цехов и промышленных зданий и хранится четыре миллиона деталей для танков М1. На этих заводах танки М1 делают практически непобедимыми. Еще ни один из них не был уничтожен в бою огнем танков противника.
3 Суперсооружения; Мегазаводы. Харлей Дэвидсон /MegaStructures. Harley-Davidson
Мотоцикл марки Harley-Davidson V-Rod может развить скорость от 0 до 96 км/ч за 3,52 сек. Побывайте на заводе фирмы "Харлей-Дэвидсон", чтобы увидеть, как делают самый новаторский мотоцикл всех времен...
4 Суперсооружения; Мегазаводы. Джек Дэниэлс /MegaStructures. Jack Daniel's
Следите за полным циклом изготовления этого знаменитого виски, от кукурузного поля до разливочного цеха в городке Линчбург в штате Теннесси.
5 Суперсооружения; Мегазаводы. Тягачи /MegaStructures. Peterbilt
Посмотрите, как создаются титаны дорог - тягачи "Петербилт-387", способные тянуть машины весом до 36 тонн. Каждый из них имеет более 20 тысяч деталей, и поэтому их сборка - очень сложная задача.
6 Суперсооружения; Мегазаводы. Мерседес SLS AMG /MegaStructures. Mercedes SLS AMG
Мерседес признан классикой с момента его создания более 50 лет назад. Познакомьтесь с новым автомобилем Мерседес-Бенц -1954 300SL Gullwing.
7 Суперсооружения; Мегазаводы. Додж-Вайпер /MegaStructures. Dodge Viper
Автомобиль Додж-Вайпер, имеющий двигатель в 600 л.с. и астрономическую цену, собирается полностью вручную. Познакомьтесь с его создателями.
8 Суперсооружения; Мегазаводы. Вертолеты Апачи /MegaStructures. Apache Helicopter
Посетите завод "Боинг" в Аризоне, чтобы увидеть процесс создания вертолетов "Апач". Узнайте о совершенствовании этого вертолета от модели времен холодной войны до компьютеризированной машины 21 века.
9 Суперсооружения; Мегазаводы. Додж-Челленджер /MegaStructures. Dodge Challenger
Эта современная версия классического американского автомобиля, созданная по последнему слову техники, сочетает ретро-силуэт с настоящей мощью.
10 Суперсооружения; Мегазаводы. Лего /MegaStructures. Lego
Это самый популярный игровой конструктор в мире. Дети по всему миру проводят более 5 миллиардов часов в год, играя в Лего.
11 Суперсооружения; Мегазаводы. Хайнекен /MegaStructures. Heineken
Побывайте на крупнейшем пивоваренном заводе в Европе, принадлежащем компании Хейнекен, который находится в Зутервауде в Голландии.
12 Суперсооружения; Мегазаводы. Мотоцикл Ducati /MegaStructures. Ducati
Побывайте на заводе по производству мотоциклов знаменитой итальянской марки Ducati и узнайте, как создается новая модель Multistrada 1200.
13 Суперсооружения; Мегазаводы. Ягуар-XJ /MegaStructures. Jaguar XJ
Побывайте на заводе компании Ягуар в английском городе Касл-Бромвич и узнайте секреты создания нового автомобиля XJ.
14 Суперсооружения; Мегазаводы. Истребитель Еврофайтер /MegaStructures. Eurofighter
Целая армия инженеров в трех разных странах участвует в производстве уникального истребителя Тайфун, скорость которого более 2000 км/ч.
15 Суперсооружения; Мегазаводы. Шведский суперавтомобиль /MegaStructures. Swedish supercar
Она способна обогнать Боинг 747! ее скорость приближается к 400 км/ч! и она разгоняется от 0 до 100 за 3 секунды! Если Вы никогда не ездили на действительно быстрой машине, Вы не сможете вообразить эту мощь. И все говорили что создать ее будет невозможно... Побывайте на заводе компании "Кёнингсегг", чтобы узнать, как создается один из самых мощных автомобилей в мире.
16 Суперсооружения; Мегазаводы. Бентли /MegaStructures. Bentley
Новый автомобиль Mulsanne, возвращающий Бентли к его истокам, воплощает главную идею этой компании - мощь и скорость.
17 Суперсооружения; Мегазаводы. Кока-Кола /MegaStructures. Coca Cola
Узнайте о том, как же в действительности делается этот супер популярный американский напиток с засекреченным рецептом приготовления.
18 Суперсооружения; Мегазаводы. Мазерати/MegaStructures. Maserati
Автомобили Мазерати сочетают шикарный дизайн с доступной ценой. Как инженерам удается поддерживать высокое качество при низких затратах?
19 Суперсооружения; Мегазаводы. Ламборгини /MegaStructures. Lamborghini
Побывайте на заводе Ламборгини в Италии, где практически полностью вручную собирают самый скоростной автомобиль этой фирмы - Murcielago SV.
20 Суперсооружения; Мегазаводы. Роллс-Ройс /MegaStructures. Rolls-Royce
Узнайте о том, как создается Роллс-Ройс Фантом, на производство которого в среднем уходит 450 часов работы механиков, инженеров и красильщиков.
21 Суперсооружения; Мегазаводы. Суперавтомобиль марки "Бугатти" /MegaStructures. Bugatti Super Car
Полюбуйтесь на чудо-автомобиль "Bugatti Veyron", созданный на основе космических технологий и способный развивать скорость до 400 км/ч.
22 Суперсооружения; Мегазаводы. ИКЕА /MegaStructures. IKEA
Ежегодно около 600 млн. человек посещают магазины ИКЕА. Узнайте о поставках сырья и материалов из 54 стран, нужных для производства её продукции.

Медиаинфо (кратко обо всех)

General : E:\входящие\ФИЛЬМЫ\Megafactories\IKEA.ts
Format : MPEG-TS at 7207 Кбит/сек
Length : 2,38 Гбайт for 47 м. 13 с. 384 мс.
Video #0 : AVC at 6205 Кбит/сек
Aspect : 1920 x 1080 (1.778) at 25.000 fps
Audio #0 : MPEG Audio at 192 Кбит/сек
Infos : 2 канала, 48,0 КГц
Language : ru
Audio #1 : AC-3 at 448 Кбит/сек
Infos : 6 каналов, 48,0 КГц
Language : ru
General : E:\входящие\ФИЛЬМЫ\Megafactories\Jack Daniel's.ts
Format : MPEG-TS at 8355 Кбит/сек
Length : 2,64 Гбайт for 45 м. 13 с. 198 мс.
Video #0 : AVC at 7295 Кбит/сек
Aspect : 1920 x 1080 (1.778) at 25.000 fps
Audio #0 : MPEG Audio at 192 Кбит/сек
Infos : 2 канала, 48,0 КГц
Language : ru
Audio #1 : AC-3 at 448 Кбит/сек
Infos : 6 каналов, 48,0 КГц
Language : ru
General : E:\входящие\ФИЛЬМЫ\Megafactories\Jaguar XJ.ts
Format : MPEG-TS at 5750 Кбит/сек
Length : 1,91 Гбайт for 47 м. 33 с. 590 мс.
Video #0 : AVC at 4819 Кбит/сек
Aspect : 1920 x 1080 (1.778) at 25.000 fps
Audio #0 : MPEG Audio at 192 Кбит/сек
Infos : 2 канала, 48,0 КГц
Language : ru
Audio #1 : AC-3 at 448 Кбит/сек
Infos : 6 каналов, 48,0 КГц
Language : ru
General : E:\входящие\ФИЛЬМЫ\Megafactories\John Deere.ts
Format : MPEG-TS at 7654 Кбит/сек
Length : 2,52 Гбайт for 47 м. 8 с. 178 мс.
Video #0 : AVC at 6629 Кбит/сек
Aspect : 1920 x 1080 (1.778) at 25.000 fps
Audio #0 : MPEG Audio at 192 Кбит/сек
Infos : 2 канала, 48,0 КГц
Language : ru
Audio #1 : AC-3 at 448 Кбит/сек
Infos : 6 каналов, 48,0 КГц
Language : ru
General : E:\входящие\ФИЛЬМЫ\Megafactories\Lamborghini.ts
Format : MPEG-TS at 6920 Кбит/сек
Length : 2,28 Гбайт for 47 м. 13 с. 194 мс.
Video #0 : AVC at 5932 Кбит/сек
Aspect : 1920 x 1080 (1.778) at 25.000 fps
Audio #0 : MPEG Audio at 192 Кбит/сек
Infos : 2 канала, 48,0 КГц
Language : ru
Audio #1 : AC-3 at 448 Кбит/сек
Infos : 6 каналов, 48,0 КГц
Language : ru
General : E:\входящие\ФИЛЬМЫ\Megafactories\Lego.ts
Format : MPEG-TS at 8844 Кбит/сек
Length : 2,80 Гбайт for 45 м. 16 с. 823 мс.
Video #0 : AVC at 7761 Кбит/сек
Aspect : 1920 x 1080 (1.778) at 25.000 fps
Audio #0 : MPEG Audio at 192 Кбит/сек
Infos : 2 канала, 48,0 КГц
Language : ru
Audio #1 : AC-3 at 448 Кбит/сек
Infos : 6 каналов, 48,0 КГц
Language : ru
General : E:\входящие\ФИЛЬМЫ\Megafactories\Maserati.ts
Format : MPEG-TS at 5770 Кбит/сек
Length : 1,83 Гбайт for 45 м. 17 с. 495 мс.
Video #0 : AVC at 4839 Кбит/сек
Aspect : 1920 x 1080 (1.778) at 25.000 fps
Audio #0 : MPEG Audio at 192 Кбит/сек
Infos : 2 канала, 48,0 КГц
Language : ru
Audio #1 : AC-3 at 448 Кбит/сек
Infos : 6 каналов, 48,0 КГц
Language : ru
General : E:\входящие\ФИЛЬМЫ\Megafactories\Mercedes SLS AMG.ts
Format : MPEG-TS at 6196 Кбит/сек
Length : 1,96 Гбайт for 45 м. 11 с. 104 мс.
Video #0 : AVC at 5243 Кбит/сек
Aspect : 1920 x 1080 (1.778) at 25.000 fps
Audio #0 : MPEG Audio at 192 Кбит/сек
Infos : 2 канала, 48,0 КГц
Language : ru
Audio #1 : AC-3 at 448 Кбит/сек
Infos : 6 каналов, 48,0 КГц
Language : ru
General : E:\входящие\ФИЛЬМЫ\Megafactories\Peterbilt 387.ts
Format : MPEG-TS at 7298 Кбит/сек
Length : 2,43 Гбайт for 47 м. 39 с. 29 мс.
Video #0 : AVC at 6291 Кбит/сек
Aspect : 1920 x 1080 (1.778) at 25.000 fps
Audio #0 : MPEG Audio at 192 Кбит/сек
Infos : 2 канала, 48,0 КГц
Language : ru
Audio #1 : AC-3 at 448 Кбит/сек
Infos : 6 каналов, 48,0 КГц
Language : ru
General : E:\входящие\ФИЛЬМЫ\Megafactories\Rolls-Royce.ts
Format : MPEG-TS at 7242 Кбит/сек
Length : 2,38 Гбайт for 47 м. 6 с. 785 мс.
Video #0 : AVC at 6237 Кбит/сек
Aspect : 1920 x 1080 (1.778) at 25.000 fps
Audio #0 : MPEG Audio at 192 Кбит/сек
Infos : 2 канала, 48,0 КГц
Language : ru
Audio #1 : AC-3 at 448 Кбит/сек
Infos : 6 каналов, 48,0 КГц
Language : ru
General : E:\входящие\ФИЛЬМЫ\Megafactories\Swedish supercar.ts
Format : MPEG-TS at 4717 Кбит/сек
Length : 1,49 Гбайт for 45 м. 14 с. 864 мс.
Video #0 : AVC at 3838 Кбит/сек
Aspect : 1920 x 1080 (1.778) at 25.000 fps
Audio #0 : MPEG Audio at 192 Кбит/сек
Infos : 2 канала, 48,0 КГц
Language : ru
Audio #1 : AC-3 at 448 Кбит/сек
Infos : 6 каналов, 48,0 КГц
Language : ru
General : E:\входящие\ФИЛЬМЫ\Megafactories\Tanks Abrams M1.ts
Format : MPEG-TS at 8670 Кбит/сек
Length : 2,85 Гбайт for 47 м. 6 с. 747 мс.
Video #0 : AVC at 7595 Кбит/сек
Aspect : 1920 x 1080 (1.778) at 25.000 fps
Audio #0 : MPEG Audio at 192 Кбит/сек
Infos : 2 канала, 48,0 КГц
Language : ru
Audio #1 : AC-3 at 448 Кбит/сек
Infos : 6 каналов, 48,0 КГц
Language : ru
General : E:\входящие\ФИЛЬМЫ\Megafactories\Apache Helicopter.ts
Format : MPEG-TS at 9279 Кбит/сек
Length : 3,09 Гбайт for 47 м. 38 с. 238 мс.
Video #0 : AVC at 8174 Кбит/сек
Aspect : 1920 x 1080 (1.778) at 25.000 fps
Audio #0 : MPEG Audio at 192 Кбит/сек
Infos : 2 канала, 48,0 КГц
Language : ru
Audio #1 : AC-3 at 448 Кбит/сек
Infos : 6 каналов, 48,0 КГц
Language : ru
General : E:\входящие\ФИЛЬМЫ\Megafactories\Bentley.ts
Format : MPEG-TS at 5463 Кбит/сек
Length : 1,72 Гбайт for 45 м. 11 с. 857 мс.
Video #0 : AVC at 4547 Кбит/сек
Aspect : 1920 x 1080 (1.778) at 25.000 fps
Audio #0 : MPEG Audio at 192 Кбит/сек
Infos : 2 канала, 48,0 КГц
Language : ru
Audio #1 : AC-3 at 448 Кбит/сек
Infos : 6 каналов, 48,0 КГц
Language : ru
General : E:\входящие\ФИЛЬМЫ\Megafactories\Bugatti Super Car.ts
Format : MPEG-TS at 0 бит/сек
Length : 1,79 Гбайт for 160 мс.
Video #0 : AVC
Aspect : 1920 x 1080 (1.778) at 25.000 fps
Audio #0 : MPEG Audio at 192 Кбит/сек
Infos : 2 канала, 48,0 КГц
Language : ru
Audio #1 : AC-3 at 448 Кбит/сек
Infos : 6 каналов, 48,0 КГц
Language : ru
General : E:\входящие\ФИЛЬМЫ\Megafactories\Coca Cola.ts
Format : MPEG-TS at 0 бит/сек
Length : 2,29 Гбайт for 160 мс.
Video #0 : AVC
Aspect : 1920 x 1080 (1.778) at 25.000 fps
Audio #0 : MPEG Audio at 192 Кбит/сек
Infos : 2 канала, 48,0 КГц
Language : ru
Audio #1 : AC-3 at 448 Кбит/сек
Infos : 6 каналов, 48,0 КГц
Language : ru
General : E:\входящие\ФИЛЬМЫ\Megafactories\Dodge Challenger.ts
Format : MPEG-TS at 9519 Кбит/сек
Length : 3,01 Гбайт for 45 м. 11 с. 888 мс.
Video #0 : AVC at 8402 Кбит/сек
Aspect : 1920 x 1080 (1.778) at 25.000 fps
Audio #0 : MPEG Audio at 192 Кбит/сек
Infos : 2 канала, 48,0 КГц
Language : ru
Audio #1 : AC-3 at 448 Кбит/сек
Infos : 6 каналов, 48,0 КГц
Language : ru
General : E:\входящие\ФИЛЬМЫ\Megafactories\Dodge Viper.ts
Format : MPEG-TS at 9003 Кбит/сек
Length : 2,85 Гбайт for 45 м. 16 с. 784 мс.
Video #0 : AVC at 7912 Кбит/сек
Aspect : 1920 x 1080 (1.778) at 25.000 fps
Audio #0 : MPEG Audio at 192 Кбит/сек
Infos : 2 канала, 48,0 КГц
Language : ru
Audio #1 : AC-3 at 448 Кбит/сек
Infos : 6 каналов, 48,0 КГц
Language : ru
General : E:\входящие\ФИЛЬМЫ\Megafactories\Ducati.ts
Format : MPEG-TS at 9248 Кбит/сек
Length : 3,07 Гбайт for 47 м. 28 с. 117 мс.
Video #0 : AVC at 8144 Кбит/сек
Aspect : 1920 x 1080 (1.778) at 25.000 fps
Audio #0 : MPEG Audio at 192 Кбит/сек
Infos : 2 канала, 48,0 КГц
Language : ru
Audio #1 : AC-3 at 448 Кбит/сек
Infos : 6 каналов, 48,0 КГц
Language : ru
General : E:\входящие\ФИЛЬМЫ\Megafactories\Eurofighter.ts
Format : MPEG-TS at 0 бит/сек
Length : 2,13 Гбайт for 160 мс.
Video #0 : AVC
Aspect : 1920 x 1080 (1.778) at 25.000 fps
Audio #0 : MPEG Audio at 192 Кбит/сек
Infos : 2 канала, 48,0 КГц
Language : ru
Audio #1 : AC-3 at 448 Кбит/сек
Infos : 6 каналов, 48,0 КГц
Language : ru
General : E:\входящие\ФИЛЬМЫ\Megafactories\Harley-Davidson.ts
Format : MPEG-TS at 8602 Кбит/сек
Length : 2,86 Гбайт for 47 м. 38 с. 507 мс.
Video #0 : AVC at 7530 Кбит/сек
Aspect : 1920 x 1080 (1.778) at 25.000 fps
Audio #0 : MPEG Audio at 192 Кбит/сек
Infos : 2 канала, 48,0 КГц
Language : ru
Audio #1 : AC-3 at 448 Кбит/сек
Infos : 6 каналов, 48,0 КГц
Language : ru
General : E:\входящие\ФИЛЬМЫ\Megafactories\Heineken.ts
Format : MPEG-TS at 7889 Кбит/сек
Length : 2,49 Гбайт for 45 м. 12 с. 921 мс.
Video #0 : AVC at 6852 Кбит/сек
Aspect : 1920 x 1080 (1.778) at 25.000 fps
Audio #0 : MPEG Audio at 192 Кбит/сек
Infos : 2 канала, 48,0 КГц
Language : ru
Audio #1 : AC-3 at 448 Кбит/сек
Infos : 6 каналов, 48,0 КГц
Language : ru
Скриншоты:
       

}{@R0N

Post 30-Jan-2017 20:55

[Quote]

NG: Осушить океан. Бермудский треугольник / Drain the Bermuda Triangle - Телекомпания: Канада, The Canadian Film or Video Production Tax Credit
Жанр: Документальный, реконструкция
Режиссер: Жобим Сэмпсон
Описание:
Бермудский треугольник - это место уже давно привлекает к себе исследователей и искателей приключений. Существует множество разных версий о том, что там происходит, но никто еще не заглядывал так глубоко в его тайны. Пользуясь новейшими технологиями, исследователи "осушат" океан на экране компьютера, чтобы посмотреть поближе на загадки, которые лежат на дне.
Продолжительность: 00:44:11
Качество видео: HDTV
Перевод: Одноголосый закадровый, профессиональный
Видео: AVC/H.264, 1920x1080, ~7 843 Kbps
Аудио: MP2, 2 ch, 128 Kbps

Mediainfo:

General
Format : Matroska
Format version : Version 4 / Version 2
File size : 2.51 GiB
Duration : 44mn 11s
Overall bit rate : 8 132 Kbps
Encoded date : UTC 2016-05-16 21:28:03
Writing application : mkvmerge v9.1.0 ('Little Earthquakes') 64bit
Writing library : libebml v1.3.3 + libmatroska v1.4.4
DURATION : 00:44:11.330000000
NUMBER_OF_FRAMES : 110467
NUMBER_OF_BYTES : 42419328
_STATISTICS_WRITING_APP : mkvmerge v9.1.0 ('Little Earthquakes') 64bit
_STATISTICS_WRITING_DATE_UT : 2016-05-16 21:28:03
_STATISTICS_TAGS : BPS DURATION NUMBER_OF_FRAMES NUMBER_OF_BYTES
Video
ID : 1
Format : AVC
Format/Info : Advanced Video Codec
Format profile : [url=mailto:[email protected]][email protected][/url]
Format settings, CABAC : Yes
Format settings, ReFrames : 4 frames
Codec ID : V_MPEG4/ISO/AVC
Duration : 44mn 11s
Bit rate : 7 843 Kbps
Width : 1 920 pixels
Height : 1 080 pixels
Display aspect ratio : 16:9
Frame rate mode : Constant
Frame rate : 25.000 fps
Standard : Component
Color space : YUV
Chroma subsampling : 4:2:0
Bit depth : 8 bits
Scan type : Interlaced
Scan order : Top Field First
Bits/(Pixel*Frame) : 0.151
Stream size : 2.42 GiB (96%)
Default : Yes
Forced : No
Color primaries : BT.709
Transfer characteristics : BT.709
Matrix coefficients : BT.709
Color range : Limited
Audio
ID : 2
Format : MPEG Audio
Format version : Version 1
Format profile : Layer 2
Codec ID : A_MPEG/L2
Codec ID/Hint : MP2
Duration : 44mn 11s
Bit rate mode : Constant
Bit rate : 128 Kbps
Channel(s) : 2 channels
Sampling rate : 48.0 KHz
Compression mode : Lossy
Delay relative to video : 130ms
Stream size : 40.5 MiB (2%)
Title : Russian VO (студия "Велес") - Сергей Куприянов
Language : Russian
Default : Yes
Forced : No
Скриншоты:
       

Дополнительные скриншоты:

       

Omen

Post 29-Nov-2015 12:32

[Quote]

Nat Geo Wild: Тайны дикой природы
Secrets Of The Wild
- Режиссер: Линетт Сингер
Телекомпания: Spring Films Ltd
Страна: Великобритания
Жанр: Документальный, природа, флора, фауна
Продолжительность: 3x ~ 00:43:59
Качество видео: H.264/720p
Перевод: Одноголосый закадровый, профессиональный

Видеокодек: MPEG-4 AVC/H.264
Битрейт видео: ~25fps 4690 Kbps
Размер кадра: 1280x720
Аудиокодек: AC3 2.0
Битрейт аудио: 2ch, 192 kbps, 48 kHz
Описание:
Десятилетиями люди пытались приблизиться к диким животным. Но когда мы смотрели на них, они тоже смотрели на нас. Теперь мы можем незаметно наблюдать за ними в естественных условиях. Новейшие технологии позволяют заглянуть в частную жизнь животных так, что они не узнают об этом. Мы можем снимать из далека, даже с воздуха. Камеры с дистанционным управлением принимают разные обличия и формы. Что бы подобраться к ним поближе можно снимать где угодно, когда угодно, как угодно и днём и ночью. Преданные своему делу натуралисты и создатели фильмов смело идут навстречу трудностям и опасностям, что бы открыть для нас самые сокровенные тайны дикой природы.
Список серий:

01. На просторах / Exposed

Познакомьтесь с жизнью животных на больших открытых территориях, таких как равнины Серенгети, ледяные просторы Арктики и Тибетское нагорье.

02. Затерянные миры / Lost Worlds

В густых лесах и других труднопроходимых местах новые технологии позволяют снимать удивительные моменты из жизни диких животных.

03. В водных глубинах / Going Deep

Удивительные существа прячутся в морях, реках и озерах планеты, но с помощью специального оборудования мы заглянем в их скрытый мир.

Mediainfo:

Код:
Format                         : Matroska
Format version                 : Version 4 / Version 2
File size                      : 1.53 GiB
Duration                       : 43mn 59s
Overall bit rate mode          : Constant
Overall bit rate               : 4 969 Kbps
Encoded date                   : UTC 2015-04-04 15:56:36
Writing application            : mkvmerge v7.8.0 ('River Man') 64bit built on Mar 27 2015 16:31:37
Writing library                : libebml v1.3.1 + libmatroska v1.4.2
DURATION                       : 00:43:59.920000000
NUMBER_OF_FRAMES               : 65998
NUMBER_OF_BYTES                : 1575616405
_STATISTICS_WRITING_APP        : mkvmerge v7.8.0 ('River Man') 64bit built on Mar 27 2015 16:31:37
_STATISTICS_WRITING_DATE_UTC   : 2015-04-04 15:56:36
_STATISTICS_TAGS               : BPS DURATION NUMBER_OF_FRAMES NUMBER_OF_BYTES
Video
ID                             : 1
Format                         : AVC
Format/Info                    : Advanced Video Codec
Format profile                 : [url=mailto:[email protected]][email protected][/url]
Format settings, CABAC         : Yes
Format settings, ReFrames      : 3 frames
Codec ID                       : V_MPEG4/ISO/AVC
Duration                       : 43mn 59s
Bit rate mode                  : Constant
Bit rate                       : 4 678 Kbps
Nominal bit rate               : 5 000 Kbps / 5 000 Kbps
Width                          : 1 280 pixels
Height                         : 720 pixels
Display aspect ratio           : 16:9
Frame rate mode                : Constant
Frame rate                     : 25.000 fps
Standard                       : NTSC
Color space                    : YUV
Chroma subsampling             : 4:2:0
Bit depth                      : 8 bits
Scan type                      : Progressive
Bits/(Pixel*Frame)             : 0.203
Stream size                    : 1.44 GiB (94%)
Writing library                : x264 core 114
Encoding settings              : cabac=1 / ref=3 / deblock=1:0:0 / analyse=0x3:0x113 / me=hex / subme=7 / psy=1 / psy_rd=1.00:0.00 / mixed_ref=1 / me_range=16 / chroma_me=1 / trellis=1 / 8x8dct=1 / cqm=2 / deadzone=21,11 / fast_pskip=1 / chroma_qp_offset=-2 / threads=6 / sliced_threads=0 / slices=1 / nr=0 / decimate=1 / interlaced=0 / constrained_intra=0 / bframes=3 / b_pyramid=0 / b_adapt=1 / b_bias=0 / direct=1 / weightb=1 / open_gop=0 / weightp=2 / keyint=250 / keyint_min=25 / scenecut=40 / intra_refresh=0 / rc_lookahead=40 / rc=cbr / mbtree=1 / bitrate=5000 / ratetol=1.0 / qcomp=0.60 / qpmin=3 / qpmax=69 / qpstep=4 / vbv_maxrate=5000 / vbv_bufsize=4997 / nal_hrd=cbr / ip_ratio=1.40 / aq=1:1.00
Default                        : Yes
Forced                         : No
Color primaries                : BT.709
Transfer characteristics       : BT.709
Matrix coefficients            : BT.709
Color range                    : Limited
Audio
ID                             : 2
Format                         : AC-3
Format/Info                    : Audio Coding 3
Mode extension                 : CM (complete main)
Format settings, Endianness    : Big
Codec ID                       : A_AC3
Duration                       : 43mn 59s
Bit rate mode                  : Constant
Bit rate                       : 192 Kbps
Channel(s)                     : 2 channels
Channel positions              : Front: L R
Sampling rate                  : 48.0 KHz
Bit depth                      : 16 bits
Compression mode               : Lossy
Stream size                    : 60.4 MiB (4%)
Default                        : Yes
Forced                         : No
Скриншоты:
       

Дополнительные скриншоты:

         
       
   

Omen

Post 29-Oct-2015 00:01

[Quote]

Суперсооружения Третьего рейха
Nazi Megastructures (Megastructures: Nazi Mega Weapons) - 2
- Телекомпания: США, National Geographic
Жанр: Документальный, война, история
Описание:
В стремлении к мировому господству нацисты построили некоторые из самых амбициозных и прогрессивных образцов боевой техники, а также разработали самые злодейские технологии в истории; создали продвинутые машины террора, огромные оборонительные системы и оружие массового уничтожения, чтобы завоевать континент и выиграть войну. Этот сериал о Второй Мировой войне рассказывает о ней с уникальной, новой точки зрения. В 6 эпизодах мы раскрываем секреты 6 знаковых инженерных и технических мегасооружений нацистов, рассказывая истории конструкторов и инженеров, которые помогли создать их, и, показывая, как эти сооружения дали направление одному из самых смертоносных конфликтов в истории.
Уникальные сооружения призванные изменить представления о военном искусстве и обеспечить победу во Второй мировой войне. Гитлеровская мечта о мировом господстве. Канал National Geographic представляет новые серии программы об амбициозных планах Гитлера.
Продолжительность: 6 х ~ 00:43:38
Качество видео: HDTVRip
Перевод: Одноголосый закадровый, профессиональный
Видео: AVC/H.264, 1280x720, ~4079 kbps
Аудио: AC3, 2 ch, 192 kbps, CBR

Список выпусков/серий

1. «Фау-1». Ракета возмездия Гитлера / V1: Hitler's Vengeance Missile
Это история о первой в мире крылатой ракете. В отместку за бомбардировки Союзников Гитлер приказал разработать «Фау-1». Смертоносная бомба, появление которой изменило историю и совершило революцию в военной промышленности.
2. «Волчье логово» / The Wolf's Lair
Самое сердце военной машины нацистов. Железобетонный город построенный, чтобы командовать миллионами, управлять всей Империей и вести Мировую войну. Задача базы – скрыть лидеров III Рейха. Его строили под стать Гитлеру и его жажде власти. Это история о командном центре III Рейха и самой засекреченной ставке Гитлера – «Волчьем логове».
3. СС Гиммлера / The SS
Они были самой зловещей структурой в нацисткой Германии. Печально известный культ созданный для контроля над государством. Опора гитлеровской Империи господствующая в III Рейхе. Это рассказ о беспощадном и жестоком нацистском формировании – СС.
4. Линия Зигфрида / Hitler's Siegfried Line
Кампания по прорыву линии Зигфрида, протяженностью в 630 км, велась более шести месяцев и унесла жизни 140000 американских военных.
5. Мегакорабли Гитлера / Hitler's Megaships
Новое поколение линкоров, построенное по приказу Гитлера, чтобы уничтожать врагов в море. Огромные, мощные, смертоносные, суровые, громадные корабли: больше, быстрее и опаснее любого судна, когда-либо спущенного на воду. Это история о взлете и падении мега кораблей Гитлера.
6. Камикадзе / Kamikaze Suicide Bombers
В 1944 Япония находилась на грани поражения, и её военные прибегли к новой отчаянной тактике: использованию самолетов-снарядов и человеко-торпед.

Mediainfo:

Код:
NG.Nazi.Mega.Weapons.(S2).2014.720p.hdtv.x264.alf62\NG.Nazi.Mega.Weapons.(S2.Ep5).Megakorabli.Gitlera.2014.720p.hdtv.x264.alf62.mkv
Формат                                   : Matroska
Версия формата                           : Version 4 / Version 2
Размер файла                             : 1,34 Гбайт
Продолжительность                        : 43 м.
Общий поток                              : 4357 Кбит/сек
Дата кодирования                         : UTC 2015-05-30 11:01:25
Программа кодирования                    : mkvmerge v6.6.0 ('The Edge Of The In Between') built on Dec  1 2013 17:55:00
Библиотека кодирования                   : libebml v1.3.0 + libmatroska v1.4.1
Видео
Идентификатор                            : 1
Формат                                   : AVC
Формат/Информация                        : Advanced Video Codec
Профиль формата                          : [url=mailto:[email protected]][email protected][/url]
Параметр CABAC формата                   : Да
Параметр ReFrames формата                : 5 кадров
Идентификатор кодека                     : V_MPEG4/ISO/AVC
Продолжительность                        : 43 м.
Битрейт                                  : 4079 Кбит/сек
Ширина                                   : 1280 пикселей
Высота                                   : 720 пикселей
Соотношение сторон                       : 16:9
Режим частоты кадров                     : Постоянный
Частота кадров                           : 25,000 кадров/сек
Цветовое пространство                    : YUV
Субдискретизация насыщенности            : 4:2:0
Битовая глубина                          : 8 бит
Тип развёртки                            : Прогрессивная
Бит/(Пиксели*Кадры)                      : 0.177
Размер потока                            : 1,25 Гбайт (94%)
Язык                                     : English
Default                                  : Нет
Forced                                   : Нет
Основные цвета                           : BT.709
Характеристики трансфера                 : BT.709
Коэффициенты матрицы                     : BT.709
Аудио
Идентификатор                            : 2
Формат                                   : AC-3
Формат/Информация                        : Audio Coding 3
Расширение режима                        : CM (complete main)
Параметр Endianness формата              : Big
Идентификатор кодека                     : A_AC3
Продолжительность                        : 43 м.
Вид битрейта                             : Постоянный
Битрейт                                  : 192 Кбит/сек
Каналы                                   : 2 канала
Расположение каналов                     : Front: L R
Частота                                  : 48,0 КГц
Битовая глубина                          : 16 бит
Метод сжатия                             : С потерями
Размер потока                            : 60,3 Мбайт (4%)
Default                                  : Да
Forced                                   : Нет

Дополнительная информация:

Авторство релиза - alf62
В релизе использован видеофайл из трансляции National Geographic HD по немецкому ТВ.
Немецкая звуковая дорожка заменена на русскую.

Внимание! Раздача ведётся путём добавления новых серий

Внимание! Раздача ведётся путём добавления новых серий
Внимание! Раздача ведётся путём добавления новых серий; при каждом добавлении создаётся новый торрент. Чтобы начать докачку новой серии, пользователям необходимо сделать следующее:
• Остановить скачивание.
• Удалить старый торрент у себя из клиента (старые серии удалять не надо).
• Скачать новый торрент и запустить его у себя в клиенте вместо старого, при этом указать клиенту путь в старую папку куда и должно происходить скачивание новых серий.
Ваш клиент при этом должен произвести хеширование (проверку) старой папки (если не производит сам - помогите ему сделать это), и будет докачивать только те серии которых у вас ещё нет. Старые серии при этом не удаляются, а продолжают раздаваться!
Eсли вы уже удалили старые серии, то предотвратить повторную закачку старых серий можно, отжав галочку в соответсвующих местах при запуске нового торрента. По возможности, желательно не удалять старые серии как можно дольше чтобы релизёр не столько продолжал раздавать старые серии, а смог сконцентрироваться на новых.
Скриншоты:
       

Дополнительные скриншоты:

   

Omen

Post 18-Jul-2015 12:46

[Quote]

Nat Geo Wild: Увлекательная зоология
Ultimate Animals
- Телекомпания: Leepson Boundes Entertaiment for National Geographic Channal
Режиссер : Perry Martin
Жанр: Документальный, научно-познавательный
Описание:
Самые удивительные и увлекательные факты из мира животных, от акробатов-фламинго до особо медлительной улитки. Здесь природа встречается с наукой, а дикие животные поражают воображение. Всё это в программе "УВЛЕКАТЕЛЬНАЯ ЗООЛОГИЯ"
Список серий:
01. Слоны, кошки и осьминоги / Elephants, Cats & Octopuses
02. Белые медведи, собаки и раки-богомолы / Polar Bears, Dogs & Mantis Shrimp
Знаете ли вы, что нос собаки чует раковые клетки, а язык сильнее чем ракета и скоро, возможно, они сядут за руль. Какие на самом деле белые медведи, как они могут остановить беременность и помогут ли они людям излечиться от ожирения. Узнайте как клешни 10-ти сантиметровых раков-богомолов могут нокаутировать Флойда Мейвезера и защитить нас от бомб на поле битвы
03. Львы, совы и лягушки / Lions, Owls & Frogs
Знаете ли вы, что львы умеют считать, и что существуют лягушки с прозрачной кожей? И как форма головы совы помогает ей столь хорошо слышать?
04. Кабаны, волки и вороны / Pigs, Wolves & Crows
Узнайте поразительные факты о свинье, во многом напоминающей человека, ненасытном волке и очень умной вороне.
05. Тигры, носороги и голые землекопы / Tigers, Rhinos & Naked Mole Rats
Узнайте почему тело носорога потеет кровью, кто его телохранители и почему его рог такой острый. Где самое чувствительное место у тигра, какие секретные послания таятся в полосках на его шкуре, а также много нового и интересного из зоологии других животных.
06. Orangs, Raccoons & Cool Cats
Продолжительность: 2x~ 00:44:00
Качество видео: HDTVRip 720p
Перевод: Одноголосый закадровый, профессиональный, озвучено на студии "Велес", текст читал Олег Белов
Видео: AVC/H.264, 1280x720, ~25fps 5000 Kbps
Аудио: AC3, 2 ch, 192 kbps, 48 kHz

Mediainfo:

Код:
Format : Matroska
Format version : Version 4 / Version 2
File size : 1.59 GiB
Duration : 44mn 0s
Overall bit rate mode : Variable
Overall bit rate : 5 174 Kbps
Encoded date : UTC 2015-06-26 11:54:47
Writing application : mkvmerge v8.0.0 ('Til The Day That I Die') 64bit
Writing library : libebml v1.3.1 + libmatroska v1.4.2
DURATION : 00:44:00.200000000
NUMBER_OF_FRAMES : 66005
NUMBER_OF_BYTES : 1643708017
_STATISTICS_WRITING_APP : mkvmerge v8.0.0 ('Til The Day That I Die') 64bit
_STATISTICS_WRITING_DATE_UTC : 2015-06-26 11:54:47
_STATISTICS_TAGS : BPS DURATION NUMBER_OF_FRAMES NUMBER_OF_BYTES
Video
ID : 2
Format : AVC
Format/Info : Advanced Video Codec
Format profile : [email protected]
Format settings, CABAC : Yes
Format settings, ReFrames : 3 frames
Codec ID : V_MPEG4/ISO/AVC
Duration : 44mn 0s
Bit rate mode : Variable
Bit rate : 5 000 Kbps
Maximum bit rate : 8 000 Kbps
Width : 1 280 pixels
Height : 720 pixels
Display aspect ratio : 16:9
Frame rate mode : Constant
Frame rate : 25.000 fps
Standard : NTSC
Color space : YUV
Chroma subsampling : 4:2:0
Bit depth : 8 bits
Scan type : Progressive
Bits/(Pixel*Frame) : 0.217
Stream size : 1.50 GiB (94%)
Writing library : x264 core 114
Encoding settings : cabac=1 / ref=3 / deblock=1:0:0 / analyse=0x3:0x113 / me=hex / subme=7 / psy=1 / psy_rd=1.00:0.00 / mixed_ref=1 / me_range=16 / chroma_me=1 / trellis=1 / 8x8dct=1 / cqm=2 / deadzone=21,11 / fast_pskip=1 / chroma_qp_offset=-4 / threads=6 / sliced_threads=0 / slices=1 / nr=0 / decimate=1 / interlaced=0 / constrained_intra=0 / bframes=3 / b_pyramid=0 / b_adapt=1 / b_bias=0 / direct=1 / weightb=1 / open_gop=0 / weightp=2 / keyint=250 / keyint_min=25 / scenecut=40 / intra_refresh=0 / rc_lookahead=40 / rc=2pass / mbtree=1 / bitrate=5000 / ratetol=1.0 / qcomp=0.60 / qpmin=5 / qpmax=69 / qpstep=4 / cplxblur=20.0 / qblur=0.5 / vbv_maxrate=8000 / vbv_bufsize=7995 / nal_hrd=vbr / ip_ratio=1.40 / aq=1:1.00
Default : Yes
Forced : No
Color range : Limited
Color primaries : BT.709
Transfer characteristics : BT.709
Matrix coefficients : BT.709
Audio
ID : 1
Format : AC-3
Format/Info : Audio Coding 3
Mode extension : CM (complete main)
Format settings, Endianness : Big
Codec ID : A_AC3
Duration : 44mn 0s
Bit rate mode : Constant
Bit rate : 192 Kbps
Channel(s) : 2 channels
Channel positions : Front: L R
Sampling rate : 48.0 KHz
Compression mode : Lossy
Stream size : 60.4 MiB (4%)
Default : Yes
Forced : No
Скриншоты:
       

Дополнительные скриншоты:

         
         
         
 

The time now is: Today 03:28

All times are GMT + 3 Hours