Today is a free download without charge Download

Search found 500 matches

Author Message

Орлов Владимир

Post Yesterday 00:23

[Quote]

--Голоса с того света / Morto Não Fala (Деннисон Рамалью) [2018, Ужасы, триллер, мистика, WEB-DLRip] [DUB] [iTunes]-- Информация о фильме
Название: Голоса с того света
Оригинальное название: Morto Não Fala
Год выпуска: 2018
Жанр: Ужасы, триллер, мистика
Режиссер: Деннисон Рамалью--В ролях: Даниэль де Оливейра, Фабиула Нассименту, Бьянка Компрату, Маркос Клигман, Анналара Пратес, Марку Рикка--О фильме:
Стенио работает по ночам в морге большого криминального города, поэтому постоянно видит тела жертв бандитских разборок в самых разных невообразимых состояниях. Другой бы на его месте отчаялся, но только не Стенио — мёртвые разговаривают с ним. В прямом смысле. У мужчины оккультный дар с рождения, который он может использовать в своих интересах — мертвецы доверяют ему свои секреты. Однажды от очередного трупа Стенио узнаёт, что жена изменяет ему с соседом.-- --Страна: Бразилия
Студия: Canal Brasil, Casa de Cinema de Porto Alegre, Globo Filmes
Продолжительность: 01:50:19
Перевод: Дублированный | iTunes--Файл
Формат: AVI
Качество: WEB-DLRip
Источник: GOLOSA_S_TOGO_SVETA_2018_WEB-DL_1080p-BLUEBIRD
Видео: 720x304 (2.37:1), 24 fps, XviD build 73 ~1503 kbps avg, 0.29 bit/pixel
Звук: 48 kHz, AC3 Dolby Digital, 3/2 (L,C,R,l,r) + LFE ch, ~384 kbps
Субтитры: Нет
--

Скриншоты

               

Орлов Владимир

Post 14-Sep-2019 04:54

[Quote]

--Собачьи дни / Dog Days (Кен Марино) [2018, Драма, комедия, BDRip] [MVO] [iTunes]-- Информация о фильме
Название: Собачьи дни
Оригинальное название: Dog Days
Год выпуска: 2018
Жанр: Драма, комедия
Режиссер: Кен Марино--В ролях: Нина Добрев, Ванесса Энн Хадженс, Тони Белл, Ева Лонгория, Роб Кордри, Адам Палли, Райан Хансен, Джессика Ст. Клер, Томас Леннон, Жасмин Сепас Джонс--О фильме:
История о жителях Лос-Анджелеса, которых связывает любовь к собакам.-- --Страна: США
Студия: LD Entertainment
Продолжительность: 01:53:01
Перевод: Профессиональный (многоголосый, закадровый) | iTunes--Файл
Формат: AVI
Качество: BDRip | BDRemux 1080p |
Видео: 720x304 (2.37:1), 23.976 fps, XviD build 73 ~1392 kbps avg, 0.27 bit/pixel
Аудио: 48 kHz, AC3 Dolby Digital, 3/2 (L,C,R,l,r) + LFE ch, ~384 kbps
Субтитры: Нет
--

Скриншоты

               

Орлов Владимир

Post 13-Sep-2019 15:02

[Quote]

--Некромант / Nekrotronic ( Кия Роуч-Тернер) [2018, ужасы, фантастика, комедия, BDRip-AVC] [DUB] [iTunes]-- Информация о фильме
Название: Некромант
Оригинальное название: Nekrotronic
Год выхода: 2018
Жанр: Ужасы, фантастика, комедия
Режиссер: Кия Роуч-Тернер--В ролях: Бен О'Тул, Моника Беллуччи, Боб Савеа, Дэвид Бимиш, Чармэйн Бингва, Уилльям Чун, Майкл Дункан, Кэролайн Форд, Аллира Гибсон, Роберт Грин--О фильме: Однажды, зависнув в сети, обычный парень осознает, что он - член таинственной организации некромантов, один из охотников на демонов, овладевающих душами людей через смартфоны.-- --Страна: Австралия
Студия: Guerilla Films, Hopscotch Features
Продолжительность: 01:36:43
Перевод: Дублированный | iTunes
Субтитры: Английские--Файл
Качество: BDRip-AVC | BluRay Dicsc | Nekrotronic.2018.COMPLETE.BLURAY-PFa
Продолжительность: 01:36:55--Формат: MKV
Видео кодек: MPEG-4 AVC
Аудио кодек: AC3
Видео: 1024x428 (2.40:1), 23,976 fps, x264 ~1 821 kbps avg, 0.173 bit/pixel
Аудио #1: 48 kHz, AC3 Dolby Digital Plus, 3/2 (L,C,R,l,r) + LFE ch, ~384.00 kbps avg | RUS (iTunes)
Аудио #2: 48 kHz, AC3 Dolby Digital Plus, 3/2 (L,C,R,l,r) + LFE ch, ~448.00 kbps avg | ENG--Дата премьеры (мир): 8 сентября 2018
Дата премьеры (РФ): 25 июля 2019, «Парадиз»
Цифровой релиз:

Тех.данные видеофайла

Общее
Уникальный идентификатор : 208988932225319420663023123889951126130 (0x9D39CDE41A5EE74E867D3D0277D8B272)
Полное имя : F:\OlLanDGroup\Nekrotronic.2018.BDRip(AVC).OllanDGroup.mkv
Формат : Matroska
Версия формата : Version 4 / Version 2
Размер файла : 1,79 Гбайт
Продолжительность : 1 ч. 36 м.
Общий поток : 2650 Кбит/сек
Название фильма : Nekrotronic.2018 #TorpedoUK#
Дата кодирования : UTC 2019-09-13 11:26:12
Программа кодирования : mkvmerge v29.0.0 ('Like It Or Not') 64-bit
Библиотека кодирования : libebml v1.3.6 + libmatroska v1.4.9
Видео
Идентификатор : 1
Формат : AVC
Формат/Информация : Advanced Video Codec
Профиль формата : [email protected]
Параметр CABAC формата : Да
Параметр ReFrames формата : 10 кадров
Идентификатор кодека : V_MPEG4/ISO/AVC
Продолжительность : 1 ч. 36 м.
Битрейт : 1821 Кбит/сек
Ширина : 1024 пикселя
Высота : 428 пикселей
Соотношение сторон : 2,40:1
Режим частоты кадров : Постоянный
Частота кадров : 23,976 (24000/1001) кадра/сек
Цветовое пространство : YUV
Субдискретизация насыщенности : 4:2:0
Битовая глубина : 8 бит
Тип развёртки : Прогрессивная
Бит/(Пиксели*Кадры) : 0.173
Размер потока : 1,23 Гбайт (69%)
Библиотека кодирования : x264 core 146 r2538 121396c
Настройки программы : cabac=1 / ref=10 / deblock=1:-3:-3 / analyse=0x3:0x113 / me=umh / subme=11 / psy=1 / psy_rd=0.97:0.05 / mixed_ref=1 / me_range=48 / chroma_me=1 / trellis=2 / 8x8dct=1 / cqm=0 / deadzone=21,11 / fast_pskip=1 / chroma_qp_offset=-6 / threads=6 / lookahead_threads=1 / sliced_threads=0 / nr=0 / decimate=1 / interlaced=0 / bluray_compat=0 / constrained_intra=0 / bframes=11 / b_pyramid=2 / b_adapt=2 / b_bias=0 / direct=3 / weightb=1 / open_gop=0 / weightp=2 / keyint=240 / keyint_min=23 / scenecut=40 / intra_refresh=0 / rc_lookahead=40 / rc=2pass / mbtree=0 / bitrate=1821 / ratetol=1.0 / qcomp=0.60 / qpmin=0 / qpmax=69 / qpstep=4 / cplxblur=20.0 / qblur=0.5 / vbv_maxrate=50000 / vbv_bufsize=62500 / nal_hrd=none / filler=0 / ip_ratio=1.40 / pb_ratio=1.30 / aq=1:1.00
Язык : English
Default : Да
Forced : Нет
Аудио #1
Идентификатор : 2
Формат : AC-3
Формат/Информация : Audio Coding 3
Расширение режима : CM (complete main)
Параметр Endianness формата : Big
Идентификатор кодека : A_AC3
Продолжительность : 1 ч. 36 м.
Вид битрейта : Постоянный
Битрейт : 384 Кбит/сек
Каналы : 6 каналов
Расположение каналов : Front: L C R, Side: L R, LFE
Частота : 48,0 КГц
Частота кадров : 31,250 кадров/сек (1536 spf)
Битовая глубина : 16 бит
Метод сжатия : С потерями
Размер потока : 266 Мбайт (14%)
Заголовок : DUB [iTunes]
Язык : Russian
Default : Да
Forced : Нет
Аудио #2
Идентификатор : 3
Формат : AC-3
Формат/Информация : Audio Coding 3
Расширение режима : CM (complete main)
Параметр Endianness формата : Big
Идентификатор кодека : A_AC3
Продолжительность : 1 ч. 36 м.
Вид битрейта : Постоянный
Битрейт : 448 Кбит/сек
Каналы : 6 каналов
Расположение каналов : Front: L C R, Side: L R, LFE
Частота : 48,0 КГц
Частота кадров : 31,250 кадров/сек (1536 spf)
Битовая глубина : 16 бит
Метод сжатия : С потерями
Размер потока : 310 Мбайт (17%)
Заголовок : [Original]
Язык : English
Default : Нет
Forced : Нет
Текст
Идентификатор : 4
Формат : UTF-8
Идентификатор кодека : S_TEXT/UTF8
Идентификатор кодека/Информация : UTF-8 Plain Text
Продолжительность : 1 ч. 31 м.
Битрейт : 40 бит/сек
Count of elements : 999
Размер потока : 26,8 Кбайт (0%)
Заголовок : Full
Язык : English
Default : Нет
Forced : Нет
Меню
00:00:00.000 : :Глава 01
00:05:02.427 : :Глава 02
00:09:52.675 : :Глава 03
00:17:47.691 : :Глава 04
00:25:40.872 : :Глава 05
00:33:46.399 : :Глава 06
00:38:33.185 : :Глава 07
00:42:50.526 : :Глава 08
00:47:39.731 : :Глава 09
00:55:36.750 : :Глава 10
00:59:54.465 : :Глава 11
01:03:45.071 : :Глава 12
01:11:30.077 : :Глава 13
01:17:15.756 : :Глава 14
01:22:25.065 : :Глава 15
01:31:23.603 : :Глава 16

Скриншоты

           

Орлов Владимир

Post 13-Sep-2019 13:58

[Quote]

--Некромант / Nekrotronic ( Кия Роуч-Тернер) [2018, ужасы, фантастика, комедия, BDRip] [DUB] [iTunes]-- Информация о фильме
Название: Некромант
Оригинальное название: Nekrotronic
Год выпуска: 2018
Жанр: Ужасы, фантастика, комедия
Режиссер: Кия Роуч-Тернер--В ролях: Бен О'Тул, Моника Беллуччи, Боб Савеа, Дэвид Бимиш, Чармэйн Бингва, Уилльям Чун, Майкл Дункан, Кэролайн Форд, Аллира Гибсон, Роберт Грин--О фильме:
Однажды, зависнув в сети, обычный парень осознает, что он - член таинственной организации некромантов, один из охотников на демонов, овладевающих душами людей через смартфоны.-- --Страна: Австралия
Студия: Guerilla Films, Hopscotch Features
Продолжительность: 01:36:43
Перевод: Дублированный | iTunes--Файлы
Формат: AVI
Качество: BDRip
Источник: Nekrotronic.2018.COMPLETE.BLURAY-PFa
Видео: 720x304 (2.37:1), 23.976 fps, XviD build 73 ~1705 kbps avg, 0.33 bit/pixel
Звук: 48 kHz, AC3 Dolby Digital, 3/2 (L,C,R,l,r) + LFE ch, ~384 kbps | RUS
Субтитры: Нет--

Скриншоты

               

Орлов Владимир

Post 10-Sep-2019 20:43

[Quote]

-План побега 3 / Escape Plan: The Extractors (Джон Херцфелд) [2019, Боевик, BDRip 720p] [DUB] [Расширенная версия] [iTunes]- Информация о фильме
Название: План побега 3
Оригинальное название: Escape Plan: The Extractors
Год выпуска: 2019
Страна: США, Япония
Производство: Emmett/Furla/Oasis Films (EFO Films), Leomus Pictures, Twirly Films Limited
Жанр: Боевик---Режиссёр: Джон Херцфелд
В ролях: Сильвестр Сталлоне, Дэйв Батиста, 50 Cent, Джейми Кинг, Макс Чжан, Девон Сава, Гарри Шам мл., Расселл Вонг, Дэниэл Бернхард, Лидия Халл--Перевод: Дублированный | [iTunes]
Субтитры: Нет--Описание: Непревзойденный взломщик тюрем Рэй Бреслин опять ввязался в смертельно опасную авантюру: вместе со своей командой он берётся разыскать похищенную дочь своего друга — бизнесмена из Гонконга. Нити расследования приводят к одной из самых секретных тюрем Америки, которая называется «Пункт Дьявола».-- --Качество: BDRip 720p
Продолжительность: 01:37:20--Формат: MKV
Видео кодек: MPEG-4 AVC
Аудио кодек: AC3
Видео: 1280x534 (2.40:1), 23,976 fps, x264 ~5 521 kbps avg, 0.337 bit/pixel
Аудио #1: 48 kHz, AC3 Dolby Digital, 3/2 (L,C,R,l,r) + LFE ch, ~384.00 kbps avg | RUS (iTunes)
Аудио #2: 48 kHz, DTS Dolby Theater System, 3/2 (L,C,R,l,r) + LFE ch, ~1 509.00 kbps avg | ENG--Дата премьеры (мир): 8 июня 2019
Дата премьеры (РФ): 27 июня 2019, «MEGOGO Distribution»
Цифровой релиз:
--

Тех.данные видеофайла

Общее
Уникальный идентификатор: 133620610079989845476144097066333351569 (0x648664B6C83B43BF96FC8836DD09AE91)
Полное имя: F:\OlLanDGroup\Escape.Plan.The.Extractors.2019.Extended.Cut.BDRip(720p).OllanDGroup.mkv
Формат: Matroska
Версия формата: Version 4 / Version 2
Размер файла: 5,03 Гбайт
Продолжительность: 1 ч. 37 м.
Общий поток: 7403 Кбит/сек
Название фильма: Escape Plan The Extractors 2019 #TorpedoUK#
Дата кодирования: UTC 2019-09-10 16:49:57
Программа кодирования: mkvmerge v29.0.0 ('Like It Or Not') 64-bit
Библиотека кодирования: libebml v1.3.6 + libmatroska v1.4.9
Видео
Идентификатор: 1
Формат: AVC
Формат/Информация: Advanced Video Codec
Профиль формата: [email protected]
Параметр CABAC формата: Да
Параметр ReFrames формата: 10 кадров
Идентификатор кодека: V_MPEG4/ISO/AVC
Продолжительность: 1 ч. 37 м.
Битрейт: 5521 Кбит/сек
Ширина: 1280 пикселей
Высота: 534 пикселя
Соотношение сторон: 2,40:1
Режим частоты кадров: Постоянный
Частота кадров: 23,976 (24000/1001) кадра/сек
Цветовое пространство: YUV
Субдискретизация насыщенности: 4:2:0
Битовая глубина: 8 бит
Тип развёртки: Прогрессивная
Бит/(Пиксели*Кадры): 0.337
Размер потока: 3,74 Гбайт (74%)
Библиотека кодирования: x264 core 146 r2538 121396c
Настройки программы: cabac=1 / ref=10 / deblock=1:-2:-3 / analyse=0x3:0x113 / me=umh / subme=11 / psy=1 / psy_rd=0.90:0.10 / mixed_ref=1 / me_range=64 / chroma_me=1 / trellis=2 / 8x8dct=1 / cqm=0 / deadzone=21,11 / fast_pskip=1 / chroma_qp_offset=-6 / threads=6 / lookahead_threads=3 / sliced_threads=0 / nr=0 / decimate=1 / interlaced=0 / bluray_compat=0 / constrained_intra=0 / bframes=10 / b_pyramid=2 / b_adapt=2 / b_bias=0 / direct=3 / weightb=1 / open_gop=0 / weightp=2 / keyint=240 / keyint_min=23 / scenecut=40 / intra_refresh=0 / rc_lookahead=40 / rc=2pass / mbtree=0 / bitrate=5521 / ratetol=1.0 / qcomp=0.60 / qpmin=0 / qpmax=69 / qpstep=4 / cplxblur=20.0 / qblur=0.5 / vbv_maxrate=50000 / vbv_bufsize=62500 / nal_hrd=none / filler=0 / ip_ratio=1.40 / pb_ratio=1.30 / aq=1:1.00
Язык: English
Default: Да
Forced: Нет
Аудио #1
Идентификатор: 2
Формат: AC-3
Формат/Информация: Audio Coding 3
Расширение режима: CM (complete main)
Параметр Endianness формата: Big
Идентификатор кодека: A_AC3
Продолжительность: 1 ч. 37 м.
Вид битрейта: Постоянный
Битрейт: 384 Кбит/сек
Каналы: 6 каналов
Расположение каналов: Front: L C R, Side: L R, LFE
Частота: 48,0 КГц
Частота кадров: 31,250 кадров/сек (1536 spf)
Битовая глубина: 16 бит
Метод сжатия: С потерями
Размер потока: 267 Мбайт (5%)
Заголовок: DUB [iTunes]
Язык: Russian
Default: Да
Forced: Нет
Аудио #2
Идентификатор: 3
Формат: DTS
Формат/Информация: Digital Theater Systems
Режим: 16
Параметр Endianness формата: Big
Идентификатор кодека: A_DTS
Продолжительность: 1 ч. 37 м.
Вид битрейта: Постоянный
Битрейт: 1509 Кбит/сек
Каналы: 6 каналов
Расположение каналов: Front: L C R, Side: L R, LFE
Частота: 48,0 КГц
Частота кадров: 93,750 кадра/сек (512 spf)
Битовая глубина: 24 бит
Метод сжатия: С потерями
Размер потока: 1,03 Гбайт (20%)
Заголовок: [Original]
Язык: English
Default: Нет
Forced: Нет
Меню
00:00:00.000: fr:00:00:00.000
00:09:22.979: fr:00:09:22.979
00:17:31.133: fr:00:17:31.133
00:24:01.607: fr:00:24:01.607
00:30:59.274: fr:00:30:59.274
00:37:19.737: fr:00:37:19.737
00:43:40.034: fr:00:43:40.034
00:50:12.426: fr:00:50:12.426
00:58:11.405: fr:00:58:11.405
01:05:44.190: fr:01:05:44.190
01:16:39.220: fr:01:16:39.220
01:27:37.294: fr:01:27:37.294

Скриншоты

           

Орлов Владимир

Post 10-Sep-2019 17:40

[Quote]

-План побега 3 / Escape Plan: The Extractors (Джон Херцфелд) [2019, Боевик, BDRip 1080p] [DUB] [Расширенная версия] [iTunes]- Информация о фильме
Название: План побега 3
Оригинальное название: Escape Plan: The Extractors
Год выпуска: 2019
Жанр: Боевик
Режиссер: Джон Херцфелд--В ролях: Сильвестр Сталлоне, Дэйв Батиста, 50 Cent, Джейми Кинг, Макс Чжан, Девон Сава, Гарри Шам мл., Расселл Вонг, Дэниэл Бернхард, Лидия Халл--О фильме:
Непревзойденный взломщик тюрем Рэй Бреслин опять ввязался в смертельно опасную авантюру: вместе со своей командой он берётся разыскать похищенную дочь своего друга - бизнесмена из Гонконга. Нити расследования приводят к одной из самых секретных тюрем Америки, которая называется «Пункт Дьявола».-- --Страна: США
Студия: Emmett/Furla/Oasis Films (EFO Films), Leomus Pictures, Twirly Films Limited
Продолжительность: 01:37:20
Перевод: Дублированный | iTunes--Файл
Формат: MKV
Качество: BDRip 1080p
Источник: |Escape.Plan.The.Extractors.2019.COMPLETE.FR.BLURAY-UTT|
Видео: MPEG-4 AVC, 12.5 Mбит/с, 1920x800l
Звук: Русский (AC3, 6 ch, 384 Кбит/с), английский (AC3, 6 ch, 640 Кбит/с)
Субтитры: Нет--

Скриншоты

         
 

Clavik

Post 08-Sep-2019 22:43

[Quote]

Лок / Locke (2013) BDRip - Производство: Великобритания, США / IM Global, Shoebox Films
Жанр: Драма
Режиссер: Стивен Найт
Актеры: Том Харди, Оливия Колман, Рут Уилсон, Эндрю Скотт, Бен Дэниелс, Том Холланд, Билл Милнер, Дэниэл Уэбб, Элис Лоу, Сайлас Карсон
Описание:
Айван Лок — примерный семьянин и успешный руководитель строительства. Завтрашний день — один из важнейших в его жизни, его ждет карьерный рост. Но вечером раздается телефонный звонок, который перевернет его жизнь с ног на голову.

Возраст: 16+ (зрителям, достигшим 16 лет)
Рейтинг MPAA: R (лицам до 17 лет обязательно присутствие взрослого)
Релиз от: PirateMKV
Продолжительность: 01:24:44
Качество видео: BDRip
Перевод: Дублированный
Субтитры: русские, английские
Видео: HEVC/H.265, 1916x800, ~5276 Kbps
Аудио 1: AC3, 6 ch, 384 Kbps (русский)
Аудио 2: AC3, 6 ch, 448 Kbps (английский)

Mediainfo:

Общее
Уникальный идентификатор : 236666469178836329877319402768029387465 (0xB20C4DD1CA401478A2B4B325F1DF0AC9)
Полное имя : E:\Video\Лок (Locke).mkv
Формат : Matroska
Версия формата : Version 4 / Version 2
Размер файла : 3,62 Гбайт
Продолжительность : 1 ч. 24 м.
Общий поток : 6108 Кбит/сек
Название фильма : Лок / Locke
Дата кодирования : UTC 2017-09-09 02:22:12
Программа кодирования : mkvmerge v12.0.0 ('Trust / Lust') 64bit
Библиотека кодирования : libebml v1.3.4 + libmatroska v1.4.5
Авторское право : Encoded by PirateMKV
Attachments : ac36470c51fadc29e2e00c77743b206a.jpg
Released by : Buba5473 for NNM-Club
Видео
Идентификатор : 1
Формат : HEVC
Формат/Информация : High Efficiency Video Coding
Профиль формата : [email protected]@High
Идентификатор кодека : V_MPEGH/ISO/HEVC
Продолжительность : 1 ч. 24 м.
Битрейт : 5276 Кбит/сек
Ширина : 1916 пикселей
Высота : 800 пикселей
Соотношение сторон : 2,40:1
Режим частоты кадров : Постоянный
Частота кадров : 23,976 (23976/1000) кадра/сек
Частота кадров в оригинале : 24,000 кадра/сек
Цветовое пространство : YUV
Субдискретизация насыщенности : 4:2:0
Битовая глубина : 8 бит
Бит/(Пиксели*Кадры) : 0.144
Размер потока : 3,12 Гбайт (86%)
Заголовок : Locke (2013) - PirateMKV
Библиотека кодирования : x265 2.2:[Windows][GCC 5.4.0][64 bit] 8bit
Настройки программы : cpuid=1173503 / frame-threads=3 / numa-pools=8 / wpp / no-pmode / no-pme / no-psnr / no-ssim / log-level=2 / input-csp=1 / input-res=1916x800 / interlace=0 / total-frames=0 / level-idc=40 / high-tier=1 / uhd-bd=0 / ref=5 / no-allow-non-conformance / no-repeat-headers / annexb / no-aud / no-hrd / info / hash=0 / no-temporal-layers / open-gop / min-keyint=24 / keyint=250 / bframes=8 / b-adapt=2 / b-pyramid / bframe-bias=0 / rc-lookahead=40 / lookahead-slices=0 / scenecut=40 / no-intra-refresh / ctu=64 / min-cu-size=8 / no-rect / no-amp / max-tu-size=32 / tu-inter-depth=3 / tu-intra-depth=3 / limit-tu=0 / rdoq-level=0 / signhide / no-tskip / nr-intra=0 / nr-inter=0 / no-constrained-intra / strong-intra-smoothing / max-merge=3 / limit-refs=3 / limit-modes / me=2 / subme=4 / merange=57 / temporal-mvp / weightp / weightb / no-analyze-src-pics / deblock=-1:-1 / sao / no-sao-non-deblock / rd=4 / no-early-skip / rskip / fast-intra / no-tskip-fast / no-cu-lossless / b-intra / rdpenalty=0 / psy-rd=1.00 / psy-rdoq=0.00 / no-rd-refine / analysis-mode=0 / no-lossless / cbqpoffs=0 / crqpoffs=0 / rc=crf / crf=23.0 / qcomp=0.60 / qpstep=4 / stats-write=0 / stats-read=0 / vbv-maxrate=30000 / vbv-bufsize=30000 / vbv-init=0.9 / crf-max=0.0 / crf-min=0.0 / ipratio=1.40 / pbratio=1.30 / aq-mode=3 / aq-strength=2.00 / no-cutree / zone-count=0 / no-strict-cbr / qg-size=32 / no-rc-grain / qpmax=69 / qpmin=0 / sar=1 / overscan=0 / videoformat=5 / range=0 / colorprim=2 / transfer=2 / colormatrix=1 / chromaloc=0 / display-window=0 / max-cll=0,0 / min-luma=0 / max-luma=255 / log2-max-poc-lsb=8 / vui-timing-info / vui-hrd-info / slices=1 / opt-qp-pps / opt-ref-list-length-pps / no-multi-pass-opt-rps / scenecut-bias=0.05
Язык : English
Default : Да
Forced : Нет
Цветовой диапазон : Limited
Коэффициенты матрицы : BT.709
Аудио #1
Идентификатор : 2
Формат : AC-3
Формат/Информация : Audio Coding 3
Параметр Endianness формата : Big
Идентификатор кодека : A_AC3
Продолжительность : 1 ч. 24 м.
Вид битрейта : Постоянный
Битрейт : 384 Кбит/сек
Каналы : 6 каналов
Расположение каналов : Front: L C R, Side: L R, LFE
Частота : 48,0 КГц
Частота кадров : 31,250 кадров/сек (1536 spf)
Битовая глубина : 16 бит
Метод сжатия : С потерями
Задержка видео : 18 мс.
Размер потока : 233 Мбайт (6%)
Заголовок : Перевод: Профессиональный (дублированный)
Язык : Russian
ServiceKind/String : Complete Main
Default : Да
Forced : Нет
Аудио #2
Идентификатор : 3
Формат : AC-3
Формат/Информация : Audio Coding 3
Параметр Endianness формата : Big
Идентификатор кодека : A_AC3
Продолжительность : 1 ч. 24 м.
Вид битрейта : Постоянный
Битрейт : 448 Кбит/сек
Каналы : 6 каналов
Расположение каналов : Front: L C R, Side: L R, LFE
Частота : 48,0 КГц
Частота кадров : 31,250 кадров/сек (1536 spf)
Битовая глубина : 16 бит
Метод сжатия : С потерями
Задержка видео : 18 мс.
Размер потока : 272 Мбайт (7%)
Язык : English
ServiceKind/String : Complete Main
Default : Нет
Forced : Нет
Текст #1
Идентификатор : 4
Формат : UTF-8
Идентификатор кодека : S_TEXT/UTF8
Идентификатор кодека/Информация : UTF-8 Plain Text
Продолжительность : 1 ч. 16 м.
Битрейт : 136 бит/сек
ElementCount : 1207
Размер потока : 76,2 Кбайт (0%)
Язык : Russian
Default : Да
Forced : Нет
Текст #2
Идентификатор : 5
Формат : UTF-8
Идентификатор кодека : S_TEXT/UTF8
Идентификатор кодека/Информация : UTF-8 Plain Text
Продолжительность : 1 ч. 16 м.
Битрейт : 95 бит/сек
ElementCount : 1188
Размер потока : 53,5 Кбайт (0%)
Язык : English
Default : Нет
Forced : Нет
Меню
00:00:00.000 : en:00:00:00.000
00:00:34.000 : en:00:00:34.000
00:15:27.375 : en:00:15:27.375
00:25:53.000 : en:00:25:53.000
00:37:14.042 : en:00:37:14.042
00:53:19.167 : en:00:53:19.167
01:13:23.625 : en:01:13:23.625

Внимание! HEVC/x265:

H.265/HEVC (High Efficiency Video Coding) - это новый стандарт кодирования видео.
*Рипы в фомате HEVC, в настоящее время не поддерживается большинством аппаратных проигрывателей.
*Для корректного воспроизведения может потребоваться обновление ПО.
*Стандарт H.265/HEVC является логическим продолжением стандарта H.264/AVC (Advanced Video Coding), и характеризуется более эффективными алгоритмами сжатия, а также поддержкой высокого разрешения вплоть до 8K UHD (8192x4320). Первая версия стандарта H.265 была опубликована в начале 2013 года.
Любителям решения из коробки - установить последнюю версию на выбор:
Media Player Classic - Black Edition (MPC-BE)
VLC media player
Daum Pot Player
GOM Media Player
Любителям WMP и других плееров, использующих по умолчанию для воспроизведения системные кодеки+сплитеры - установить K-Lite Codec Pack версии 10.1.0 и выше.
Любимые плееры, не использующии по умолчанию для воспроизведения системные кодеки+сплитеры, нужно перенастроить на испоьзование оных.
Скриншоты:
       

Clavik

Post 21-Aug-2019 20:20

[Quote]

Нож в сердце / Un couteau dans le coeur (Knife + Heart) (2018) WEB-DL [H.264/1080p-LQ]- Производство: Франция, Мексика, Швейцария / CG Cinéma, Piano, Garidi Films
Жанр: Триллер, детектив, мелодрама
Режиссер: Ян Гонсалес
Актеры: Ванесса Паради, Николя Мори, Кейт Моран, Жонатан Жене, Феликс Марито, Khaled Alouach, Ноэ Эрнандес, Thibault Servière, Бертран Мандико, Bastien Waultier
Описание:
Париж, 1979 год. Режиссёр Анна страдает от того, что после многолетних отношений её бросила монтажёр из их съёмочной группы, когда маньяк с ножом в дилдо начинает зверски убивать её артистов. После визита в полицию в качестве свидетеля Анна внезапно находит в этой ситуации вдохновение и переносит в него сцены из жизни.

Возраст: 18+ (зрителям, достигшим 18 лет. запрещено для детей)
Дата мировой премьеры: 17 мая 2018
Продолжительность: 01:38:02
Качество видео: WEB-DL
Перевод: Многоголосый закадровый, профессиональный (HDRezka Studio)
Субтитры: Русские форс.; полные MenInSub (ненормативная лексика), английские
Видео: AVC/H.264, 1912x800, ~4567 Kbps
Аудио #1: AC3, 2 ch, 192 Kbps - Русский
Аудио #2: AC3, 6 ch, 384 Kbps - Французский

MediaInfo:

Общее
Уникальный идентификатор : 119707356639748021643528565797011097841 (0x5A0ECC5B86F2835F86BB136BF29088F1)
Полное имя : D:\NNM\Нож в сердце\Un.couteau.dans.le.coeur.2018.WEB-DL.1080p-LQ.mkv
Формат : Matroska
Версия формата : Version 4
Размер файла : 3,52 Гбайт
Продолжительность : 1 ч. 38 м.
Общий поток : 5145 Кбит/сек
Дата кодирования : UTC 2019-08-18 05:05:27
Программа кодирования : mkvmerge v20.0.0 ('I Am The Sun') 64-bit
Библиотека кодирования : libebml v1.3.5 + libmatroska v1.4.8
Видео
Идентификатор : 1
Формат : AVC
Формат/Информация : Advanced Video Codec
Профиль формата : [email protected]
Настройки формата : CABAC / 5 Ref Frames
Параметр CABAC формата : Да
Параметр RefFrames формата : 5 кадров
Идентификатор кодека : V_MPEG4/ISO/AVC
Продолжительность : 1 ч. 38 м.
Битрейт : 4567 Кбит/сек
Ширина : 1912 пикселей
Высота : 800 пикселей
Соотношение сторон : 2,40:1
Режим частоты кадров : Постоянный
Частота кадров : 25,000 кадров/сек
Цветовое пространство : YUV
Субдискретизация насыщенности : 4:2:0
Битовая глубина : 8 бит
Тип развёртки : Прогрессивная
Бит/(Пиксели*Кадры) : 0.119
Размер потока : 3,13 Гбайт (89%)
Язык : English
Default : Да
Forced : Нет
Цветовой диапазон : Limited
Основные цвета : BT.709
Характеристики трансфера : BT.709
Коэффициенты матрицы : BT.709
Аудио #1
Идентификатор : 2
Формат : AC-3
Формат/Информация : Audio Coding 3
Коммерческое название : Dolby Digital
Идентификатор кодека : A_AC3
Продолжительность : 1 ч. 38 м.
Вид битрейта : Постоянный
Битрейт : 192 Кбит/сек
Каналы : 2 канала
Channel layout : L R
Частота : 48,0 КГц
Частота кадров : 31,250 кадров/сек (1536 SPF)
Битовая глубина : 16 бит
Метод сжатия : С потерями
Размер потока : 135 Мбайт (4%)
Заголовок : MVO HDRezka Studio
Язык : Russian
ServiceKind/String : Complete Main
Default : Да
Forced : Нет
Аудио #2
Идентификатор : 3
Формат : AC-3
Формат/Информация : Audio Coding 3
Коммерческое название : Dolby Digital
Идентификатор кодека : A_AC3
Продолжительность : 1 ч. 38 м.
Вид битрейта : Постоянный
Битрейт : 384 Кбит/сек
Каналы : 6 каналов
Channel layout : L R C LFE Ls Rs
Частота : 48,0 КГц
Частота кадров : 31,250 кадров/сек (1536 SPF)
Битовая глубина : 16 бит
Метод сжатия : С потерями
Размер потока : 269 Мбайт (7%)
Язык : French
ServiceKind/String : Complete Main
Default : Нет
Forced : Нет
Текст #1
Идентификатор : 4
Формат : UTF-8
Идентификатор кодека : S_TEXT/UTF8
Идентификатор кодека/Информация : UTF-8 Plain Text
Продолжительность : 1 ч. 13 м.
Битрейт : 1 бит/сек
ElementCount : 16
Размер потока : 688 байт (0%)
Заголовок : forced
Язык : Russian
Default : Да
Forced : Да
Текст #2
Идентификатор : 5
Формат : UTF-8
Идентификатор кодека : S_TEXT/UTF8
Идентификатор кодека/Информация : UTF-8 Plain Text
Продолжительность : 1 ч. 22 м.
Битрейт : 58 бит/сек
ElementCount : 822
Размер потока : 35,5 Кбайт (0%)
Заголовок : MenInSub
Язык : Russian
Default : Нет
Forced : Нет
Текст #3
Идентификатор : 6
Формат : UTF-8
Идентификатор кодека : S_TEXT/UTF8
Идентификатор кодека/Информация : UTF-8 Plain Text
Продолжительность : 1 ч. 21 м.
Битрейт : 33 бит/сек
ElementCount : 821
Размер потока : 20,2 Кбайт (0%)
Язык : English
Default : Нет
Forced : Нет
Меню
00:00:00.000 : en:Chapitre 01
00:09:00.000 : en:Chapitre 02
00:18:00.000 : en:Chapitre 03
00:27:00.000 : en:Chapitre 04
00:36:00.000 : en:Chapitre 05
00:45:00.000 : en:Chapitre 06
00:54:00.000 : en:Chapitre 07
01:03:00.000 : en:Chapitre 08
01:12:00.000 : en:Chapitre 09
01:21:00.000 : en:Chapitre 10
Скриншоты:        

Clavik

Post 11-Aug-2019 00:06

[Quote]

Дорога чести / Путь в Палому / Road to Paloma (2014) BDRip [H.264]
«On the road. On the run»
- Производство: США / Boss Media, Pride of Gypsies
Жанр: триллер, драма
Режиссер: Джейсон Момоа
Актеры: Ти Александр, Henree Alyse, Лиза Боне, Kenneth Dale Borill, Крис Браунинг, Charlie Brumbly, Линден Чайлз, Michael Hayes, Лэнс Хенриксен, Роберт Гомер Моллохан
Описание: Роберт Вольф, коренной американец, совершив самосуд над убийцей матери, вынужден скрываться от полиции. Его железный конь не знает усталости и летит по бескрайним пустынным хайвеям Америки. На пути Роберт встречает такого же бродягу на мотоцикле и дорога становится домом для них обоих.

Возраст: 18+ (зрителям, достигшим 18 лет. запрещено для детей)
Рейтинг MPAA: R (лицам до 17 лет обязательно присутствие взрослого)
Релиз от: stalkerok & New-Team
Продолжительность: 01:30:28
Качество видео: BDRip [url=http://sendfile.su/1510264]
Перевод: Многоголосый закадровый, профессиональный (Soul-Pro | Кинопремьера HD)
Субтитры: русские (полные), английские (полные, SDH)
Видео: AVC/H.264, 2471 kbps, 1152x480 (2.40:1), 23,976 fps
Аудио №1: AC3, 448 kbps, 6 ch - русский
Аудио №2: AC3, 448 kbps, 6 ch - английский

Доп. Инфо

Исходник: Road to Paloma 2014 1080p Blu-ray Remux AVC TrueHD 5.1 - KRaLiMaRKo

MediaInfo

---[Information] [09.08.2019 20:40:03] x264 [info]: frame I:775   Avg QP:15.18  size: 58275
---[Information] [09.08.2019 20:40:03] x264 [info]: frame P:27610 Avg QP:16.46 size: 25492
---[Information] [09.08.2019 20:40:03] x264 [info]: frame B:101767 Avg QP:18.78 size: 9120
General
Unique ID : 286155149592718309271178532751293454668 (0xD7477A25763BFFB3DD920A329D9A994C)
Complete name : C:\temp\Road to Paloma\Road.to.Paloma.2014.BDRip.x264.Rus.Eng.stalkerok.New-Team.mkv
Format : Matroska
Format version : Version 4
File size : 2.13 GiB
Duration : 1 h 30 min
Overall bit rate : 3 370 kb/s
Movie name : Road to Paloma (2014) | Rip by stalkerok
Encoded date : UTC 2019-08-10 13:14:48
Writing application : mkvmerge v33.1.0 ('Primrose') 64-bit
Writing library : libebml v1.3.7 + libmatroska v1.5.0
Video
ID : 1
Format : AVC
Format/Info : Advanced Video Codec
Format profile : [url=mailto:[email protected]][email protected][/url]
Format settings : CABAC / 12 Ref Frames
Format settings, CABAC : Yes
Format settings, RefFrames : 12 frames
Codec ID : V_MPEG4/ISO/AVC
Duration : 1 h 30 min
Bit rate : 2 472 kb/s
Width : 1 152 pixels
Height : 480 pixels
Display aspect ratio : 2.40:1
Frame rate mode : Constant
Frame rate : 23.976 (24000/1001) FPS
Color space : YUV
Chroma subsampling : 4:2:0
Bit depth : 8 bits
Scan type : Progressive
Bits/(Pixel*Frame) : 0.186
Stream size : 1.56 GiB (73%)
Title : Road to Paloma (2014) | Rip by stalkerok
Writing library : x264 core 158 r2984+49 6932f4a t_mod_New [[email protected] X86_64]
Encoding settings : cabac=1 / ref=12 / deblock=1:-3:-2 / analyse=0x3:0x133 / me=umh / subme=11 / psy=1 / fade_compensate=0.00 / psy_rd=1.00:0.00 / mixed_ref=1 / me_range=32 / chroma_me=1 / trellis=2 / 8x8dct=1 / cqm=0 / deadzone=21,11 / fast_pskip=0 / chroma_qp_offset=-2 / threads=12 / lookahead_threads=3 / sliced_threads=0 / nr=0 / decimate=1 / interlaced=0 / bluray_compat=0 / constrained_intra=0 / fgo=0 / bframes=14 / b_pyramid=2 / b_adapt=2 / b_bias=0 / direct=3 / weightb=1 / open_gop=0 / weightp=2 / keyint=240 / keyint_min=23 / scenecut=40 / intra_refresh=0 / rc_lookahead=60 / rc=crf / mbtree=0 / crf=17.6000 / qcomp=0.65 / qpmin=0:0:0 / qpmax=69:69:69 / qpstep=4 / vbv_maxrate=50000 / vbv_bufsize=62500 / crf_max=0.0 / nal_hrd=none / filler=0 / ip_ratio=1.40 / pb_ratio=1.30 / aq=3:0.80 / aq-sensitivity=10.00 / aq-factor=1.00:1.00:1.00 / aq2=0 / aq3=0 / zones=124493,130151,q=32
Default : Yes
Forced : No
Audio #1
ID : 2
Format : AC-3
Format/Info : Audio Coding 3
Commercial name : Dolby Digital
Codec ID : A_AC3
Duration : 1 h 30 min
Bit rate mode : Constant
Bit rate : 448 kb/s
Channel(s) : 6 channels
Channel layout : L R C LFE Ls Rs
Sampling rate : 48.0 kHz
Frame rate : 31.250 FPS (1536 SPF)
Bit depth : 16 bits
Compression mode : Lossy
Stream size : 290 MiB (13%)
Title : MVO Soul-Pro (Кинопремьера HD)
Language : Russian
Service kind : Complete Main
Default : Yes
Forced : No
Audio #2
ID : 3
Format : AC-3
Format/Info : Audio Coding 3
Commercial name : Dolby Digital
Codec ID : A_AC3
Duration : 1 h 30 min
Bit rate mode : Constant
Bit rate : 448 kb/s
Channel(s) : 6 channels
Channel layout : L R C LFE Ls Rs
Sampling rate : 48.0 kHz
Frame rate : 31.250 FPS (1536 SPF)
Bit depth : 16 bits
Compression mode : Lossy
Stream size : 290 MiB (13%)
Language : English
Service kind : Complete Main
Default : No
Forced : No
Text #1
ID : 4
Format : UTF-8
Codec ID : S_TEXT/UTF8
Codec ID/Info : UTF-8 Plain Text
Duration : 1 h 24 min
Bit rate : 45 b/s
Count of elements : 758
Stream size : 28.1 KiB (0%)
Title : Full (anna_sovest)
Language : Russian
Default : No
Forced : No
Text #2
ID : 5
Format : UTF-8
Codec ID : S_TEXT/UTF8
Codec ID/Info : UTF-8 Plain Text
Duration : 1 h 28 min
Bit rate : 39 b/s
Count of elements : 931
Stream size : 25.5 KiB (0%)
Title : Full
Language : English
Default : No
Forced : No
Text #3
ID : 6
Format : UTF-8
Codec ID : S_TEXT/UTF8
Codec ID/Info : UTF-8 Plain Text
Duration : 1 h 29 min
Bit rate : 42 b/s
Count of elements : 1044
Stream size : 27.8 KiB (0%)
Title : SDH
Language : English
Default : No
Forced : No
Text #4
ID : 7
Format : UTF-8
Codec ID : S_TEXT/UTF8
Codec ID/Info : UTF-8 Plain Text
Duration : 1 h 30 min
Bit rate : 51 b/s
Count of elements : 1046
Stream size : 34.1 KiB (0%)
Title : SDH Colored
Language : English
Default : No
Forced : No
Menu
00:00:00.000 : en:00:00:00.000
00:04:12.419 : en:00:04:12.419
00:13:57.920 : en:00:13:57.920
00:21:19.987 : en:00:21:19.987
00:28:26.371 : en:00:28:26.371
00:37:09.227 : en:00:37:09.227
00:49:37.349 : en:00:49:37.349
00:57:21.021 : en:00:57:21.021
01:06:13.178 : en:01:06:13.178
01:12:40.856 : en:01:12:40.856
01:19:33.811 : en:01:19:33.811
01:26:23.762 : en:01:26:23.762
Скриншоты:
       

kilmister777

Post 05-Apr-2019 12:23

[Quote]

Мотылек / Papillon- Год выпуска: 2017
Страна: Чехия, Испания, США
Жанр: драма, криминал
Продолжительность: 02:13:14
Перевод: Профессиональный(дублированный) Лицензия BD RUS- -Режиссер: Михаэль Ноер-В ролях: Чарли Ханнэм, Рами Малек, Роланд Мюллер, Йоэль Басман, Йорик ван Вагенинген, Майкл Сока, Кристофер Фэйрбэнк, Ив Хьюсон, Томми Флэнаган, Николас Асбари-Описание: Взломщик сейфов по прозвищу Мотылёк получает пожизненный срок и отправляется на каторгу за убийство, которого он не совершал. Когда вокруг враги, а надежда угасает с каждым днём заключения, лишь сила духа может помочь Мотыльку обрести свободу.-Качество: BDRip
Формат: AVI
Видео кодек: XviD
Аудио кодек: AC3
Видео: 720x304 (2.37:1), 24.000 fps, XviD build 73 ~1885 kbps avg, 0.30 bit/pixel
Аудио: 48 kHz, AC3 Dolby Digital, 3/2 (L,C,R,l,r) + LFE ch, ~448 kbps-

Скриншоты

         

Theseus

Post 12-Mar-2018 15:08

[Quote]

Паранормальный отряд / Ghost Team -Год выхода: 2016
Страна: США
Жанр: комедия
Продолжительность: 01:24:51
Перевод: Профессиональный (полное дублирование) | iTunes
Субтитры: Отсутствуют-Режиссер: Оливер Ирвинг-В ролях: Джон Хидер, Дэвид Крамхолц, Джастин Лонг, Мелони Диас, Эми Седарис, Пол В. Даунс, Том Шиллер, Джоэль Марш Гарлэнд, Мартин Барабаш, Вероника Дэш-О фильме: Энтузиасты сверхъестественного отправляются на заброшенную ферму, где, судя по слухам, можно столкнуться с необъяснимыми явлениями, и действительно находят нечто. Возможно, к привидениям это Нечто и не имеет никакого отношения, но зато поможет одиноким людям отыскать настоящую дружбу и пережить захватывающее приключение. Каждый из нас ищет по жизни что-то большое и важное — Призрачная команда своей цели, похоже, достигнет.- -Качество: WEB-DLRip
Формат: AVI
Видео кодек: XviD
Аудио кодек: AC3
Видео: MPEG4, XviD, 720x304 (2.35:1), 23.976 fps, 1 918 Kbps (0.365 bit/pixel)
Аудио: AC-3, 48.0 KHz, 6 ch, 384 Kbps, CBR-> Сэмпл-
     
- -

Theseus

Post 09-Dec-2017 15:29

[Quote]

-Дракула / Dracula Untold- Год выпуска: 2014
Страна: США
Жанр: фантастика, боевик, драма
Продолжительность: 01:32:08
Перевод: Профессиональный (полное дублирование) [Лицензия]
Режиссер: Гари Шор-В ролях: Люк Эванс, Сара Гадон, Доминик Купер, Арт Паркинсон, Чарльз Дэнс, Дайармейд Мерта, Пол Кэй, Уильям Хьюстон, Ной Хантли, Ронан Вайберт-Описание: Влад Дракула был величайшим правителем, доблестным воином и страстным мужчиной. Но судьба свела его с врагом, коварство которого не знало границ. И тогда Дракула заключил сделку - нечеловеческая сила в обмен на самую малость - бессмертную душу... .- -Качество: BDRip
Формат: AVI
Видео кодек: XviD
Аудио кодек: AC3
Видео: 720x304 (2.37:1), 23.976 fps, XviD build 73 ~1809 kbps avg, 0.34 bit/pixel
Аудио: AC-3, 48.0 KHz, 6 ch, 448 Kbps, CBR-

Трейлер

-    - -

Theseus

Post 09-Dec-2017 15:29

[Quote]

-Дракула / Dracula Untold- Год выпуска: 2014
Страна: США
Жанр: фантастика, боевик, драма
Продолжительность: 01:32:08
Перевод: Профессиональный (полное дублирование) [Лицензия]
Субтитры: Русские (форсированные, полные), английские (full, SDH. colored)-Режиссер: Гари Шор-В ролях: Люк Эванс, Сара Гадон, Доминик Купер, Арт Паркинсон, Чарльз Дэнс, Дайармейд Мерта, Пол Кэй, Уильям Хьюстон, Ной Хантли, Ронан Вайберт-Описание: Влад Дракула был величайшим правителем, доблестным воином и страстным мужчиной. Но судьба свела его с врагом, коварство которого не знало границ. И тогда Дракула заключил сделку - нечеловеческая сила в обмен на самую малость - бессмертную душу... .- -Качество: BDRip-AVC
Формат: MKV
Видео кодек: x.264
Аудио кодек: AC3
Видео: AVC, 1024x426 (2.40:1), 23.976 fps, 2 000 Kbps (0.191 bit/pixel)
Аудио #1: AC-3, 48.0 KHz, 6 ch, 448 Kbps, CBR (Russian)
Аудио #2: AC-3, 48.0 KHz, 6 ch, 448 Kbps, CBR (English)-

Трейлер

-     - -

Theseus

Post 03-Dec-2017 12:31

[Quote]

Невидимый гость / Contratiempo- Год выпуска: 2016
Страна: Австралия
Жанр: триллер, криминал, детектив
Продолжительность: 01:46:12
Перевод: Профессиональный (многоголосый закадровый) | Alex Film
Субтитры: Русские (К. Ломов), английские-Режиссер: Ориол Паоло-В ролях: Марио Касас, Хосе Коронадо, Барбара Ленни, Ана Вахенер, Франсеск Орелья, Кристиан Валенсиа, Пако Тоус, Бетси Тунес, Давид Сельвас-Описание:Молодого бизнесмена Адриана Дориа обвиняют в убийстве любовницы, и он решает воспользоваться услугами Вирджинии Гудман, лучшего в стране специалиста по выходу из самых сложных ситуаций. Адриан содержится под домашним арестом, а завтра состоится судебное заседание, поэтому вечером к нему приходит Вирджиния, чтобы придумать наилучшую стратегию защиты. Для неё это последнее дело, и она не собирается его проигрывать.- -Качество: BDRip-AVC
Формат: MKV
Видео кодек: x.264
Аудио кодек: AC3
Видео: MPEG-4 AVC, 1024x426 (2.40:1), 24 fps, ~1385 kbps avg, 0.132 bit/pixel
Аудио 1: 48 kHz, AC3 Dolby Digital, 3/2 (L,C,R,l,r) + LFE ch, ~448 kbps avg | RUS
Аудио 2: 48 kHz, AC3 Dolby Digital, 3/2 (L,C,R,l,r) + LFE ch, ~448 kbps avg | ESP
-

Трейлер

-    - -

Theseus

Post 03-Dec-2017 12:30

[Quote]

Невидимый гость / Contratiempo- Год выпуска: 2016
Страна: Австралия
Жанр: триллер, криминал, детектив
Продолжительность: 01:46:20
Перевод: Профессиональный (многоголосый закадровый) | Alex Film
Субтитры: русские, английские (внешние)-Режиссер: Ориол Паоло-В ролях: Марио Касас, Хосе Коронадо, Барбара Ленни, Ана Вахенер, Франсеск Орелья, Кристиан Валенсиа, Пако Тоус, Бетси Тунес, Давид Сельвас-Описание:Молодого бизнесмена Адриана Дориа обвиняют в убийстве любовницы, и он решает воспользоваться услугами Вирджинии Гудман, лучшего в стране специалиста по выходу из самых сложных ситуаций. Адриан содержится под домашним арестом, а завтра состоится судебное заседание, поэтому вечером к нему приходит Вирджиния, чтобы придумать наилучшую стратегию защиты. Для неё это последнее дело, и она не собирается его проигрывать.- -Качество: BDRip
Формат: AVI
Видео кодек: XviD
Аудио кодек: AC3
Видео: XviD build 67, 720x304 (2.35:1), 23.976 fps, ~1958 kbps avg, 0.373 bit/pixel
Аудио 1: 48 kHz, AC3 Dolby Digital, 3/2 (L,C,R,l,r) + LFE ch, ~448 kbps avg | RUS
Аудио 2: 48 kHz, AC3 Dolby Digital, 3/2 (L,C,R,l,r) + LFE ch, ~448 kbps avg | ESP
-

Трейлер

-    - -
 

The time now is: Today 09:23

All times are GMT + 3 Hours